  0
SECTION
  2
HEADER
  9
$ACADVER
  1
AC1006
  9
$INSBASE
 10
-1750.642375
 20
2921.126944
 30
0.0
  9
$EXTMIN
 10
-1750.642375
 20
2921.126944
  9
$EXTMAX
 10
9659.133159
 20
10989.468214
  9
$LIMMIN
 10
-1750.642375
 20
2921.126944
  9
$LIMMAX
 10
9659.133159
 20
10989.468214
  9
$VIEWCTR
 10
3954.245392
 20
6955.297579
  9
$VIEWSIZE
 40
8068.341270
  9
$SNAPMODE
 70
     0
  9
$SNAPUNIT
 10
1.0
 20
1.0
  9
$SNAPBASE
 10
0.0
 20
0.0
  9
$SNAPANG
 50
0.0
  9
$SNAPSTYLE
 70
     0
  9
$SNAPISOPAIR
 70
     0
  9
$GRIDMODE
 70
     0
  9
$GRIDUNIT
 10
0.0
 20
0.0
  9
$ORTHOMODE
 70
     0
  9
$REGENMODE
 70
     1
  9
$FILLMODE
 70
     1
  9
$QTEXTMODE
 70
     0
  9
$DRAGMODE
 70
     2
  9
$LTSCALE
 40
15.000000
  9
$OSMODE
 70
     0
  9
$ATTMODE
 70
     1
  9
$TEXTSIZE
 40
0.2
  9
$TRACEWID
 40
0.05
  9
$TEXTSTYLE
  7
STANDARD
  9
$CLAYER
  8
CSLAYER3
  9
$CELTYPE
  6
BYLAYER
  9
$CECOLOR
 62
   256
  9
$DIMSCALE
 40
1.0
  9
$DIMASZ
 40
0.18
  9
$DIMEXO
 40
0.0625
  9
$DIMDLI
 40
0.38
  9
$DIMRND
 40
0.0
  9
$DIMDLE
 40
0.0
  9
$DIMEXE
 40
0.18
  9
$DIMTP
 40
0.0
  9
$DIMTM
 40
0.0
  9
$DIMTXT
 40
0.18
  9
$DIMCEN
 40
0.09
  9
$DIMTSZ
 40
0.0
  9
$DIMTOL
 70
     0
  9
$DIMLIM
 70
     0
  9
$DIMTIH
 70
     1
  9
$DIMTOH
 70
     1
  9
$DIMSE1
 70
     0
  9
$DIMSE2
 70
     0
  9
$DIMTAD
 70
     0
  9
$DIMZIN
 70
     0
  9
$DIMBLK
  1

  9
$LUNITS
 70
     2
  9
$LUPREC
 70
     4
  9
$AXISMODE
 70
     0
  9
$AXISUNIT
 10
0.0
 20
0.0
  9
$SKETCHINC
 40
0.1
  9
$FILLETRAD
 40
0.0
  9
$AUNITS
 70
     0
  9
$AUPREC
 70
     0
  9
$MENU
  1
ACAD
  9
$ELEVATION
 40
0.0
  9
$THICKNESS
 40
0.0
  9
$VIEWDIR
 10
0.0
 20
0.0
 30
1.0
  9
$LIMCHECK
 70
     0
  9
$BLIPMODE
 70
     1
  9
$CHAMFERA
 40
0.0
  9
$CHAMFERB
 40
0.0
  9
$FASTZOOM
 70
     1
  9
$SKPOLY
 70
     0
  9
$TDCREATE
 40
2453773.000000
  9
$TDUPDATE
 40
2453773.000000
  9
$TDINDWG
 40
0.0
  9
$TDUSRTIMER
 40
0.0
  9
$USRTIMER
 70
     1
  9
$ANGBASE
 50
0.0
  9
$ANGDIR
 70
     0
  9
$PDMODE
 70
     0
  9
$PDSIZE
 40
0.0
  9
$PLINEWID
 40
0.0
  9
$COORDS
 70
     0
  9
$USERI1
 70
     0
  9
$USERI2
 70
     0
  9
$USERI3
 70
     0
  9
$USERI4
 70
     0
  9
$USERI5
 70
     0
  9
$USERR1
 40
0.0
  9
$USERR2
 40
0.0
  9
$USERR3
 40
0.0
  9
$USERR4
 40
0.0
  9
$USERR5
 40
0.0
  0
ENDSEC
  0
SECTION
  2
TABLES
  0
TABLE
  2
LTYPE
 70
     9
  0
LTYPE
  2
CONTINUOUS
 70
    64
  3
Solid line
 72
    65
 73
     0
 40
0.0
  0
LTYPE
  2
DASHED
 70
    64
  3
__ __ __ __ __ __ __ __ __ __ __ __ __ __ __
 72
    65
 73
     2
 40
0.75
 49
0.5
 49
-0.25
  0
LTYPE
  2
HIDDEN
 70
    64
  3
_ _ _ _ _ _ _ _ _ _ _ _ _ _ _ _ _ _ _ _ _ _ _
 72
    65
 73
     2
 40
0.375
 49
0.25
 49
-0.125
  0
LTYPE
  2
DOT
 70
    64
  3
...............................................
 72
    65
 73
     2
 40
0.25
 49
0.0
 49
-0.25
  0
LTYPE
  2
DASHDOT
 70
    64
  3
__ . __ . __ . __ . __ . __ . __ . __ . __ . __
 72
    65
 73
     4
 40
1.0
 49
0.5
 49
-0.25
 49
0.0
 49
-0.25
  0
LTYPE
  2
DIVIDE
 70
    64
  3
__ . . __ . . __ . . __ . . __ . . __ . . __
 72
    65
 73
     6
 40
1.25
 49
0.5
 49
-0.25
 49
0.0
 49
-0.25
 49
0.0
 49
-0.25
  0
LTYPE
  2
CENTER
 70
    64
  3
____ _ ____ _ ____ _ ____ _ ____ _ ____ _ ____ 
 72
    65
 73
     4
 40
2.0
 49
1.25
 49
-0.25
 49
0.25
 49
-0.25
  0
LTYPE
  2
PHANTOM
 70
    64
  3
______  __  __  ______  __  __  ______  __  __ 
 72
    65
 73
     6
 40
2.5
 49
1.25
 49
-0.25
 49
0.25
 49
-0.25
 49
0.25
 49
-0.25
  0
LTYPE
  2
BORDER
 70
    64
  3
__ __ . __ __ . __ __ . __ __ . __ __ . __ __ .
 72
    65
 73
     6
 40
1.75
 49
0.5
 49
-0.25
 49
0.5
 49
-0.25
 49
0.0
 49
-0.25
  0
ENDTAB
  0
TABLE
  2
LAYER
 70
    16
  0
LAYER
  2
CSLAYER1
 70
    64
 62
     7
  6
CONTINUOUS
  0
LAYER
  2
CSLAYER2
 70
    64
 62
     7
  6
CONTINUOUS
  0
LAYER
  2
CSLAYER3
 70
    64
 62
     7
  6
CONTINUOUS
  0
LAYER
  2
CSLAYER4
 70
    64
 62
     7
  6
CONTINUOUS
  0
LAYER
  2
CSLAYER5
 70
    64
 62
     7
  6
CONTINUOUS
  0
LAYER
  2
CSLAYER6
 70
    64
 62
     7
  6
CONTINUOUS
  0
LAYER
  2
CSLAYER7
 70
    64
 62
     7
  6
CONTINUOUS
  0
LAYER
  2
CSLAYER8
 70
    64
 62
     7
  6
CONTINUOUS
  0
LAYER
  2
CSLAYER9
 70
    64
 62
     7
  6
CONTINUOUS
  0
LAYER
  2
CSLAYER10
 70
    64
 62
     7
  6
CONTINUOUS
  0
LAYER
  2
CSLAYER11
 70
    64
 62
     7
  6
CONTINUOUS
  0
LAYER
  2
CSLAYER12
 70
    64
 62
     7
  6
CONTINUOUS
  0
LAYER
  2
CSLAYER13
 70
    64
 62
     7
  6
CONTINUOUS
  0
LAYER
  2
CSLAYER14
 70
    64
 62
     7
  6
CONTINUOUS
  0
LAYER
  2
CSLAYER15
 70
    64
 62
     7
  6
CONTINUOUS
  0
LAYER
  2
CSLAYER16
 70
    64
 62
     7
  6
CONTINUOUS
  0
ENDTAB
  0
TABLE
  2
STYLE
 70
     1
  0
STYLE
  2
FX_FONT
 70
     0
 40
1.0
 41
1.0
 50
0.0
 71
     0
 42
1.0
  3
monotxt
  4
bigfont
  0
ENDTAB
  0
TABLE
  2
VIEW
 70
     0
  0
ENDTAB
  0
ENDSEC
  0
SECTION
  2
BLOCKS
  0
BLOCK
  8
CSLAYER3
  2
*D0000
 70
    65
 10
0.0
 20
0.0
 30
0.0
  0
TEXT
  8
CSLAYER3
 62
     7
 10
1939.278427
 20
9336.322266
 40
35.999893
 41
0.545455
  1
99.6
 50
0.000000
 51
0.000000
  7
FX_FONT
 72
     5
 11
2011.278214
 21
9336.322266
  0
LINE
  8
CSLAYER3
  6
CONTINUOUS
 62
     7
 10
1905.557749
 20
9331.342037
 11
2005.157749
 21
9331.342037
  0
LINE
  8
CSLAYER3
  6
CONTINUOUS
 62
     7
 10
1905.557749
 20
9331.342037
 11
1910.387378
 21
9332.636132
  0
LINE
  8
CSLAYER3
  6
CONTINUOUS
 62
     7
 10
1905.557749
 20
9331.342037
 11
1910.387378
 21
9330.047942
  0
LINE
  8
CSLAYER3
  6
CONTINUOUS
 62
     7
 10
2005.157749
 20
9331.342037
 11
2000.328120
 21
9332.636132
  0
LINE
  8
CSLAYER3
  6
CONTINUOUS
 62
     7
 10
2005.157749
 20
9331.342037
 11
2000.328120
 21
9330.047942
  0
LINE
  8
CSLAYER3
  6
CONTINUOUS
 62
     7
 10
1905.557749
 20
9292.566260
 11
1905.557749
 21
9347.942037
  0
LINE
  8
CSLAYER3
  6
CONTINUOUS
 62
     7
 10
2005.157749
 20
9263.093798
 11
2005.157749
 21
9347.942037
  0
ENDBLK
  8
0
  0
BLOCK
  8
CSLAYER3
  2
*D0001
 70
    65
 10
0.0
 20
0.0
 30
0.0
  0
TEXT
  8
CSLAYER3
 62
     7
 10
2372.894531
 20
8583.854492
 40
12.000000
 41
0.521739
  1
1289.274
 50
90.000000
 51
0.000000
  7
FX_FONT
 72
     5
 11
2372.894531
 21
8631.854492
  0
LINE
  8
CSLAYER3
  6
CONTINUOUS
 62
     7
 10
2377.874606
 20
7963.217781
 11
2377.874606
 21
9252.491528
  0
LINE
  8
CSLAYER3
  6
CONTINUOUS
 62
     7
 10
2377.874606
 20
7963.217781
 11
2376.580510
 21
7968.047411
  0
LINE
  8
CSLAYER3
  6
CONTINUOUS
 62
     7
 10
2377.874606
 20
7963.217781
 11
2379.168701
 21
7968.047411
  0
LINE
  8
CSLAYER3
  6
CONTINUOUS
 62
     7
 10
2377.874606
 20
9252.491528
 11
2376.580510
 21
9247.661899
  0
LINE
  8
CSLAYER3
  6
CONTINUOUS
 62
     7
 10
2377.874606
 20
9252.491528
 11
2379.168701
 21
9247.661899
  0
LINE
  8
CSLAYER3
  6
CONTINUOUS
 62
     7
 10
2829.362498
 20
7963.217781
 11
2361.274606
 21
7963.217781
  0
LINE
  8
CSLAYER3
  6
CONTINUOUS
 62
     7
 10
2834.461099
 20
9252.491528
 11
2361.274606
 21
9252.491528
  0
ENDBLK
  8
0
  0
BLOCK
  8
CSLAYER3
  2
*D0002
 70
    65
 10
0.0
 20
0.0
 30
0.0
  0
TEXT
  8
CSLAYER3
 62
     7
 10
3099.339844
 20
9432.519531
 40
12.000000
 41
0.521739
  1
1175.128
 50
0.000000
 51
0.000000
  7
FX_FONT
 72
     5
 11
3147.339844
 21
9432.519531
  0
LINE
  8
CSLAYER3
  6
CONTINUOUS
 62
     7
 10
2535.775789
 20
9429.519751
 11
3710.903670
 21
9429.519751
  0
LINE
  8
CSLAYER3
  6
CONTINUOUS
 62
     7
 10
2535.775789
 20
9429.519751
 11
2540.605419
 21
9430.813847
  0
LINE
  8
CSLAYER3
  6
CONTINUOUS
 62
     7
 10
2535.775789
 20
9429.519751
 11
2540.605419
 21
9428.225656
  0
LINE
  8
CSLAYER3
  6
CONTINUOUS
 62
     7
 10
3710.903670
 20
9429.519751
 11
3706.074041
 21
9430.813847
  0
LINE
  8
CSLAYER3
  6
CONTINUOUS
 62
     7
 10
3710.903670
 20
9429.519751
 11
3706.074041
 21
9428.225656
  0
LINE
  8
CSLAYER3
  6
CONTINUOUS
 62
     7
 10
2535.775789
 20
8601.262679
 11
2535.775789
 21
9439.519751
  0
LINE
  8
CSLAYER3
  6
CONTINUOUS
 62
     7
 10
3710.903670
 20
8830.342679
 11
3710.903670
 21
9439.519751
  0
ENDBLK
  8
0
  0
BLOCK
  8
CSLAYER3
  2
*D0003
 70
    65
 10
0.0
 20
0.0
 30
0.0
  0
TEXT
  8
CSLAYER3
 62
     7
 10
2707.155273
 20
8597.562500
 40
12.000000
 41
0.562500
  1
664
 50
90.000000
 51
0.000000
  7
FX_FONT
 72
     5
 11
2707.155273
 21
8615.562500
  0
LINE
  8
CSLAYER3
  6
CONTINUOUS
 62
     7
 10
2710.155351
 20
8274.562679
 11
2710.155351
 21
8938.562679
  0
LINE
  8
CSLAYER3
  6
CONTINUOUS
 62
     7
 10
2710.155351
 20
8274.562679
 11
2708.861255
 21
8279.392308
  0
LINE
  8
CSLAYER3
  6
CONTINUOUS
 62
     7
 10
2710.155351
 20
8274.562679
 11
2711.449446
 21
8279.392308
  0
LINE
  8
CSLAYER3
  6
CONTINUOUS
 62
     7
 10
2710.155351
 20
8938.562679
 11
2708.861255
 21
8933.733050
  0
LINE
  8
CSLAYER3
  6
CONTINUOUS
 62
     7
 10
2710.155351
 20
8938.562679
 11
2711.449446
 21
8933.733050
  0
LINE
  8
CSLAYER3
  6
CONTINUOUS
 62
     7
 10
2831.423670
 20
8274.562679
 11
2700.155351
 21
8274.562679
  0
LINE
  8
CSLAYER3
  6
CONTINUOUS
 62
     7
 10
2831.423670
 20
8938.562679
 11
2700.155351
 21
8938.562679
  0
ENDBLK
  8
0
  0
BLOCK
  8
CSLAYER3
  2
*D0004
 70
    65
 10
0.0
 20
0.0
 30
0.0
  0
TEXT
  8
CSLAYER3
 62
     7
 10
880.928040
 20
7177.647949
 40
12.000000
 41
0.529412
  1
204.18
 50
360.000000
 51
0.000000
  7
FX_FONT
 72
     5
 11
916.928040
 21
7177.647949
  0
LINE
  8
CSLAYER3
  6
CONTINUOUS
 62
     7
 10
796.838090
 20
7174.647707
 11
1001.018090
 21
7174.647707
  0
LINE
  8
CSLAYER3
  6
CONTINUOUS
 62
     7
 10
796.838090
 20
7174.647707
 11
801.667719
 21
7175.941802
  0
LINE
  8
CSLAYER3
  6
CONTINUOUS
 62
     7
 10
796.838090
 20
7174.647707
 11
801.667719
 21
7173.353612
  0
LINE
  8
CSLAYER3
  6
CONTINUOUS
 62
     7
 10
1001.018090
 20
7174.647707
 11
996.188461
 21
7175.941802
  0
LINE
  8
CSLAYER3
  6
CONTINUOUS
 62
     7
 10
1001.018090
 20
7174.647707
 11
996.188461
 21
7173.353612
  0
LINE
  8
CSLAYER3
  6
CONTINUOUS
 62
     7
 10
1001.018090
 20
7161.882242
 11
1001.018090
 21
7184.647707
  0
LINE
  8
CSLAYER3
  6
CONTINUOUS
 62
     7
 10
796.838090
 20
7161.882242
 11
796.838090
 21
7184.647707
  0
ENDBLK
  8
0
  0
BLOCK
  8
CSLAYER3
  2
*D0005
 70
    65
 10
0.0
 20
0.0
 30
0.0
  0
TEXT
  8
CSLAYER3
 62
     7
 10
389.519623
 20
7808.666016
 40
12.000000
 41
0.562500
  1
400
 50
90.000000
 51
0.000000
  7
FX_FONT
 72
     5
 11
389.519623
 21
7826.666016
  0
LINE
  8
CSLAYER3
  6
CONTINUOUS
 62
     7
 10
392.519618
 20
7667.739467
 11
392.519618
 21
8067.739467
  0
LINE
  8
CSLAYER3
  6
CONTINUOUS
 62
     7
 10
392.519618
 20
7667.739467
 11
391.225523
 21
7672.569096
  0
LINE
  8
CSLAYER3
  6
CONTINUOUS
 62
     7
 10
392.519618
 20
7667.739467
 11
393.813714
 21
7672.569096
  0
LINE
  8
CSLAYER3
  6
CONTINUOUS
 62
     7
 10
392.519618
 20
8067.739467
 11
391.225523
 21
8062.909838
  0
LINE
  8
CSLAYER3
  6
CONTINUOUS
 62
     7
 10
392.519618
 20
8067.739467
 11
393.813714
 21
8062.909838
  0
LINE
  8
CSLAYER3
  6
CONTINUOUS
 62
     7
 10
426.949964
 20
7667.739467
 11
382.519618
 21
7667.739467
  0
LINE
  8
CSLAYER3
  6
CONTINUOUS
 62
     7
 10
426.949964
 20
8067.739467
 11
382.519618
 21
8067.739467
  0
ENDBLK
  8
0
  0
BLOCK
  8
CSLAYER3
  2
*D0006
 70
    65
 10
0.0
 20
0.0
 30
0.0
  0
TEXT
  8
CSLAYER3
 62
     7
 10
450.735443
 20
7683.323730
 40
12.000000
 41
0.529412
  1
77.571
 50
0.000000
 51
0.000000
  7
FX_FONT
 72
     5
 11
486.735443
 21
7683.323730
  0
LINE
  8
CSLAYER3
  6
CONTINUOUS
 62
     7
 10
429.949964
 20
7680.323941
 11
507.520890
 21
7680.323941
  0
LINE
  8
CSLAYER3
  6
CONTINUOUS
 62
     7
 10
429.949964
 20
7680.323941
 11
434.779594
 21
7681.618036
  0
LINE
  8
CSLAYER3
  6
CONTINUOUS
 62
     7
 10
429.949964
 20
7680.323941
 11
434.779594
 21
7679.029845
  0
LINE
  8
CSLAYER3
  6
CONTINUOUS
 62
     7
 10
507.520890
 20
7680.323941
 11
502.691261
 21
7681.618036
  0
LINE
  8
CSLAYER3
  6
CONTINUOUS
 62
     7
 10
507.520890
 20
7680.323941
 11
502.691261
 21
7679.029845
  0
LINE
  8
CSLAYER3
  6
CONTINUOUS
 62
     7
 10
429.949964
 20
7670.739467
 11
429.949964
 21
7690.323941
  0
LINE
  8
CSLAYER3
  6
CONTINUOUS
 62
     7
 10
507.520890
 20
7675.721941
 11
507.520890
 21
7690.323941
  0
ENDBLK
  8
0
  0
BLOCK
  8
CSLAYER3
  2
*D0007
 70
    65
 10
0.0
 20
0.0
 30
0.0
  0
TEXT
  8
CSLAYER3
 62
     7
 10
444.917633
 20
8087.056641
 40
12.000000
 41
0.529412
  1
65.935
 50
0.000000
 51
0.000000
  7
FX_FONT
 72
     5
 11
480.917633
 21
8087.056641
  0
LINE
  8
CSLAYER3
  6
CONTINUOUS
 62
     7
 10
429.949964
 20
8084.057116
 11
495.885251
 21
8084.057116
  0
LINE
  8
CSLAYER3
  6
CONTINUOUS
 62
     7
 10
429.949964
 20
8084.057116
 11
434.779594
 21
8085.351211
  0
LINE
  8
CSLAYER3
  6
CONTINUOUS
 62
     7
 10
429.949964
 20
8084.057116
 11
434.779594
 21
8082.763021
  0
LINE
  8
CSLAYER3
  6
CONTINUOUS
 62
     7
 10
495.885251
 20
8084.057116
 11
491.055622
 21
8085.351211
  0
LINE
  8
CSLAYER3
  6
CONTINUOUS
 62
     7
 10
495.885251
 20
8084.057116
 11
491.055622
 21
8082.763021
  0
LINE
  8
CSLAYER3
  6
CONTINUOUS
 62
     7
 10
429.949964
 20
8070.739467
 11
429.949964
 21
8094.057116
  0
LINE
  8
CSLAYER3
  6
CONTINUOUS
 62
     7
 10
495.885251
 20
8074.974570
 11
495.885251
 21
8094.057116
  0
ENDBLK
  8
0
  0
BLOCK
  8
CSLAYER3
  2
*D0008
 70
    65
 10
0.0
 20
0.0
 30
0.0
  0
TEXT
  8
CSLAYER3
 62
     7
 10
2150.684570
 20
7063.268066
 40
12.000000
 41
0.525000
  1
137.256
 50
90.000000
 51
0.000000
  7
FX_FONT
 72
     5
 11
2150.684570
 21
7105.268066
  0
LINE
  8
CSLAYER3
  6
CONTINUOUS
 62
     7
 10
2153.684534
 20
7015.639819
 11
2153.684534
 21
7152.895837
  0
LINE
  8
CSLAYER3
  6
CONTINUOUS
 62
     7
 10
2153.684534
 20
7015.639819
 11
2152.390439
 21
7020.469448
  0
LINE
  8
CSLAYER3
  6
CONTINUOUS
 62
     7
 10
2153.684534
 20
7015.639819
 11
2154.978630
 21
7020.469448
  0
LINE
  8
CSLAYER3
  6
CONTINUOUS
 62
     7
 10
2153.684534
 20
7152.895837
 11
2152.390439
 21
7148.066208
  0
LINE
  8
CSLAYER3
  6
CONTINUOUS
 62
     7
 10
2153.684534
 20
7152.895837
 11
2154.978630
 21
7148.066208
  0
LINE
  8
CSLAYER3
  6
CONTINUOUS
 62
     7
 10
2077.420524
 20
7015.639819
 11
2163.684534
 21
7015.639819
  0
LINE
  8
CSLAYER3
  6
CONTINUOUS
 62
     7
 10
1893.995939
 20
7152.895837
 11
2163.684534
 21
7152.895837
  0
ENDBLK
  8
0
  0
BLOCK
  8
CSLAYER3
  2
*D0009
 70
    65
 10
0.0
 20
0.0
 30
0.0
  0
TEXT
  8
CSLAYER3
 62
     7
 10
1503.962036
 20
6873.473633
 40
12.000000
 41
0.525000
  1
142.984
 50
90.000000
 51
0.000000
  7
FX_FONT
 72
     5
 11
1503.962036
 21
6915.473633
  0
LINE
  8
CSLAYER3
  6
CONTINUOUS
 62
     7
 10
1506.962016
 20
6822.981405
 11
1506.962016
 21
6965.965418
  0
LINE
  8
CSLAYER3
  6
CONTINUOUS
 62
     7
 10
1506.962016
 20
6822.981405
 11
1505.667921
 21
6827.811034
  0
LINE
  8
CSLAYER3
  6
CONTINUOUS
 62
     7
 10
1506.962016
 20
6822.981405
 11
1508.256112
 21
6827.811034
  0
LINE
  8
CSLAYER3
  6
CONTINUOUS
 62
     7
 10
1506.962016
 20
6965.965418
 11
1505.667921
 21
6961.135789
  0
LINE
  8
CSLAYER3
  6
CONTINUOUS
 62
     7
 10
1506.962016
 20
6965.965418
 11
1508.256112
 21
6961.135789
  0
LINE
  8
CSLAYER3
  6
CONTINUOUS
 62
     7
 10
1536.380504
 20
6822.981405
 11
1496.962016
 21
6822.981405
  0
LINE
  8
CSLAYER3
  6
CONTINUOUS
 62
     7
 10
1726.207312
 20
6965.965418
 11
1496.962016
 21
6965.965418
  0
ENDBLK
  8
0
  0
BLOCK
  8
CSLAYER3
  2
*D0010
 70
    65
 10
0.0
 20
0.0
 30
0.0
  0
TEXT
  8
CSLAYER3
 62
     7
 10
1948.914185
 20
6869.737305
 40
12.000000
 41
0.525000
  1
132.401
 50
90.000000
 51
0.000000
  7
FX_FONT
 72
     5
 11
1948.914185
 21
6911.737305
  0
LINE
  8
CSLAYER3
  6
CONTINUOUS
 62
     7
 10
1951.914157
 20
6824.537035
 11
1951.914157
 21
6956.937623
  0
LINE
  8
CSLAYER3
  6
CONTINUOUS
 62
     7
 10
1951.914157
 20
6824.537035
 11
1950.620062
 21
6829.366665
  0
LINE
  8
CSLAYER3
  6
CONTINUOUS
 62
     7
 10
1951.914157
 20
6824.537035
 11
1953.208253
 21
6829.366665
  0
LINE
  8
CSLAYER3
  6
CONTINUOUS
 62
     7
 10
1951.914157
 20
6956.937623
 11
1950.620062
 21
6952.107994
  0
LINE
  8
CSLAYER3
  6
CONTINUOUS
 62
     7
 10
1951.914157
 20
6956.937623
 11
1953.208253
 21
6952.107994
  0
LINE
  8
CSLAYER3
  6
CONTINUOUS
 62
     7
 10
1958.308887
 20
6824.537035
 11
1941.914157
 21
6824.537035
  0
LINE
  8
CSLAYER3
  6
CONTINUOUS
 62
     7
 10
1983.190693
 20
6956.937623
 11
1941.914157
 21
6956.937623
  0
ENDBLK
  8
0
  0
BLOCK
  8
CSLAYER3
  2
*D0011
 70
    65
 10
0.0
 20
0.0
 30
0.0
  0
TEXT
  8
CSLAYER3
 62
     7
 10
1704.913818
 20
6788.854004
 40
12.000000
 41
0.525000
  1
373.067
 50
0.000000
 51
0.000000
  7
FX_FONT
 72
     5
 11
1746.913818
 21
6788.854004
  0
LINE
  8
CSLAYER3
  6
CONTINUOUS
 62
     7
 10
1539.380504
 20
6785.854037
 11
1912.447171
 21
6785.854037
  0
LINE
  8
CSLAYER3
  6
CONTINUOUS
 62
     7
 10
1539.380504
 20
6785.854037
 11
1544.210133
 21
6787.148133
  0
LINE
  8
CSLAYER3
  6
CONTINUOUS
 62
     7
 10
1539.380504
 20
6785.854037
 11
1544.210133
 21
6784.559942
  0
LINE
  8
CSLAYER3
  6
CONTINUOUS
 62
     7
 10
1912.447171
 20
6785.854037
 11
1907.617541
 21
6787.148133
  0
LINE
  8
CSLAYER3
  6
CONTINUOUS
 62
     7
 10
1912.447171
 20
6785.854037
 11
1907.617541
 21
6784.559942
  0
LINE
  8
CSLAYER3
  6
CONTINUOUS
 62
     7
 10
1539.380504
 20
6819.981405
 11
1539.380504
 21
6775.854037
  0
LINE
  8
CSLAYER3
  6
CONTINUOUS
 62
     7
 10
1912.447171
 20
6819.981405
 11
1912.447171
 21
6775.854037
  0
ENDBLK
  8
0
  0
BLOCK
  8
CSLAYER3
  2
*D0012
 70
    65
 10
0.0
 20
0.0
 30
0.0
  0
TEXT
  8
CSLAYER3
 62
     7
 10
2081.332764
 20
6797.665039
 40
12.000000
 41
0.525000
  1
282.048
 50
0.000000
 51
0.000000
  7
FX_FONT
 72
     5
 11
2123.332764
 21
6797.665039
  0
LINE
  8
CSLAYER3
  6
CONTINUOUS
 62
     7
 10
1961.308887
 20
6794.664971
 11
2243.356768
 21
6794.664971
  0
LINE
  8
CSLAYER3
  6
CONTINUOUS
 62
     7
 10
1961.308887
 20
6794.664971
 11
1966.138517
 21
6795.959066
  0
LINE
  8
CSLAYER3
  6
CONTINUOUS
 62
     7
 10
1961.308887
 20
6794.664971
 11
1966.138517
 21
6793.370876
  0
LINE
  8
CSLAYER3
  6
CONTINUOUS
 62
     7
 10
2243.356768
 20
6794.664971
 11
2238.527139
 21
6795.959066
  0
LINE
  8
CSLAYER3
  6
CONTINUOUS
 62
     7
 10
2243.356768
 20
6794.664971
 11
2238.527139
 21
6793.370876
  0
LINE
  8
CSLAYER3
  6
CONTINUOUS
 62
     7
 10
1961.308887
 20
6821.537035
 11
1961.308887
 21
6784.664971
  0
LINE
  8
CSLAYER3
  6
CONTINUOUS
 62
     7
 10
2243.356768
 20
6945.637035
 11
2243.356768
 21
6784.664971
  0
ENDBLK
  8
0
  0
BLOCK
  8
CSLAYER3
  2
*D0013
 70
    65
 10
0.0
 20
0.0
 30
0.0
  0
TEXT
  8
CSLAYER3
 62
     7
 10
1925.283203
 20
7177.416016
 40
12.000000
 41
0.525000
  1
257.725
 50
0.000000
 51
0.000000
  7
FX_FONT
 72
     5
 11
1967.283203
 21
7177.416016
  0
LINE
  8
CSLAYER3
  6
CONTINUOUS
 62
     7
 10
1817.420524
 20
7174.416204
 11
2075.145915
 21
7174.416204
  0
LINE
  8
CSLAYER3
  6
CONTINUOUS
 62
     7
 10
1817.420524
 20
7174.416204
 11
1822.250153
 21
7175.710299
  0
LINE
  8
CSLAYER3
  6
CONTINUOUS
 62
     7
 10
1817.420524
 20
7174.416204
 11
1822.250153
 21
7173.122109
  0
LINE
  8
CSLAYER3
  6
CONTINUOUS
 62
     7
 10
2075.145915
 20
7174.416204
 11
2070.316286
 21
7175.710299
  0
LINE
  8
CSLAYER3
  6
CONTINUOUS
 62
     7
 10
2075.145915
 20
7174.416204
 11
2070.316286
 21
7173.122109
  0
LINE
  8
CSLAYER3
  6
CONTINUOUS
 62
     7
 10
1817.420524
 20
7090.639819
 11
1817.420524
 21
7184.416204
  0
LINE
  8
CSLAYER3
  6
CONTINUOUS
 62
     7
 10
2075.145915
 20
7155.895837
 11
2075.145915
 21
7184.416204
  0
ENDBLK
  8
0
  0
BLOCK
  8
CSLAYER3
  2
*D0014
 70
    65
 10
0.0
 20
0.0
 30
0.0
  0
TEXT
  8
CSLAYER3
 62
     7
 10
1720.633667
 20
6994.795898
 40
12.000000
 41
0.525000
  1
250.821
 50
0.000000
 51
0.000000
  7
FX_FONT
 72
     5
 11
1762.633667
 21
6994.795898
  0
LINE
  8
CSLAYER3
  6
CONTINUOUS
 62
     7
 10
1616.223299
 20
6991.796030
 11
1867.044049
 21
6991.796030
  0
LINE
  8
CSLAYER3
  6
CONTINUOUS
 62
     7
 10
1616.223299
 20
6991.796030
 11
1621.052928
 21
6993.090125
  0
LINE
  8
CSLAYER3
  6
CONTINUOUS
 62
     7
 10
1616.223299
 20
6991.796030
 11
1621.052928
 21
6990.501934
  0
LINE
  8
CSLAYER3
  6
CONTINUOUS
 62
     7
 10
1867.044049
 20
6991.796030
 11
1862.214420
 21
6993.090125
  0
LINE
  8
CSLAYER3
  6
CONTINUOUS
 62
     7
 10
1867.044049
 20
6991.796030
 11
1862.214420
 21
6990.501934
  0
LINE
  8
CSLAYER3
  6
CONTINUOUS
 62
     7
 10
1616.223299
 20
6962.981405
 11
1616.223299
 21
7001.796030
  0
LINE
  8
CSLAYER3
  6
CONTINUOUS
 62
     7
 10
1867.044049
 20
6923.471232
 11
1867.044049
 21
7001.796030
  0
ENDBLK
  8
0
  0
BLOCK
  8
CSLAYER3
  2
*D0015
 70
    65
 10
0.0
 20
0.0
 30
0.0
  0
TEXT
  8
CSLAYER3
 62
     7
 10
1590.627563
 20
6912.473633
 40
12.000000
 41
0.529412
  1
70.984
 50
90.000000
 51
0.000000
  7
FX_FONT
 72
     5
 11
1590.627563
 21
6948.473633
  0
LINE
  8
CSLAYER3
  6
CONTINUOUS
 62
     7
 10
1593.627536
 20
6894.981405
 11
1593.627536
 21
6965.965418
  0
LINE
  8
CSLAYER3
  6
CONTINUOUS
 62
     7
 10
1593.627536
 20
6894.981405
 11
1592.333441
 21
6899.811034
  0
LINE
  8
CSLAYER3
  6
CONTINUOUS
 62
     7
 10
1593.627536
 20
6894.981405
 11
1594.921632
 21
6899.811034
  0
LINE
  8
CSLAYER3
  6
CONTINUOUS
 62
     7
 10
1593.627536
 20
6965.965418
 11
1592.333441
 21
6961.135789
  0
LINE
  8
CSLAYER3
  6
CONTINUOUS
 62
     7
 10
1593.627536
 20
6965.965418
 11
1594.921632
 21
6961.135789
  0
LINE
  8
CSLAYER3
  6
CONTINUOUS
 62
     7
 10
1613.223299
 20
6894.981405
 11
1583.627536
 21
6894.981405
  0
LINE
  8
CSLAYER3
  6
CONTINUOUS
 62
     7
 10
1726.207312
 20
6965.965418
 11
1583.627536
 21
6965.965418
  0
ENDBLK
  8
0
  0
BLOCK
  8
CSLAYER3
  2
*D0016
 70
    65
 10
0.0
 20
0.0
 30
0.0
  0
TEXT
  8
CSLAYER3
 62
     7
 10
1128.064697
 20
7728.192383
 40
12.000000
 41
0.562500
  1
100
 50
90.000000
 51
0.000000
  7
FX_FONT
 72
     5
 11
1128.064697
 21
7746.192383
  0
LINE
  8
CSLAYER3
  6
CONTINUOUS
 62
     7
 10
1131.064746
 20
7687.392146
 11
1131.064746
 21
7786.992146
  0
LINE
  8
CSLAYER3
  6
CONTINUOUS
 62
     7
 10
1131.064746
 20
7687.392146
 11
1129.770651
 21
7692.221775
  0
LINE
  8
CSLAYER3
  6
CONTINUOUS
 62
     7
 10
1131.064746
 20
7687.392146
 11
1132.358841
 21
7692.221775
  0
LINE
  8
CSLAYER3
  6
CONTINUOUS
 62
     7
 10
1131.064746
 20
7786.992146
 11
1129.770651
 21
7782.162516
  0
LINE
  8
CSLAYER3
  6
CONTINUOUS
 62
     7
 10
1131.064746
 20
7786.992146
 11
1132.358841
 21
7782.162516
  0
LINE
  8
CSLAYER3
  6
CONTINUOUS
 62
     7
 10
1167.679267
 20
7786.992146
 11
1121.064746
 21
7786.992146
  0
ENDBLK
  8
0
  0
BLOCK
  8
CSLAYER3
  2
*D0017
 70
    65
 10
0.0
 20
0.0
 30
0.0
  0
TEXT
  8
CSLAYER3
 62
     7
 10
324.381531
 20
9291.415039
 40
30.000000
 41
0.750000
  1
382
 50
0.000000
 51
0.000000
  7
FX_FONT
 72
     5
 11
384.381531
 21
9291.415039
  0
LINE
  8
CSLAYER3
  6
CONTINUOUS
 62
     7
 10
163.114904
 20
9288.414093
 11
545.648095
 21
9288.414093
  0
LINE
  8
CSLAYER3
  6
CONTINUOUS
 62
     7
 10
163.114904
 20
9288.414093
 11
167.944533
 21
9289.708188
  0
LINE
  8
CSLAYER3
  6
CONTINUOUS
 62
     7
 10
163.114904
 20
9288.414093
 11
167.944533
 21
9287.119998
  0
LINE
  8
CSLAYER3
  6
CONTINUOUS
 62
     7
 10
545.648095
 20
9288.414093
 11
540.818466
 21
9289.708188
  0
LINE
  8
CSLAYER3
  6
CONTINUOUS
 62
     7
 10
545.648095
 20
9288.414093
 11
540.818466
 21
9287.119998
  0
LINE
  8
CSLAYER3
  6
CONTINUOUS
 62
     7
 10
163.114904
 20
9254.979997
 11
163.114904
 21
9298.414093
  0
LINE
  8
CSLAYER3
  6
CONTINUOUS
 62
     7
 10
545.648095
 20
9254.979997
 11
545.648095
 21
9298.414093
  0
ENDBLK
  8
0
  0
BLOCK
  8
CSLAYER3
  2
*D0018
 70
    65
 10
0.0
 20
0.0
 30
0.0
  0
TEXT
  8
CSLAYER3
 62
     7
 10
324.381531
 20
9324.896484
 40
30.000000
 41
0.750000
  1
440
 50
0.000000
 51
0.000000
  7
FX_FONT
 72
     5
 11
384.381531
 21
9324.896484
  0
LINE
  8
CSLAYER3
  6
CONTINUOUS
 62
     7
 10
133.601499
 20
9321.895640
 11
575.161499
 21
9321.895640
  0
LINE
  8
CSLAYER3
  6
CONTINUOUS
 62
     7
 10
133.601499
 20
9321.895640
 11
138.431129
 21
9323.189736
  0
LINE
  8
CSLAYER3
  6
CONTINUOUS
 62
     7
 10
133.601499
 20
9321.895640
 11
138.431129
 21
9320.601545
  0
LINE
  8
CSLAYER3
  6
CONTINUOUS
 62
     7
 10
575.161499
 20
9321.895640
 11
570.331870
 21
9323.189736
  0
LINE
  8
CSLAYER3
  6
CONTINUOUS
 62
     7
 10
575.161499
 20
9321.895640
 11
570.331870
 21
9320.601545
  0
LINE
  8
CSLAYER3
  6
CONTINUOUS
 62
     7
 10
133.601499
 20
9133.799997
 11
133.601499
 21
9331.895640
  0
LINE
  8
CSLAYER3
  6
CONTINUOUS
 62
     7
 10
575.161499
 20
9133.799997
 11
575.161499
 21
9331.895640
  0
ENDBLK
  8
0
  0
BLOCK
  8
CSLAYER3
  2
*D0019
 70
    65
 10
0.0
 20
0.0
 30
0.0
  0
TEXT
  8
CSLAYER3
 62
     7
 10
516.611877
 20
7977.907227
 40
12.000000
 41
0.562500
  1
182
 50
0.000000
 51
0.000000
  7
FX_FONT
 72
     5
 11
534.611877
 21
7977.907227
  0
LINE
  8
CSLAYER3
  6
CONTINUOUS
 62
     7
 10
434.949964
 20
7974.907493
 11
616.273775
 21
7974.907493
  0
LINE
  8
CSLAYER3
  6
CONTINUOUS
 62
     7
 10
434.949964
 20
7974.907493
 11
439.779594
 21
7976.201588
  0
LINE
  8
CSLAYER3
  6
CONTINUOUS
 62
     7
 10
434.949964
 20
7974.907493
 11
439.779594
 21
7973.613397
  0
LINE
  8
CSLAYER3
  6
CONTINUOUS
 62
     7
 10
616.273775
 20
7974.907493
 11
611.444146
 21
7976.201588
  0
LINE
  8
CSLAYER3
  6
CONTINUOUS
 62
     7
 10
616.273775
 20
7974.907493
 11
611.444146
 21
7973.613397
  0
LINE
  8
CSLAYER3
  6
CONTINUOUS
 62
     7
 10
434.949964
 20
7952.409613
 11
434.949964
 21
7984.907493
  0
LINE
  8
CSLAYER3
  6
CONTINUOUS
 62
     7
 10
616.273775
 20
7935.878587
 11
616.273775
 21
7984.907493
  0
ENDBLK
  8
0
  0
BLOCK
  8
CSLAYER3
  2
*D0020
 70
    65
 10
0.0
 20
0.0
 30
0.0
  0
TEXT
  8
CSLAYER3
 62
     7
 10
534.830444
 20
7731.788574
 40
12.000000
 41
0.562500
  1
218
 50
0.000000
 51
0.000000
  7
FX_FONT
 72
     5
 11
552.830444
 21
7731.788574
  0
LINE
  8
CSLAYER3
  6
CONTINUOUS
 62
     7
 10
434.949964
 20
7728.788751
 11
652.710927
 21
7728.788751
  0
LINE
  8
CSLAYER3
  6
CONTINUOUS
 62
     7
 10
434.949964
 20
7728.788751
 11
439.779594
 21
7730.082846
  0
LINE
  8
CSLAYER3
  6
CONTINUOUS
 62
     7
 10
434.949964
 20
7728.788751
 11
439.779594
 21
7727.494655
  0
LINE
  8
CSLAYER3
  6
CONTINUOUS
 62
     7
 10
652.710927
 20
7728.788751
 11
647.881298
 21
7730.082846
  0
LINE
  8
CSLAYER3
  6
CONTINUOUS
 62
     7
 10
652.710927
 20
7728.788751
 11
647.881298
 21
7727.494655
  0
LINE
  8
CSLAYER3
  6
CONTINUOUS
 62
     7
 10
434.949964
 20
7789.894230
 11
434.949964
 21
7718.788751
  0
LINE
  8
CSLAYER3
  6
CONTINUOUS
 62
     7
 10
652.710927
 20
7769.600460
 11
652.710927
 21
7718.788751
  0
ENDBLK
  8
0
  0
BLOCK
  8
CSLAYER3
  2
*D0021
 70
    65
 10
0.0
 20
0.0
 30
0.0
  0
TEXT
  8
CSLAYER3
 62
     7
 10
415.396759
 20
7852.004883
 40
12.000000
 41
0.562500
  1
177
 50
90.000000
 51
0.000000
  7
FX_FONT
 72
     5
 11
415.396759
 21
7870.004883
  0
LINE
  8
CSLAYER3
  6
CONTINUOUS
 62
     7
 10
418.396745
 20
7772.600460
 11
418.396745
 21
7949.409613
  0
LINE
  8
CSLAYER3
  6
CONTINUOUS
 62
     7
 10
418.396745
 20
7772.600460
 11
417.102650
 21
7777.430089
  0
LINE
  8
CSLAYER3
  6
CONTINUOUS
 62
     7
 10
418.396745
 20
7772.600460
 11
419.690840
 21
7777.430089
  0
LINE
  8
CSLAYER3
  6
CONTINUOUS
 62
     7
 10
418.396745
 20
7949.409613
 11
417.102650
 21
7944.579984
  0
LINE
  8
CSLAYER3
  6
CONTINUOUS
 62
     7
 10
418.396745
 20
7949.409613
 11
419.690840
 21
7944.579984
  0
LINE
  8
CSLAYER3
  6
CONTINUOUS
 62
     7
 10
506.649963
 20
7772.600460
 11
408.396745
 21
7772.600460
  0
LINE
  8
CSLAYER3
  6
CONTINUOUS
 62
     7
 10
431.949964
 20
7949.409613
 11
408.396745
 21
7949.409613
  0
ENDBLK
  8
0
  0
BLOCK
  8
CSLAYER3
  2
*D0022
 70
    65
 10
0.0
 20
0.0
 30
0.0
  0
TEXT
  8
CSLAYER3
 62
     7
 10
821.070862
 20
9301.218750
 40
30.000000
 41
0.750000
  1
182
 50
0.000000
 51
0.000000
  7
FX_FONT
 72
     5
 11
881.070862
 21
9301.218750
  0
LINE
  8
CSLAYER3
  6
CONTINUOUS
 62
     7
 10
760.408897
 20
9298.218444
 11
941.732707
 21
9298.218444
  0
LINE
  8
CSLAYER3
  6
CONTINUOUS
 62
     7
 10
760.408897
 20
9298.218444
 11
765.238526
 21
9299.512540
  0
LINE
  8
CSLAYER3
  6
CONTINUOUS
 62
     7
 10
760.408897
 20
9298.218444
 11
765.238526
 21
9296.924349
  0
LINE
  8
CSLAYER3
  6
CONTINUOUS
 62
     7
 10
941.732707
 20
9298.218444
 11
936.903078
 21
9299.512540
  0
LINE
  8
CSLAYER3
  6
CONTINUOUS
 62
     7
 10
941.732707
 20
9298.218444
 11
936.903078
 21
9296.924349
  0
LINE
  8
CSLAYER3
  6
CONTINUOUS
 62
     7
 10
760.408897
 20
9275.720565
 11
760.408897
 21
9308.218444
  0
LINE
  8
CSLAYER3
  6
CONTINUOUS
 62
     7
 10
941.732707
 20
9259.189539
 11
941.732707
 21
9308.218444
  0
ENDBLK
  8
0
  0
BLOCK
  8
CSLAYER3
  2
*D0023
 70
    65
 10
0.0
 20
0.0
 30
0.0
  0
TEXT
  8
CSLAYER3
 62
     7
 10
839.289429
 20
9055.099609
 40
30.000000
 41
0.750000
  1
218
 50
0.000000
 51
0.000000
  7
FX_FONT
 72
     5
 11
899.289429
 21
9055.099609
  0
LINE
  8
CSLAYER3
  6
CONTINUOUS
 62
     7
 10
760.408897
 20
9052.099702
 11
978.169860
 21
9052.099702
  0
LINE
  8
CSLAYER3
  6
CONTINUOUS
 62
     7
 10
760.408897
 20
9052.099702
 11
765.238526
 21
9053.393798
  0
LINE
  8
CSLAYER3
  6
CONTINUOUS
 62
     7
 10
760.408897
 20
9052.099702
 11
765.238526
 21
9050.805607
  0
LINE
  8
CSLAYER3
  6
CONTINUOUS
 62
     7
 10
978.169860
 20
9052.099702
 11
973.340231
 21
9053.393798
  0
LINE
  8
CSLAYER3
  6
CONTINUOUS
 62
     7
 10
978.169860
 20
9052.099702
 11
973.340231
 21
9050.805607
  0
LINE
  8
CSLAYER3
  6
CONTINUOUS
 62
     7
 10
760.408897
 20
9113.205182
 11
760.408897
 21
9042.099702
  0
LINE
  8
CSLAYER3
  6
CONTINUOUS
 62
     7
 10
978.169860
 20
9092.911412
 11
978.169860
 21
9042.099702
  0
ENDBLK
  8
0
  0
BLOCK
  8
CSLAYER3
  2
*D0024
 70
    65
 10
0.0
 20
0.0
 30
0.0
  0
TEXT
  8
CSLAYER3
 62
     7
 10
740.855713
 20
9154.316406
 40
30.000000
 41
0.750000
  1
177
 50
90.000000
 51
0.000000
  7
FX_FONT
 72
     5
 11
740.855713
 21
9214.316406
  0
LINE
  8
CSLAYER3
  6
CONTINUOUS
 62
     7
 10
743.855678
 20
9095.911412
 11
743.855678
 21
9272.720565
  0
LINE
  8
CSLAYER3
  6
CONTINUOUS
 62
     7
 10
743.855678
 20
9095.911412
 11
742.561583
 21
9100.741041
  0
LINE
  8
CSLAYER3
  6
CONTINUOUS
 62
     7
 10
743.855678
 20
9095.911412
 11
745.149773
 21
9100.741041
  0
LINE
  8
CSLAYER3
  6
CONTINUOUS
 62
     7
 10
743.855678
 20
9272.720565
 11
742.561583
 21
9267.890936
  0
LINE
  8
CSLAYER3
  6
CONTINUOUS
 62
     7
 10
743.855678
 20
9272.720565
 11
745.149773
 21
9267.890936
  0
LINE
  8
CSLAYER3
  6
CONTINUOUS
 62
     7
 10
832.108896
 20
9095.911412
 11
733.855678
 21
9095.911412
  0
LINE
  8
CSLAYER3
  6
CONTINUOUS
 62
     7
 10
757.408897
 20
9272.720565
 11
733.855678
 21
9272.720565
  0
ENDBLK
  8
0
  0
BLOCK
  8
CSLAYER3
  2
*D0025
 70
    65
 10
0.0
 20
0.0
 30
0.0
  0
TEXT
  8
CSLAYER3
 62
     7
 10
3350.813721
 20
7889.207520
 40
12.000000
 41
0.562500
  1
537
 50
0.000000
 51
0.000000
  7
FX_FONT
 72
     5
 11
3368.813721
 21
7889.207520
  0
LINE
  8
CSLAYER3
  6
CONTINUOUS
 62
     7
 10
3091.723670
 20
7886.207630
 11
3627.903670
 21
7886.207630
  0
LINE
  8
CSLAYER3
  6
CONTINUOUS
 62
     7
 10
3091.723670
 20
7886.207630
 11
3096.553299
 21
7887.501725
  0
LINE
  8
CSLAYER3
  6
CONTINUOUS
 62
     7
 10
3091.723670
 20
7886.207630
 11
3096.553299
 21
7884.913534
  0
LINE
  8
CSLAYER3
  6
CONTINUOUS
 62
     7
 10
3627.903670
 20
7886.207630
 11
3623.074041
 21
7887.501725
  0
LINE
  8
CSLAYER3
  6
CONTINUOUS
 62
     7
 10
3627.903670
 20
7886.207630
 11
3623.074041
 21
7884.913534
  0
LINE
  8
CSLAYER3
  6
CONTINUOUS
 62
     7
 10
3091.723670
 20
7690.392146
 11
3091.723670
 21
7896.207630
  0
LINE
  8
CSLAYER3
  6
CONTINUOUS
 62
     7
 10
3627.903670
 20
7880.496352
 11
3627.903670
 21
7896.207630
  0
ENDBLK
  8
0
  0
BLOCK
  8
CSLAYER3
  2
*D0026
 70
    65
 10
0.0
 20
0.0
 30
0.0
  0
TEXT
  8
CSLAYER3
 62
     7
 10
873.731567
 20
9789.116211
 40
30.000000
 41
0.750000
  1
537
 50
0.000000
 51
0.000000
  7
FX_FONT
 72
     5
 11
933.731567
 21
9789.116211
  0
LINE
  8
CSLAYER3
  6
CONTINUOUS
 62
     7
 10
635.641543
 20
9786.116789
 11
1171.821543
 21
9786.116789
  0
LINE
  8
CSLAYER3
  6
CONTINUOUS
 62
     7
 10
635.641543
 20
9786.116789
 11
640.471172
 21
9787.410885
  0
LINE
  8
CSLAYER3
  6
CONTINUOUS
 62
     7
 10
635.641543
 20
9786.116789
 11
640.471172
 21
9784.822694
  0
LINE
  8
CSLAYER3
  6
CONTINUOUS
 62
     7
 10
1171.821543
 20
9786.116789
 11
1166.991913
 21
9787.410885
  0
LINE
  8
CSLAYER3
  6
CONTINUOUS
 62
     7
 10
1171.821543
 20
9786.116789
 11
1166.991913
 21
9784.822694
  0
LINE
  8
CSLAYER3
  6
CONTINUOUS
 62
     7
 10
635.641543
 20
9590.301305
 11
635.641543
 21
9796.116789
  0
LINE
  8
CSLAYER3
  6
CONTINUOUS
 62
     7
 10
1171.821543
 20
9780.405512
 11
1171.821543
 21
9796.116789
  0
ENDBLK
  8
0
  0
BLOCK
  8
CSLAYER3
  2
*D0027
 70
    65
 10
0.0
 20
0.0
 30
0.0
  0
TEXT
  8
CSLAYER3
 62
     7
 10
199.084564
 20
9790.961914
 40
30.000000
 41
0.750000
  1
299
 50
0.000000
 51
0.000000
  7
FX_FONT
 72
     5
 11
259.084564
 21
9790.961914
  0
LINE
  8
CSLAYER3
  6
CONTINUOUS
 62
     7
 10
79.693662
 20
9787.961651
 11
378.475467
 21
9787.961651
  0
LINE
  8
CSLAYER3
  6
CONTINUOUS
 62
     7
 10
79.693662
 20
9787.961651
 11
84.523291
 21
9789.255746
  0
LINE
  8
CSLAYER3
  6
CONTINUOUS
 62
     7
 10
79.693662
 20
9787.961651
 11
84.523291
 21
9786.667555
  0
LINE
  8
CSLAYER3
  6
CONTINUOUS
 62
     7
 10
378.475467
 20
9787.961651
 11
373.645838
 21
9789.255746
  0
LINE
  8
CSLAYER3
  6
CONTINUOUS
 62
     7
 10
378.475467
 20
9787.961651
 11
373.645838
 21
9786.667555
  0
LINE
  8
CSLAYER3
  6
CONTINUOUS
 62
     7
 10
79.693662
 20
9499.001305
 11
79.693662
 21
9797.961651
  0
LINE
  8
CSLAYER3
  6
CONTINUOUS
 62
     7
 10
378.475467
 20
9598.601893
 11
378.475467
 21
9797.961651
  0
ENDBLK
  8
0
  0
BLOCK
  8
CSLAYER3
  2
*D0028
 70
    65
 10
0.0
 20
0.0
 30
0.0
  0
TEXT
  8
CSLAYER3
 62
     7
 10
40.912369
 20
9486.751953
 40
30.000000
 41
0.750000
  1
158
 50
90.000000
 51
0.000000
  7
FX_FONT
 72
     5
 11
40.912369
 21
9546.751953
  0
LINE
  8
CSLAYER3
  6
CONTINUOUS
 62
     7
 10
43.912368
 20
9437.901305
 11
43.912368
 21
9595.601893
  0
LINE
  8
CSLAYER3
  6
CONTINUOUS
 62
     7
 10
43.912368
 20
9437.901305
 11
42.618273
 21
9442.730935
  0
LINE
  8
CSLAYER3
  6
CONTINUOUS
 62
     7
 10
43.912368
 20
9437.901305
 11
45.206464
 21
9442.730935
  0
LINE
  8
CSLAYER3
  6
CONTINUOUS
 62
     7
 10
43.912368
 20
9595.601893
 11
42.618273
 21
9590.772264
  0
LINE
  8
CSLAYER3
  6
CONTINUOUS
 62
     7
 10
43.912368
 20
9595.601893
 11
45.206464
 21
9590.772264
  0
LINE
  8
CSLAYER3
  6
CONTINUOUS
 62
     7
 10
157.740873
 20
9437.901305
 11
33.912368
 21
9437.901305
  0
LINE
  8
CSLAYER3
  6
CONTINUOUS
 62
     7
 10
375.475467
 20
9595.601893
 11
33.912368
 21
9595.601893
  0
ENDBLK
  8
0
  0
BLOCK
  8
CSLAYER3
  2
*D0029
 70
    65
 10
0.0
 20
0.0
 30
0.0
  0
TEXT
  8
CSLAYER3
 62
     7
 10
-16.062550
 20
8791.102539
 40
30.000000
 41
0.750000
  1
100
 50
90.000000
 51
0.000000
  7
FX_FONT
 72
     5
 11
-16.062550
 21
8851.102539
  0
LINE
  8
CSLAYER3
  6
CONTINUOUS
 62
     7
 10
-13.062502
 20
8771.302170
 11
-13.062502
 21
8870.902170
  0
LINE
  8
CSLAYER3
  6
CONTINUOUS
 62
     7
 10
-13.062502
 20
8771.302170
 11
-14.356597
 21
8776.131799
  0
LINE
  8
CSLAYER3
  6
CONTINUOUS
 62
     7
 10
-13.062502
 20
8771.302170
 11
-11.768406
 21
8776.131799
  0
LINE
  8
CSLAYER3
  6
CONTINUOUS
 62
     7
 10
-13.062502
 20
8870.902170
 11
-14.356597
 21
8866.072540
  0
LINE
  8
CSLAYER3
  6
CONTINUOUS
 62
     7
 10
-13.062502
 20
8870.902170
 11
-11.768406
 21
8866.072540
  0
LINE
  8
CSLAYER3
  6
CONTINUOUS
 62
     7
 10
23.552020
 20
8870.902170
 11
-23.062502
 21
8870.902170
  0
ENDBLK
  8
0
  0
BLOCK
  8
CSLAYER3
  2
*D0030
 70
    65
 10
0.0
 20
0.0
 30
0.0
  0
TEXT
  8
CSLAYER3
 62
     7
 10
582.441528
 20
9439.083984
 40
30.000000
 41
0.800000
  1
66
 50
0.000000
 51
0.000000
  7
FX_FONT
 72
     5
 11
622.441528
 21
9439.083984
  0
LINE
  8
CSLAYER3
  6
CONTINUOUS
 62
     7
 10
569.241543
 20
9436.084200
 11
635.641543
 21
9436.084200
  0
LINE
  8
CSLAYER3
  6
CONTINUOUS
 62
     7
 10
569.241543
 20
9436.084200
 11
574.071172
 21
9437.378295
  0
LINE
  8
CSLAYER3
  6
CONTINUOUS
 62
     7
 10
569.241543
 20
9436.084200
 11
574.071172
 21
9434.790104
  0
LINE
  8
CSLAYER3
  6
CONTINUOUS
 62
     7
 10
635.641543
 20
9436.084200
 11
630.811913
 21
9437.378295
  0
LINE
  8
CSLAYER3
  6
CONTINUOUS
 62
     7
 10
635.641543
 20
9436.084200
 11
630.811913
 21
9434.790104
  0
LINE
  8
CSLAYER3
  6
CONTINUOUS
 62
     7
 10
635.641543
 20
9584.301305
 11
635.641543
 21
9426.084200
  0
ENDBLK
  8
0
  0
BLOCK
  8
CSLAYER3
  2
*D0031
 70
    65
 10
0.0
 20
0.0
 30
0.0
  0
TEXT
  8
CSLAYER3
 62
     7
 10
658.048767
 20
8556.116211
 40
30.000000
 41
0.800000
  1
72
 50
0.000000
 51
0.000000
  7
FX_FONT
 72
     5
 11
698.048767
 21
8556.116211
  0
LINE
  8
CSLAYER3
  6
CONTINUOUS
 62
     7
 10
642.047393
 20
8594.648416
 11
714.047393
 21
8594.648416
  0
LINE
  8
CSLAYER3
  6
CONTINUOUS
 62
     7
 10
642.047393
 20
8594.648416
 11
646.877022
 21
8595.942511
  0
LINE
  8
CSLAYER3
  6
CONTINUOUS
 62
     7
 10
642.047393
 20
8594.648416
 11
646.877022
 21
8593.354321
  0
LINE
  8
CSLAYER3
  6
CONTINUOUS
 62
     7
 10
714.047393
 20
8594.648416
 11
709.217764
 21
8595.942511
  0
LINE
  8
CSLAYER3
  6
CONTINUOUS
 62
     7
 10
714.047393
 20
8594.648416
 11
709.217764
 21
8593.354321
  0
LINE
  8
CSLAYER3
  6
CONTINUOUS
 62
     7
 10
642.047393
 20
8618.902170
 11
642.047393
 21
8584.648416
  0
LINE
  8
CSLAYER3
  6
CONTINUOUS
 62
     7
 10
714.047393
 20
8618.902170
 11
714.047393
 21
8584.648416
  0
ENDBLK
  8
0
  0
BLOCK
  8
CSLAYER1
  2
FXDIM0000
 70
   64
 10
0.0
 20
0.0
 30
0.0
  0
LINE
  8
CSLAYER3
  6
CONTINUOUS
 62
     7
 10
398.697313
 20
10116.351027
 11
379.387815
 21
10075.352437
  0
LINE
  8
CSLAYER3
  6
CONTINUOUS
 62
     7
 10
398.697313
 20
10116.351027
 11
397.810217
 21
10111.430350
  0
LINE
  8
CSLAYER3
  6
CONTINUOUS
 62
     7
 10
398.697313
 20
10116.351027
 11
395.468727
 21
10112.533144
  0
LINE
  8
CSLAYER3
  6
CONTINUOUS
 62
     7
 10
379.387815
 20
10075.352437
 11
227.387815
 21
10075.352437
  0
TEXT
  8
CSLAYER3
 62
     7
 10
185.042725
 20
10046.552734
 40
21.992615
 41
0.507692
  1
主翼止めボルトはM4、裏からヒノキ材で補強。
 50
0.000000
 51
0.000000
  7
FX_FONT
 72
     5
 11
426.961487
 21
10046.552734
  0
ENDBLK
  8
0
  0
BLOCK
  8
CSLAYER1
  2
FXDIM0001
 70
   64
 10
0.0
 20
0.0
 30
0.0
  0
LINE
  8
CSLAYER3
  6
CONTINUOUS
 62
     7
 10
149.382735
 20
9880.999595
 11
187.313655
 21
9926.827908
  0
LINE
  8
CSLAYER3
  6
CONTINUOUS
 62
     7
 10
149.382735
 20
9880.999595
 11
151.465225
 21
9885.545278
  0
LINE
  8
CSLAYER3
  6
CONTINUOUS
 62
     7
 10
149.382735
 20
9880.999595
 11
153.459066
 21
9883.895027
  0
LINE
  8
CSLAYER3
  6
CONTINUOUS
 62
     7
 10
187.313655
 20
9926.827908
 11
249.313655
 21
9926.827908
  0
TEXT
  8
CSLAYER3
 62
     7
 10
197.313661
 20
9929.828125
 40
38.661777
 41
0.525000
  1
三角材等で補強
 50
0.000000
 51
0.000000
  7
FX_FONT
 72
     5
 11
332.629882
 21
9929.828125
  0
ENDBLK
  8
0
  0
BLOCK
  8
CSLAYER3
  2
*D0032
 70
    65
 10
0.0
 20
0.0
 30
0.0
  0
TEXT
  8
CSLAYER3
 62
     7
 10
286.227552
 20
9601.386313
 40
12.000000
 41
0.529412
  1
1.849%%d
 50
84.741150
 51
0.000000
  7
FX_FONT
 72
     5
 11
289.527148
 21
9637.234781
  0
ARC
  8
CSLAYER3
  6
CONTINUOUS
 62
     7
 10
635.641543
 20
9587.301305
 40
346.234203
 50
178.151298
 51
180.000000
  0
LINE
  8
CSLAYER3
  6
CONTINUOUS
 62
     7
 10
375.477029
 20
9595.698674
 11
279.592760
 21
9598.793544
  0
ARC
  8
CSLAYER3
  6
CONTINUOUS
 62
     7
 10
635.641543
 20
9587.301305
 40
346.234203
 50
171.331004
 51
178.151298
  0
LINE
  8
CSLAYER3
  6
CONTINUOUS
 62
     7
 10
289.587555
 20
9598.470941
 11
288.449939
 21
9603.339804
  0
LINE
  8
CSLAYER3
  6
CONTINUOUS
 62
     7
 10
289.587555
 20
9598.470941
 11
291.036782
 21
9603.256308
  0
ARC
  8
CSLAYER3
  6
CONTINUOUS
 62
     7
 10
635.641543
 20
9587.301305
 40
346.234203
 50
180.000000
 51
181.655057
  0
LINE
  8
CSLAYER3
  6
CONTINUOUS
 62
     7
 10
289.407340
 20
9587.301305
 11
288.113244
 21
9582.471676
  0
LINE
  8
CSLAYER3
  6
CONTINUOUS
 62
     7
 10
289.407340
 20
9587.301305
 11
290.701435
 21
9582.471676
  0
ENDBLK
  8
0
  0
BLOCK
  8
CSLAYER1
  2
BLKF0000
 70
   64
 10
0.0
 20
0.0
 30
0.0
  0
LINE
  8
CSLAYER3
  6
CONTINUOUS
 62
     3
 10
4143.856491
 20
7674.176978
 11
3883.891106
 21
7674.176978
  0
LINE
  8
CSLAYER3
  6
CONTINUOUS
 62
     3
 10
3883.891106
 20
7674.176978
 11
3883.891106
 21
7634.638516
  0
LINE
  8
CSLAYER3
  6
CONTINUOUS
 62
     3
 10
3883.891106
 20
7634.638516
 11
4143.856491
 21
7634.638516
  0
LINE
  8
CSLAYER3
  6
CONTINUOUS
 62
     3
 10
4143.856491
 20
7634.638516
 11
4143.856491
 21
7674.176978
  0
ENDBLK
  8
0
  0
BLOCK
  8
CSLAYER1
  2
BLKF0001
 70
   64
 10
0.0
 20
0.0
 30
0.0
  0
POLYLINE
  8
CSLAYER3
  6
CONTINUOUS
 62
     3
 66
     1
 10
0.0
 20
0.0
 30
0.0
  0
VERTEX
  8
CSLAYER3
  6
CONTINUOUS
 62
     3
 10
2794.995102
 20
8735.212679
 30
0.0
  0
VERTEX
  8
CSLAYER3
  6
CONTINUOUS
 62
     3
 10
2792.804457
 20
8734.723127
 30
0.0
  0
VERTEX
  8
CSLAYER3
  6
CONTINUOUS
 62
     3
 10
2790.630484
 20
8733.258197
 30
0.0
  0
VERTEX
  8
CSLAYER3
  6
CONTINUOUS
 62
     3
 10
2788.489728
 20
8730.829037
 30
0.0
  0
VERTEX
  8
CSLAYER3
  6
CONTINUOUS
 62
     3
 10
2786.398482
 20
8727.454135
 30
0.0
  0
VERTEX
  8
CSLAYER3
  6
CONTINUOUS
 62
     3
 10
2784.372662
 20
8723.159176
 30
0.0
  0
VERTEX
  8
CSLAYER3
  6
CONTINUOUS
 62
     3
 10
2782.427684
 20
8717.976847
 30
0.0
  0
VERTEX
  8
CSLAYER3
  6
CONTINUOUS
 62
     3
 10
2780.578353
 20
8711.946590
 30
0.0
  0
VERTEX
  8
CSLAYER3
  6
CONTINUOUS
 62
     3
 10
2778.838741
 20
8705.114297
 30
0.0
  0
VERTEX
  8
CSLAYER3
  6
CONTINUOUS
 62
     3
 10
2777.222090
 20
8697.531967
 30
0.0
  0
VERTEX
  8
CSLAYER3
  6
CONTINUOUS
 62
     3
 10
2775.740701
 20
8689.257305
 30
0.0
  0
VERTEX
  8
CSLAYER3
  6
CONTINUOUS
 62
     3
 10
2774.405850
 20
8680.353288
 30
0.0
  0
VERTEX
  8
CSLAYER3
  6
CONTINUOUS
 62
     3
 10
2773.227696
 20
8670.887679
 30
0.0
  0
VERTEX
  8
CSLAYER3
  6
CONTINUOUS
 62
     3
 10
2772.215205
 20
8660.932519
 30
0.0
  0
VERTEX
  8
CSLAYER3
  6
CONTINUOUS
 62
     3
 10
2771.376083
 20
8650.563571
 30
0.0
  0
VERTEX
  8
CSLAYER3
  6
CONTINUOUS
 62
     3
 10
2770.716716
 20
8639.859749
 30
0.0
  0
VERTEX
  8
CSLAYER3
  6
CONTINUOUS
 62
     3
 10
2770.242121
 20
8628.902517
 30
0.0
  0
VERTEX
  8
CSLAYER3
  6
CONTINUOUS
 62
     3
 10
2769.955912
 20
8617.775266
 30
0.0
  0
VERTEX
  8
CSLAYER3
  6
CONTINUOUS
 62
     3
 10
2769.860267
 20
8606.562679
 30
0.0
  0
VERTEX
  8
CSLAYER3
  6
CONTINUOUS
 62
     3
 10
2769.955912
 20
8595.350093
 30
0.0
  0
VERTEX
  8
CSLAYER3
  6
CONTINUOUS
 62
     3
 10
2770.242121
 20
8584.222841
 30
0.0
  0
VERTEX
  8
CSLAYER3
  6
CONTINUOUS
 62
     3
 10
2770.716716
 20
8573.265609
 30
0.0
  0
VERTEX
  8
CSLAYER3
  6
CONTINUOUS
 62
     3
 10
2771.376083
 20
8562.561788
 30
0.0
  0
VERTEX
  8
CSLAYER3
  6
CONTINUOUS
 62
     3
 10
2772.215205
 20
8552.192840
 30
0.0
  0
VERTEX
  8
CSLAYER3
  6
CONTINUOUS
 62
     3
 10
2773.227696
 20
8542.237679
 30
0.0
  0
VERTEX
  8
CSLAYER3
  6
CONTINUOUS
 62
     3
 10
2774.405850
 20
8532.772071
 30
0.0
  0
VERTEX
  8
CSLAYER3
  6
CONTINUOUS
 62
     3
 10
2775.740701
 20
8523.868053
 30
0.0
  0
VERTEX
  8
CSLAYER3
  6
CONTINUOUS
 62
     3
 10
2777.222090
 20
8515.593392
 30
0.0
  0
VERTEX
  8
CSLAYER3
  6
CONTINUOUS
 62
     3
 10
2778.838741
 20
8508.011062
 30
0.0
  0
VERTEX
  8
CSLAYER3
  6
CONTINUOUS
 62
     3
 10
2780.578353
 20
8501.178769
 30
0.0
  0
VERTEX
  8
CSLAYER3
  6
CONTINUOUS
 62
     3
 10
2782.427684
 20
8495.148511
 30
0.0
  0
VERTEX
  8
CSLAYER3
  6
CONTINUOUS
 62
     3
 10
2784.372662
 20
8489.966182
 30
0.0
  0
VERTEX
  8
CSLAYER3
  6
CONTINUOUS
 62
     3
 10
2786.398482
 20
8485.671224
 30
0.0
  0
VERTEX
  8
CSLAYER3
  6
CONTINUOUS
 62
     3
 10
2788.489728
 20
8482.296322
 30
0.0
  0
VERTEX
  8
CSLAYER3
  6
CONTINUOUS
 62
     3
 10
2790.630484
 20
8479.867162
 30
0.0
  0
VERTEX
  8
CSLAYER3
  6
CONTINUOUS
 62
     3
 10
2792.804457
 20
8478.402231
 30
0.0
  0
VERTEX
  8
CSLAYER3
  6
CONTINUOUS
 62
     3
 10
2794.995102
 20
8477.912679
 30
0.0
  0
VERTEX
  8
CSLAYER3
  6
CONTINUOUS
 62
     3
 10
2797.185747
 20
8478.402231
 30
0.0
  0
VERTEX
  8
CSLAYER3
  6
CONTINUOUS
 62
     3
 10
2799.359721
 20
8479.867162
 30
0.0
  0
VERTEX
  8
CSLAYER3
  6
CONTINUOUS
 62
     3
 10
2801.500476
 20
8482.296322
 30
0.0
  0
VERTEX
  8
CSLAYER3
  6
CONTINUOUS
 62
     3
 10
2803.591722
 20
8485.671224
 30
0.0
  0
VERTEX
  8
CSLAYER3
  6
CONTINUOUS
 62
     3
 10
2805.617543
 20
8489.966182
 30
0.0
  0
VERTEX
  8
CSLAYER3
  6
CONTINUOUS
 62
     3
 10
2807.562520
 20
8495.148511
 30
0.0
  0
VERTEX
  8
CSLAYER3
  6
CONTINUOUS
 62
     3
 10
2809.411852
 20
8501.178769
 30
0.0
  0
VERTEX
  8
CSLAYER3
  6
CONTINUOUS
 62
     3
 10
2811.151463
 20
8508.011062
 30
0.0
  0
VERTEX
  8
CSLAYER3
  6
CONTINUOUS
 62
     3
 10
2812.768115
 20
8515.593392
 30
0.0
  0
VERTEX
  8
CSLAYER3
  6
CONTINUOUS
 62
     3
 10
2814.249503
 20
8523.868053
 30
0.0
  0
VERTEX
  8
CSLAYER3
  6
CONTINUOUS
 62
     3
 10
2815.584354
 20
8532.772071
 30
0.0
  0
VERTEX
  8
CSLAYER3
  6
CONTINUOUS
 62
     3
 10
2816.762508
 20
8542.237679
 30
0.0
  0
VERTEX
  8
CSLAYER3
  6
CONTINUOUS
 62
     3
 10
2817.774999
 20
8552.192840
 30
0.0
  0
VERTEX
  8
CSLAYER3
  6
CONTINUOUS
 62
     3
 10
2818.614122
 20
8562.561788
 30
0.0
  0
VERTEX
  8
CSLAYER3
  6
CONTINUOUS
 62
     3
 10
2819.273489
 20
8573.265609
 30
0.0
  0
VERTEX
  8
CSLAYER3
  6
CONTINUOUS
 62
     3
 10
2819.748083
 20
8584.222841
 30
0.0
  0
VERTEX
  8
CSLAYER3
  6
CONTINUOUS
 62
     3
 10
2820.034292
 20
8595.350093
 30
0.0
  0
VERTEX
  8
CSLAYER3
  6
CONTINUOUS
 62
     3
 10
2820.129938
 20
8606.562679
 30
0.0
  0
VERTEX
  8
CSLAYER3
  6
CONTINUOUS
 62
     3
 10
2820.034292
 20
8617.775266
 30
0.0
  0
VERTEX
  8
CSLAYER3
  6
CONTINUOUS
 62
     3
 10
2819.748083
 20
8628.902517
 30
0.0
  0
VERTEX
  8
CSLAYER3
  6
CONTINUOUS
 62
     3
 10
2819.273489
 20
8639.859749
 30
0.0
  0
VERTEX
  8
CSLAYER3
  6
CONTINUOUS
 62
     3
 10
2818.614122
 20
8650.563571
 30
0.0
  0
VERTEX
  8
CSLAYER3
  6
CONTINUOUS
 62
     3
 10
2817.774999
 20
8660.932519
 30
0.0
  0
VERTEX
  8
CSLAYER3
  6
CONTINUOUS
 62
     3
 10
2816.762508
 20
8670.887679
 30
0.0
  0
VERTEX
  8
CSLAYER3
  6
CONTINUOUS
 62
     3
 10
2815.584354
 20
8680.353288
 30
0.0
  0
VERTEX
  8
CSLAYER3
  6
CONTINUOUS
 62
     3
 10
2814.249503
 20
8689.257305
 30
0.0
  0
VERTEX
  8
CSLAYER3
  6
CONTINUOUS
 62
     3
 10
2812.768115
 20
8697.531967
 30
0.0
  0
VERTEX
  8
CSLAYER3
  6
CONTINUOUS
 62
     3
 10
2811.151463
 20
8705.114297
 30
0.0
  0
VERTEX
  8
CSLAYER3
  6
CONTINUOUS
 62
     3
 10
2809.411852
 20
8711.946590
 30
0.0
  0
VERTEX
  8
CSLAYER3
  6
CONTINUOUS
 62
     3
 10
2807.562520
 20
8717.976847
 30
0.0
  0
VERTEX
  8
CSLAYER3
  6
CONTINUOUS
 62
     3
 10
2805.617543
 20
8723.159176
 30
0.0
  0
VERTEX
  8
CSLAYER3
  6
CONTINUOUS
 62
     3
 10
2803.591722
 20
8727.454135
 30
0.0
  0
VERTEX
  8
CSLAYER3
  6
CONTINUOUS
 62
     3
 10
2801.500476
 20
8730.829037
 30
0.0
  0
VERTEX
  8
CSLAYER3
  6
CONTINUOUS
 62
     3
 10
2799.359721
 20
8733.258197
 30
0.0
  0
VERTEX
  8
CSLAYER3
  6
CONTINUOUS
 62
     3
 10
2797.185747
 20
8734.723127
 30
0.0
  0
VERTEX
  8
CSLAYER3
  6
CONTINUOUS
 62
     3
 10
2794.995102
 20
8735.212679
 30
0.0
  0
SEQEND
  0
POLYLINE
  8
CSLAYER3
  6
CONTINUOUS
 62
     3
 66
     1
 10
0.0
 20
0.0
 30
0.0
  0
VERTEX
  8
CSLAYER3
  6
CONTINUOUS
 62
     3
 10
2816.179447
 20
8586.642679
 30
0.0
  0
VERTEX
  8
CSLAYER3
  6
CONTINUOUS
 62
     3
 10
2816.452652
 20
8586.718481
 30
0.0
  0
VERTEX
  8
CSLAYER3
  6
CONTINUOUS
 62
     3
 10
2816.723778
 20
8586.945309
 30
0.0
  0
VERTEX
  8
CSLAYER3
  6
CONTINUOUS
 62
     3
 10
2816.990762
 20
8587.321437
 30
0.0
  0
VERTEX
  8
CSLAYER3
  6
CONTINUOUS
 62
     3
 10
2817.251570
 20
8587.844002
 30
0.0
  0
VERTEX
  8
CSLAYER3
  6
CONTINUOUS
 62
     3
 10
2817.504220
 20
8588.509028
 30
0.0
  0
VERTEX
  8
CSLAYER3
  6
CONTINUOUS
 62
     3
 10
2817.746786
 20
8589.311453
 30
0.0
  0
VERTEX
  8
CSLAYER3
  6
CONTINUOUS
 62
     3
 10
2817.977425
 20
8590.245171
 30
0.0
  0
VERTEX
  8
CSLAYER3
  6
CONTINUOUS
 62
     3
 10
2818.194380
 20
8591.303074
 30
0.0
  0
VERTEX
  8
CSLAYER3
  6
CONTINUOUS
 62
     3
 10
2818.395999
 20
8592.477112
 30
0.0
  0
VERTEX
  8
CSLAYER3
  6
CONTINUOUS
 62
     3
 10
2818.580750
 20
8593.758350
 30
0.0
  0
VERTEX
  8
CSLAYER3
  6
CONTINUOUS
 62
     3
 10
2818.747225
 20
8595.137037
 30
0.0
  0
VERTEX
  8
CSLAYER3
  6
CONTINUOUS
 62
     3
 10
2818.894158
 20
8596.602679
 30
0.0
  0
VERTEX
  8
CSLAYER3
  6
CONTINUOUS
 62
     3
 10
2819.020431
 20
8598.144124
 30
0.0
  0
VERTEX
  8
CSLAYER3
  6
CONTINUOUS
 62
     3
 10
2819.125081
 20
8599.749638
 30
0.0
  0
VERTEX
  8
CSLAYER3
  6
CONTINUOUS
 62
     3
 10
2819.207314
 20
8601.407004
 30
0.0
  0
VERTEX
  8
CSLAYER3
  6
CONTINUOUS
 62
     3
 10
2819.266503
 20
8603.103608
 30
0.0
  0
VERTEX
  8
CSLAYER3
  6
CONTINUOUS
 62
     3
 10
2819.302197
 20
8604.826537
 30
0.0
  0
VERTEX
  8
CSLAYER3
  6
CONTINUOUS
 62
     3
 10
2819.314125
 20
8606.562679
 30
0.0
  0
VERTEX
  8
CSLAYER3
  6
CONTINUOUS
 62
     3
 10
2819.302197
 20
8608.298822
 30
0.0
  0
VERTEX
  8
CSLAYER3
  6
CONTINUOUS
 62
     3
 10
2819.266503
 20
8610.021751
 30
0.0
  0
VERTEX
  8
CSLAYER3
  6
CONTINUOUS
 62
     3
 10
2819.207314
 20
8611.718355
 30
0.0
  0
VERTEX
  8
CSLAYER3
  6
CONTINUOUS
 62
     3
 10
2819.125081
 20
8613.375721
 30
0.0
  0
VERTEX
  8
CSLAYER3
  6
CONTINUOUS
 62
     3
 10
2819.020431
 20
8614.981235
 30
0.0
  0
VERTEX
  8
CSLAYER3
  6
CONTINUOUS
 62
     3
 10
2818.894158
 20
8616.522679
 30
0.0
  0
VERTEX
  8
CSLAYER3
  6
CONTINUOUS
 62
     3
 10
2818.747225
 20
8617.988322
 30
0.0
  0
VERTEX
  8
CSLAYER3
  6
CONTINUOUS
 62
     3
 10
2818.580750
 20
8619.367008
 30
0.0
  0
VERTEX
  8
CSLAYER3
  6
CONTINUOUS
 62
     3
 10
2818.395999
 20
8620.648246
 30
0.0
  0
VERTEX
  8
CSLAYER3
  6
CONTINUOUS
 62
     3
 10
2818.194380
 20
8621.822285
 30
0.0
  0
VERTEX
  8
CSLAYER3
  6
CONTINUOUS
 62
     3
 10
2817.977425
 20
8622.880188
 30
0.0
  0
VERTEX
  8
CSLAYER3
  6
CONTINUOUS
 62
     3
 10
2817.746786
 20
8623.813905
 30
0.0
  0
VERTEX
  8
CSLAYER3
  6
CONTINUOUS
 62
     3
 10
2817.504220
 20
8624.616330
 30
0.0
  0
VERTEX
  8
CSLAYER3
  6
CONTINUOUS
 62
     3
 10
2817.251570
 20
8625.281356
 30
0.0
  0
VERTEX
  8
CSLAYER3
  6
CONTINUOUS
 62
     3
 10
2816.990762
 20
8625.803922
 30
0.0
  0
VERTEX
  8
CSLAYER3
  6
CONTINUOUS
 62
     3
 10
2816.723778
 20
8626.180050
 30
0.0
  0
VERTEX
  8
CSLAYER3
  6
CONTINUOUS
 62
     3
 10
2816.452652
 20
8626.406878
 30
0.0
  0
VERTEX
  8
CSLAYER3
  6
CONTINUOUS
 62
     3
 10
2816.179447
 20
8626.482679
 30
0.0
  0
VERTEX
  8
CSLAYER3
  6
CONTINUOUS
 62
     3
 10
2815.906242
 20
8626.406878
 30
0.0
  0
VERTEX
  8
CSLAYER3
  6
CONTINUOUS
 62
     3
 10
2815.635116
 20
8626.180050
 30
0.0
  0
VERTEX
  8
CSLAYER3
  6
CONTINUOUS
 62
     3
 10
2815.368133
 20
8625.803922
 30
0.0
  0
VERTEX
  8
CSLAYER3
  6
CONTINUOUS
 62
     3
 10
2815.107324
 20
8625.281356
 30
0.0
  0
VERTEX
  8
CSLAYER3
  6
CONTINUOUS
 62
     3
 10
2814.854675
 20
8624.616330
 30
0.0
  0
VERTEX
  8
CSLAYER3
  6
CONTINUOUS
 62
     3
 10
2814.612108
 20
8623.813905
 30
0.0
  0
VERTEX
  8
CSLAYER3
  6
CONTINUOUS
 62
     3
 10
2814.381470
 20
8622.880188
 30
0.0
  0
VERTEX
  8
CSLAYER3
  6
CONTINUOUS
 62
     3
 10
2814.164515
 20
8621.822285
 30
0.0
  0
VERTEX
  8
CSLAYER3
  6
CONTINUOUS
 62
     3
 10
2813.962895
 20
8620.648246
 30
0.0
  0
VERTEX
  8
CSLAYER3
  6
CONTINUOUS
 62
     3
 10
2813.778144
 20
8619.367008
 30
0.0
  0
VERTEX
  8
CSLAYER3
  6
CONTINUOUS
 62
     3
 10
2813.611669
 20
8617.988322
 30
0.0
  0
VERTEX
  8
CSLAYER3
  6
CONTINUOUS
 62
     3
 10
2813.464736
 20
8616.522679
 30
0.0
  0
VERTEX
  8
CSLAYER3
  6
CONTINUOUS
 62
     3
 10
2813.338464
 20
8614.981235
 30
0.0
  0
VERTEX
  8
CSLAYER3
  6
CONTINUOUS
 62
     3
 10
2813.233813
 20
8613.375721
 30
0.0
  0
VERTEX
  8
CSLAYER3
  6
CONTINUOUS
 62
     3
 10
2813.151581
 20
8611.718355
 30
0.0
  0
VERTEX
  8
CSLAYER3
  6
CONTINUOUS
 62
     3
 10
2813.092392
 20
8610.021751
 30
0.0
  0
VERTEX
  8
CSLAYER3
  6
CONTINUOUS
 62
     3
 10
2813.056697
 20
8608.298822
 30
0.0
  0
VERTEX
  8
CSLAYER3
  6
CONTINUOUS
 62
     3
 10
2813.044769
 20
8606.562679
 30
0.0
  0
VERTEX
  8
CSLAYER3
  6
CONTINUOUS
 62
     3
 10
2813.056697
 20
8604.826537
 30
0.0
  0
VERTEX
  8
CSLAYER3
  6
CONTINUOUS
 62
     3
 10
2813.092392
 20
8603.103608
 30
0.0
  0
VERTEX
  8
CSLAYER3
  6
CONTINUOUS
 62
     3
 10
2813.151581
 20
8601.407004
 30
0.0
  0
VERTEX
  8
CSLAYER3
  6
CONTINUOUS
 62
     3
 10
2813.233813
 20
8599.749638
 30
0.0
  0
VERTEX
  8
CSLAYER3
  6
CONTINUOUS
 62
     3
 10
2813.338464
 20
8598.144124
 30
0.0
  0
VERTEX
  8
CSLAYER3
  6
CONTINUOUS
 62
     3
 10
2813.464736
 20
8596.602679
 30
0.0
  0
VERTEX
  8
CSLAYER3
  6
CONTINUOUS
 62
     3
 10
2813.611669
 20
8595.137037
 30
0.0
  0
VERTEX
  8
CSLAYER3
  6
CONTINUOUS
 62
     3
 10
2813.778144
 20
8593.758350
 30
0.0
  0
VERTEX
  8
CSLAYER3
  6
CONTINUOUS
 62
     3
 10
2813.962895
 20
8592.477112
 30
0.0
  0
VERTEX
  8
CSLAYER3
  6
CONTINUOUS
 62
     3
 10
2814.164515
 20
8591.303074
 30
0.0
  0
VERTEX
  8
CSLAYER3
  6
CONTINUOUS
 62
     3
 10
2814.381470
 20
8590.245171
 30
0.0
  0
VERTEX
  8
CSLAYER3
  6
CONTINUOUS
 62
     3
 10
2814.612108
 20
8589.311453
 30
0.0
  0
VERTEX
  8
CSLAYER3
  6
CONTINUOUS
 62
     3
 10
2814.854675
 20
8588.509028
 30
0.0
  0
VERTEX
  8
CSLAYER3
  6
CONTINUOUS
 62
     3
 10
2815.107324
 20
8587.844002
 30
0.0
  0
VERTEX
  8
CSLAYER3
  6
CONTINUOUS
 62
     3
 10
2815.368133
 20
8587.321437
 30
0.0
  0
VERTEX
  8
CSLAYER3
  6
CONTINUOUS
 62
     3
 10
2815.635116
 20
8586.945309
 30
0.0
  0
VERTEX
  8
CSLAYER3
  6
CONTINUOUS
 62
     3
 10
2815.906242
 20
8586.718481
 30
0.0
  0
VERTEX
  8
CSLAYER3
  6
CONTINUOUS
 62
     3
 10
2816.179447
 20
8586.642679
 30
0.0
  0
SEQEND
  0
POLYLINE
  8
CSLAYER3
  6
CONTINUOUS
 62
     3
 66
     1
 10
0.0
 20
0.0
 30
0.0
  0
VERTEX
  8
CSLAYER3
  6
CONTINUOUS
 62
     3
 10
2827.719393
 20
8586.642701
 30
0.0
  0
VERTEX
  8
CSLAYER3
  6
CONTINUOUS
 62
     3
 10
2827.992581
 20
8586.721048
 30
0.0
  0
VERTEX
  8
CSLAYER3
  6
CONTINUOUS
 62
     3
 10
2828.263654
 20
8586.950402
 30
0.0
  0
VERTEX
  8
CSLAYER3
  6
CONTINUOUS
 62
     3
 10
2828.530550
 20
8587.329017
 30
0.0
  0
VERTEX
  8
CSLAYER3
  6
CONTINUOUS
 62
     3
 10
2828.791238
 20
8587.854012
 30
0.0
  0
VERTEX
  8
CSLAYER3
  6
CONTINUOUS
 62
     3
 10
2829.043733
 20
8588.521392
 30
0.0
  0
VERTEX
  8
CSLAYER3
  6
CONTINUOUS
 62
     3
 10
2829.286115
 20
8589.326076
 30
0.0
  0
VERTEX
  8
CSLAYER3
  6
CONTINUOUS
 62
     3
 10
2829.516538
 20
8590.261942
 30
0.0
  0
VERTEX
  8
CSLAYER3
  6
CONTINUOUS
 62
     3
 10
2829.733248
 20
8591.321865
 30
0.0
  0
VERTEX
  8
CSLAYER3
  6
CONTINUOUS
 62
     3
 10
2829.934597
 20
8592.497781
 30
0.0
  0
VERTEX
  8
CSLAYER3
  6
CONTINUOUS
 62
     3
 10
2830.119052
 20
8593.780739
 30
0.0
  0
VERTEX
  8
CSLAYER3
  6
CONTINUOUS
 62
     3
 10
2830.285209
 20
8595.160975
 30
0.0
  0
VERTEX
  8
CSLAYER3
  6
CONTINUOUS
 62
     3
 10
2830.431803
 20
8596.627985
 30
0.0
  0
VERTEX
  8
CSLAYER3
  6
CONTINUOUS
 62
     3
 10
2830.557720
 20
8598.170605
 30
0.0
  0
VERTEX
  8
CSLAYER3
  6
CONTINUOUS
 62
     3
 10
2830.662000
 20
8599.777093
 30
0.0
  0
VERTEX
  8
CSLAYER3
  6
CONTINUOUS
 62
     3
 10
2830.743850
 20
8601.435223
 30
0.0
  0
VERTEX
  8
CSLAYER3
  6
CONTINUOUS
 62
     3
 10
2830.802647
 20
8603.132376
 30
0.0
  0
VERTEX
  8
CSLAYER3
  6
CONTINUOUS
 62
     3
 10
2830.837944
 20
8604.855636
 30
0.0
  0
VERTEX
  8
CSLAYER3
  6
CONTINUOUS
 62
     3
 10
2830.849472
 20
8606.591888
 30
0.0
  0
VERTEX
  8
CSLAYER3
  6
CONTINUOUS
 62
     3
 10
2830.837143
 20
8608.327917
 30
0.0
  0
VERTEX
  8
CSLAYER3
  6
CONTINUOUS
 62
     3
 10
2830.801051
 20
8610.050512
 30
0.0
  0
VERTEX
  8
CSLAYER3
  6
CONTINUOUS
 62
     3
 10
2830.741471
 20
8611.746563
 30
0.0
  0
VERTEX
  8
CSLAYER3
  6
CONTINUOUS
 62
     3
 10
2830.658856
 20
8613.403160
 30
0.0
  0
VERTEX
  8
CSLAYER3
  6
CONTINUOUS
 62
     3
 10
2830.553835
 20
8615.007698
 30
0.0
  0
VERTEX
  8
CSLAYER3
  6
CONTINUOUS
 62
     3
 10
2830.427207
 20
8616.547964
 30
0.0
  0
VERTEX
  8
CSLAYER3
  6
CONTINUOUS
 62
     3
 10
2830.279936
 20
8618.012236
 30
0.0
  0
VERTEX
  8
CSLAYER3
  6
CONTINUOUS
 62
     3
 10
2830.113143
 20
8619.389370
 30
0.0
  0
VERTEX
  8
CSLAYER3
  6
CONTINUOUS
 62
     3
 10
2829.928097
 20
8620.668885
 30
0.0
  0
VERTEX
  8
CSLAYER3
  6
CONTINUOUS
 62
     3
 10
2829.726206
 20
8621.841043
 30
0.0
  0
VERTEX
  8
CSLAYER3
  6
CONTINUOUS
 62
     3
 10
2829.509007
 20
8622.896924
 30
0.0
  0
VERTEX
  8
CSLAYER3
  6
CONTINUOUS
 62
     3
 10
2829.278154
 20
8623.828491
 30
0.0
  0
VERTEX
  8
CSLAYER3
  6
CONTINUOUS
 62
     3
 10
2829.035402
 20
8624.628655
 30
0.0
  0
VERTEX
  8
CSLAYER3
  6
CONTINUOUS
 62
     3
 10
2828.782600
 20
8625.291326
 30
0.0
  0
VERTEX
  8
CSLAYER3
  6
CONTINUOUS
 62
     3
 10
2828.521671
 20
8625.811461
 30
0.0
  0
VERTEX
  8
CSLAYER3
  6
CONTINUOUS
 62
     3
 10
2828.254601
 20
8626.185101
 30
0.0
  0
VERTEX
  8
CSLAYER3
  6
CONTINUOUS
 62
     3
 10
2827.983423
 20
8626.409402
 30
0.0
  0
VERTEX
  8
CSLAYER3
  6
CONTINUOUS
 62
     3
 10
2827.719393
 20
8626.482658
 30
0.0
  0
SEQEND
  0
LINE
  8
CSLAYER3
  6
CONTINUOUS
 62
     3
 10
2816.179447
 20
8626.482679
 11
2827.719393
 21
8626.482679
  0
LINE
  8
CSLAYER3
  6
CONTINUOUS
 62
     3
 10
2816.179447
 20
8586.642679
 11
2827.719393
 21
8586.642679
  0
ENDBLK
  8
0
  0
BLOCK
  8
CSLAYER1
  2
BLKF0002
 70
   64
 10
0.0
 20
0.0
 30
0.0
  0
LINE
  8
CSLAYER3
  6
CONTINUOUS
 62
     3
 10
2834.423670
 20
8625.249059
 11
2869.363321
 21
8625.249059
  0
LINE
  8
CSLAYER3
  6
CONTINUOUS
 62
     3
 10
2869.363321
 20
8625.249059
 11
2898.425812
 21
8623.842810
  0
LINE
  8
CSLAYER3
  6
CONTINUOUS
 62
     3
 10
2898.425812
 20
8623.842810
 11
2942.957049
 21
8618.686561
  0
LINE
  8
CSLAYER3
  6
CONTINUOUS
 62
     3
 10
2942.957049
 20
8618.686561
 11
2954.825942
 21
8606.517375
  0
LINE
  8
CSLAYER3
  6
CONTINUOUS
 62
     3
 10
2834.423670
 20
8587.876299
 11
2869.363321
 21
8587.876299
  0
LINE
  8
CSLAYER3
  6
CONTINUOUS
 62
     3
 10
2869.363321
 20
8587.876299
 11
2898.425812
 21
8589.282549
  0
LINE
  8
CSLAYER3
  6
CONTINUOUS
 62
     3
 10
2898.425812
 20
8589.282549
 11
2942.957049
 21
8594.438797
  0
LINE
  8
CSLAYER3
  6
CONTINUOUS
 62
     3
 10
2942.957049
 20
8594.438797
 11
2954.825942
 21
8606.607983
  0
ENDBLK
  8
0
  0
BLOCK
  8
CSLAYER1
  2
BLKF0003
 70
   64
 10
0.0
 20
0.0
 30
0.0
  0
LINE
  8
CSLAYER3
  6
CENTER
 62
     7
 10
2849.999383
 20
8606.562679
 11
2726.875580
 21
8606.562679
  0
ENDBLK
  8
0
  0
BLOCK
  8
CSLAYER1
  2
BLKF0004
 70
   64
 10
0.0
 20
0.0
 30
0.0
  0
LINE
  8
CSLAYER3
  6
CONTINUOUS
 62
     3
 10
2898.970159
 20
9241.707169
 11
2919.126618
 21
9241.603417
  0
LINE
  8
CSLAYER3
  6
CONTINUOUS
 62
     3
 10
2839.441099
 20
9252.491528
 11
3091.723670
 21
9252.491528
  0
LINE
  8
CSLAYER3
  6
CONTINUOUS
 62
     3
 10
2834.342498
 20
9249.907577
 11
2837.283483
 21
9247.636956
  0
LINE
  8
CSLAYER3
  6
CONTINUOUS
 62
     3
 10
2837.283483
 20
9247.636956
 11
2843.071035
 21
9246.027922
  0
LINE
  8
CSLAYER3
  6
CONTINUOUS
 62
     3
 10
2843.071035
 20
9246.027922
 11
2854.955963
 21
9244.472557
  0
LINE
  8
CSLAYER3
  6
CONTINUOUS
 62
     3
 10
3091.723670
 20
9251.412618
 11
3055.013837
 21
9249.049894
  0
LINE
  8
CSLAYER3
  6
CONTINUOUS
 62
     3
 10
2898.970159
 20
9241.707169
 11
2892.242458
 21
9242.012509
  0
LINE
  8
CSLAYER3
  6
CONTINUOUS
 62
     3
 10
2892.242458
 20
9242.012509
 11
2866.719912
 21
9243.281699
  0
LINE
  8
CSLAYER3
  6
CONTINUOUS
 62
     3
 10
2866.719912
 20
9243.281699
 11
2854.955963
 21
9244.472557
  0
LINE
  8
CSLAYER3
  6
CONTINUOUS
 62
     3
 10
2919.126618
 20
9241.603417
 11
2932.555376
 21
9241.805005
  0
LINE
  8
CSLAYER3
  6
CONTINUOUS
 62
     3
 10
2932.555376
 20
9241.805005
 11
2967.252730
 21
9243.046168
  0
LINE
  8
CSLAYER3
  6
CONTINUOUS
 62
     3
 10
2967.252730
 20
9243.046168
 11
3055.013837
 21
9249.049894
  0
LINE
  8
CSLAYER3
  6
CONTINUOUS
 62
     3
 10
3091.723670
 20
9251.412618
 11
3091.723670
 21
9252.491528
  0
LINE
  8
CSLAYER3
  6
CONTINUOUS
 62
     3
 10
2834.342498
 20
9249.907577
 11
2834.649990
 21
9251.276011
  0
LINE
  8
CSLAYER3
  6
CONTINUOUS
 62
     3
 10
2834.649990
 20
9251.276011
 11
2836.511474
 21
9251.974067
  0
LINE
  8
CSLAYER3
  6
CONTINUOUS
 62
     3
 10
2836.511474
 20
9251.974067
 11
2839.441099
 21
9252.491528
  0
ENDBLK
  8
0
  0
BLOCK
  8
CSLAYER1
  2
BLKF0005
 70
   64
 10
0.0
 20
0.0
 30
0.0
  0
LINE
  8
CSLAYER3
  6
CONTINUOUS
 62
     3
 10
2898.970159
 20
7971.418190
 11
2919.126618
 21
7971.521942
  0
LINE
  8
CSLAYER3
  6
CONTINUOUS
 62
     3
 10
2839.441099
 20
7960.633830
 11
3091.723670
 21
7960.633830
  0
LINE
  8
CSLAYER3
  6
CONTINUOUS
 62
     3
 10
2834.342498
 20
7963.217781
 11
2837.283483
 21
7965.488403
  0
LINE
  8
CSLAYER3
  6
CONTINUOUS
 62
     3
 10
2837.283483
 20
7965.488403
 11
2843.071035
 21
7967.097436
  0
LINE
  8
CSLAYER3
  6
CONTINUOUS
 62
     3
 10
2843.071035
 20
7967.097436
 11
2854.955963
 21
7968.652802
  0
LINE
  8
CSLAYER3
  6
CONTINUOUS
 62
     3
 10
3091.723670
 20
7961.712740
 11
3055.013837
 21
7964.075464
  0
LINE
  8
CSLAYER3
  6
CONTINUOUS
 62
     3
 10
2898.970159
 20
7971.418190
 11
2892.242458
 21
7971.112849
  0
LINE
  8
CSLAYER3
  6
CONTINUOUS
 62
     3
 10
2892.242458
 20
7971.112849
 11
2866.719912
 21
7969.843659
  0
LINE
  8
CSLAYER3
  6
CONTINUOUS
 62
     3
 10
2866.719912
 20
7969.843659
 11
2854.955963
 21
7968.652802
  0
LINE
  8
CSLAYER3
  6
CONTINUOUS
 62
     3
 10
2919.126618
 20
7971.521942
 11
2932.555376
 21
7971.320353
  0
LINE
  8
CSLAYER3
  6
CONTINUOUS
 62
     3
 10
2932.555376
 20
7971.320353
 11
2967.252730
 21
7970.079190
  0
LINE
  8
CSLAYER3
  6
CONTINUOUS
 62
     3
 10
2967.252730
 20
7970.079190
 11
3055.013837
 21
7964.075464
  0
LINE
  8
CSLAYER3
  6
CONTINUOUS
 62
     3
 10
3091.723670
 20
7961.712740
 11
3091.723670
 21
7960.633830
  0
LINE
  8
CSLAYER3
  6
CONTINUOUS
 62
     3
 10
2834.342498
 20
7963.217781
 11
2834.649990
 21
7961.849348
  0
LINE
  8
CSLAYER3
  6
CONTINUOUS
 62
     3
 10
2834.649990
 20
7961.849348
 11
2836.511474
 21
7961.151291
  0
LINE
  8
CSLAYER3
  6
CONTINUOUS
 62
     3
 10
2836.511474
 20
7961.151291
 11
2839.441099
 21
7960.633830
  0
ENDBLK
  8
0
  0
BLOCK
  8
CSLAYER1
  2
BLKF0006
 70
   64
 10
0.0
 20
0.0
 30
0.0
  0
LINE
  8
CSLAYER3
  6
CENTER
 62
     7
 10
2849.999383
 20
8606.562679
 11
2726.875580
 21
8606.562679
  0
ENDBLK
  8
0
  0
BLOCK
  8
CSLAYER1
  2
BLKF0007
 70
   64
 10
0.0
 20
0.0
 30
0.0
  0
LINE
  8
CSLAYER3
  6
CONTINUOUS
 62
     3
 10
2834.557595
 20
7695.692733
 11
3091.723670
 21
7687.392146
  0
LINE
  8
CSLAYER3
  6
CONTINUOUS
 62
     3
 10
2834.814106
 20
7703.639875
 11
2838.067555
 21
7710.486481
  0
LINE
  8
CSLAYER3
  6
CONTINUOUS
 62
     3
 10
2838.067555
 20
7710.486481
 11
2844.072751
 21
7715.170979
  0
LINE
  8
CSLAYER3
  6
CONTINUOUS
 62
     3
 10
2844.072751
 20
7715.170979
 11
2856.161648
 21
7719.415196
  0
LINE
  8
CSLAYER3
  6
CONTINUOUS
 62
     3
 10
3091.723670
 20
7687.392146
 11
3055.379537
 21
7696.312212
  0
LINE
  8
CSLAYER3
  6
CONTINUOUS
 62
     3
 10
2904.662996
 20
7725.794147
 11
2893.751895
 21
7725.293253
  0
LINE
  8
CSLAYER3
  6
CONTINUOUS
 62
     3
 10
2893.751895
 20
7725.293253
 11
2868.079048
 21
7722.544458
  0
LINE
  8
CSLAYER3
  6
CONTINUOUS
 62
     3
 10
2868.079048
 20
7722.544458
 11
2856.161648
 21
7719.415196
  0
LINE
  8
CSLAYER3
  6
CONTINUOUS
 62
     3
 10
2924.813312
 20
7725.202931
 11
2934.052526
 21
7724.110822
  0
LINE
  8
CSLAYER3
  6
CONTINUOUS
 62
     3
 10
2934.052526
 20
7724.110822
 11
2968.542054
 21
7718.729061
  0
LINE
  8
CSLAYER3
  6
CONTINUOUS
 62
     3
 10
2968.542054
 20
7718.729061
 11
3055.379537
 21
7696.312212
  0
LINE
  8
CSLAYER3
  6
CONTINUOUS
 62
     3
 10
2834.814106
 20
7703.639875
 11
2834.557595
 21
7695.692733
  0
ENDBLK
  8
0
  0
BLOCK
  8
CSLAYER1
  2
BLKF0008
 70
   64
 10
0.0
 20
0.0
 30
0.0
  0
CIRCLE
  8
CSLAYER3
  6
CONTINUOUS
 62
     3
 10
2913.522288
 20
7672.983899
 40
16.600000
  0
LINE
  8
CSLAYER3
  6
CONTINUOUS
 62
     3
 10
2896.936769
 20
7672.290674
 11
2913.522288
 21
7672.290674
  0
LINE
  8
CSLAYER3
  6
CONTINUOUS
 62
     3
 10
2896.926218
 20
7672.622674
 11
2913.522288
 21
7672.622674
  0
LINE
  8
CSLAYER3
  6
CONTINUOUS
 62
     3
 10
2896.922313
 20
7672.954674
 11
2913.522288
 21
7672.954674
  0
LINE
  8
CSLAYER3
  6
CONTINUOUS
 62
     3
 10
2913.522288
 20
7673.286674
 11
2930.119526
 21
7673.286674
  0
LINE
  8
CSLAYER3
  6
CONTINUOUS
 62
     3
 10
2913.522288
 20
7673.618674
 11
2930.110147
 21
7673.618674
  0
LINE
  8
CSLAYER3
  6
CONTINUOUS
 62
     3
 10
2913.522288
 20
7673.950674
 11
2930.094112
 21
7673.950674
  0
LINE
  8
CSLAYER3
  6
CONTINUOUS
 62
     3
 10
2913.522288
 20
7674.282674
 11
2930.071402
 21
7674.282674
  0
LINE
  8
CSLAYER3
  6
CONTINUOUS
 62
     3
 10
2913.522288
 20
7674.614674
 11
2930.041990
 21
7674.614674
  0
LINE
  8
CSLAYER3
  6
CONTINUOUS
 62
     3
 10
2913.522288
 20
7674.946674
 11
2930.005841
 21
7674.946674
  0
LINE
  8
CSLAYER3
  6
CONTINUOUS
 62
     3
 10
2913.522288
 20
7675.278674
 11
2929.962908
 21
7675.278674
  0
LINE
  8
CSLAYER3
  6
CONTINUOUS
 62
     3
 10
2913.522288
 20
7675.610674
 11
2929.913141
 21
7675.610674
  0
LINE
  8
CSLAYER3
  6
CONTINUOUS
 62
     3
 10
2913.522288
 20
7675.942674
 11
2929.856474
 21
7675.942674
  0
LINE
  8
CSLAYER3
  6
CONTINUOUS
 62
     3
 10
2913.522288
 20
7676.274674
 11
2929.792838
 21
7676.274674
  0
LINE
  8
CSLAYER3
  6
CONTINUOUS
 62
     3
 10
2913.522288
 20
7676.606674
 11
2929.722149
 21
7676.606674
  0
LINE
  8
CSLAYER3
  6
CONTINUOUS
 62
     3
 10
2913.522288
 20
7676.938674
 11
2929.644315
 21
7676.938674
  0
LINE
  8
CSLAYER3
  6
CONTINUOUS
 62
     3
 10
2913.522288
 20
7677.270674
 11
2929.559232
 21
7677.270674
  0
LINE
  8
CSLAYER3
  6
CONTINUOUS
 62
     3
 10
2913.522288
 20
7677.602674
 11
2929.466783
 21
7677.602674
  0
LINE
  8
CSLAYER3
  6
CONTINUOUS
 62
     3
 10
2913.522288
 20
7677.934674
 11
2929.366840
 21
7677.934674
  0
LINE
  8
CSLAYER3
  6
CONTINUOUS
 62
     3
 10
2913.522288
 20
7678.266674
 11
2929.259260
 21
7678.266674
  0
LINE
  8
CSLAYER3
  6
CONTINUOUS
 62
     3
 10
2913.522288
 20
7678.598674
 11
2929.143885
 21
7678.598674
  0
LINE
  8
CSLAYER3
  6
CONTINUOUS
 62
     3
 10
2913.522288
 20
7678.930674
 11
2929.020542
 21
7678.930674
  0
LINE
  8
CSLAYER3
  6
CONTINUOUS
 62
     3
 10
2913.522288
 20
7679.262674
 11
2928.889037
 21
7679.262674
  0
LINE
  8
CSLAYER3
  6
CONTINUOUS
 62
     3
 10
2913.522288
 20
7679.594674
 11
2928.749161
 21
7679.594674
  0
LINE
  8
CSLAYER3
  6
CONTINUOUS
 62
     3
 10
2913.522288
 20
7679.926674
 11
2928.600679
 21
7679.926674
  0
LINE
  8
CSLAYER3
  6
CONTINUOUS
 62
     3
 10
2913.522288
 20
7680.258674
 11
2928.443335
 21
7680.258674
  0
LINE
  8
CSLAYER3
  6
CONTINUOUS
 62
     3
 10
2913.522288
 20
7680.590674
 11
2928.276846
 21
7680.590674
  0
LINE
  8
CSLAYER3
  6
CONTINUOUS
 62
     3
 10
2913.522288
 20
7680.922674
 11
2928.100898
 21
7680.922674
  0
LINE
  8
CSLAYER3
  6
CONTINUOUS
 62
     3
 10
2913.522288
 20
7681.254674
 11
2927.915143
 21
7681.254674
  0
LINE
  8
CSLAYER3
  6
CONTINUOUS
 62
     3
 10
2913.522288
 20
7681.586674
 11
2927.719198
 21
7681.586674
  0
LINE
  8
CSLAYER3
  6
CONTINUOUS
 62
     3
 10
2913.522288
 20
7681.918674
 11
2927.512635
 21
7681.918674
  0
LINE
  8
CSLAYER3
  6
CONTINUOUS
 62
     3
 10
2913.522288
 20
7682.250674
 11
2927.294974
 21
7682.250674
  0
LINE
  8
CSLAYER3
  6
CONTINUOUS
 62
     3
 10
2913.522288
 20
7682.582674
 11
2927.065682
 21
7682.582674
  0
LINE
  8
CSLAYER3
  6
CONTINUOUS
 62
     3
 10
2913.522288
 20
7682.914674
 11
2926.824157
 21
7682.914674
  0
LINE
  8
CSLAYER3
  6
CONTINUOUS
 62
     3
 10
2913.522288
 20
7683.246674
 11
2926.569719
 21
7683.246674
  0
LINE
  8
CSLAYER3
  6
CONTINUOUS
 62
     3
 10
2913.522288
 20
7683.578674
 11
2926.301598
 21
7683.578674
  0
LINE
  8
CSLAYER3
  6
CONTINUOUS
 62
     3
 10
2913.522288
 20
7683.910674
 11
2926.018911
 21
7683.910674
  0
LINE
  8
CSLAYER3
  6
CONTINUOUS
 62
     3
 10
2913.522288
 20
7684.242674
 11
2925.720648
 21
7684.242674
  0
LINE
  8
CSLAYER3
  6
CONTINUOUS
 62
     3
 10
2913.522288
 20
7684.574674
 11
2925.405635
 21
7684.574674
  0
LINE
  8
CSLAYER3
  6
CONTINUOUS
 62
     3
 10
2913.522288
 20
7684.906674
 11
2925.072502
 21
7684.906674
  0
LINE
  8
CSLAYER3
  6
CONTINUOUS
 62
     3
 10
2913.522288
 20
7685.238674
 11
2924.719632
 21
7685.238674
  0
LINE
  8
CSLAYER3
  6
CONTINUOUS
 62
     3
 10
2913.522288
 20
7685.570674
 11
2924.345093
 21
7685.570674
  0
LINE
  8
CSLAYER3
  6
CONTINUOUS
 62
     3
 10
2913.522288
 20
7685.902674
 11
2923.946551
 21
7685.902674
  0
LINE
  8
CSLAYER3
  6
CONTINUOUS
 62
     3
 10
2913.522288
 20
7686.234674
 11
2923.521137
 21
7686.234674
  0
LINE
  8
CSLAYER3
  6
CONTINUOUS
 62
     3
 10
2913.522288
 20
7686.566674
 11
2923.065256
 21
7686.566674
  0
LINE
  8
CSLAYER3
  6
CONTINUOUS
 62
     3
 10
2913.522288
 20
7686.898674
 11
2922.574307
 21
7686.898674
  0
LINE
  8
CSLAYER3
  6
CONTINUOUS
 62
     3
 10
2913.522288
 20
7687.230674
 11
2922.042230
 21
7687.230674
  0
LINE
  8
CSLAYER3
  6
CONTINUOUS
 62
     3
 10
2913.522288
 20
7687.562674
 11
2921.460760
 21
7687.562674
  0
LINE
  8
CSLAYER3
  6
CONTINUOUS
 62
     3
 10
2913.522288
 20
7687.894674
 11
2920.818096
 21
7687.894674
  0
LINE
  8
CSLAYER3
  6
CONTINUOUS
 62
     3
 10
2913.522288
 20
7688.226674
 11
2920.096315
 21
7688.226674
  0
LINE
  8
CSLAYER3
  6
CONTINUOUS
 62
     3
 10
2913.522288
 20
7688.558674
 11
2919.265667
 21
7688.558674
  0
LINE
  8
CSLAYER3
  6
CONTINUOUS
 62
     3
 10
2913.522288
 20
7688.890674
 11
2918.269343
 21
7688.890674
  0
LINE
  8
CSLAYER3
  6
CONTINUOUS
 62
     3
 10
2913.522288
 20
7689.222674
 11
2916.966444
 21
7689.222674
  0
LINE
  8
CSLAYER3
  6
CONTINUOUS
 62
     3
 10
2913.522288
 20
7689.554674
 11
2914.506890
 21
7689.554674
  0
LINE
  8
CSLAYER3
  6
CONTINUOUS
 62
     3
 10
2896.953977
 20
7671.958674
 11
2913.522288
 21
7671.958674
  0
LINE
  8
CSLAYER3
  6
CONTINUOUS
 62
     3
 10
2896.977865
 20
7671.626674
 11
2913.522288
 21
7671.626674
  0
LINE
  8
CSLAYER3
  6
CONTINUOUS
 62
     3
 10
2897.008460
 20
7671.294674
 11
2913.522288
 21
7671.294674
  0
LINE
  8
CSLAYER3
  6
CONTINUOUS
 62
     3
 10
2897.045800
 20
7670.962674
 11
2913.522288
 21
7670.962674
  0
LINE
  8
CSLAYER3
  6
CONTINUOUS
 62
     3
 10
2897.089932
 20
7670.630674
 11
2913.522288
 21
7670.630674
  0
LINE
  8
CSLAYER3
  6
CONTINUOUS
 62
     3
 10
2897.140909
 20
7670.298674
 11
2913.522288
 21
7670.298674
  0
LINE
  8
CSLAYER3
  6
CONTINUOUS
 62
     3
 10
2897.198797
 20
7669.966674
 11
2913.522288
 21
7669.966674
  0
LINE
  8
CSLAYER3
  6
CONTINUOUS
 62
     3
 10
2897.263669
 20
7669.634674
 11
2913.522288
 21
7669.634674
  0
LINE
  8
CSLAYER3
  6
CONTINUOUS
 62
     3
 10
2897.335609
 20
7669.302674
 11
2913.522288
 21
7669.302674
  0
LINE
  8
CSLAYER3
  6
CONTINUOUS
 62
     3
 10
2897.414711
 20
7668.970674
 11
2913.522288
 21
7668.970674
  0
LINE
  8
CSLAYER3
  6
CONTINUOUS
 62
     3
 10
2897.501083
 20
7668.638674
 11
2913.522288
 21
7668.638674
  0
LINE
  8
CSLAYER3
  6
CONTINUOUS
 62
     3
 10
2897.594841
 20
7668.306674
 11
2913.522288
 21
7668.306674
  0
LINE
  8
CSLAYER3
  6
CONTINUOUS
 62
     3
 10
2897.696118
 20
7667.974674
 11
2913.522288
 21
7667.974674
  0
LINE
  8
CSLAYER3
  6
CONTINUOUS
 62
     3
 10
2897.805058
 20
7667.642674
 11
2913.522288
 21
7667.642674
  0
LINE
  8
CSLAYER3
  6
CONTINUOUS
 62
     3
 10
2897.921823
 20
7667.310674
 11
2913.522288
 21
7667.310674
  0
LINE
  8
CSLAYER3
  6
CONTINUOUS
 62
     3
 10
2898.046589
 20
7666.978674
 11
2913.522288
 21
7666.978674
  0
LINE
  8
CSLAYER3
  6
CONTINUOUS
 62
     3
 10
2898.179551
 20
7666.646674
 11
2913.522288
 21
7666.646674
  0
LINE
  8
CSLAYER3
  6
CONTINUOUS
 62
     3
 10
2898.320925
 20
7666.314674
 11
2913.522288
 21
7666.314674
  0
LINE
  8
CSLAYER3
  6
CONTINUOUS
 62
     3
 10
2898.470948
 20
7665.982674
 11
2913.522288
 21
7665.982674
  0
LINE
  8
CSLAYER3
  6
CONTINUOUS
 62
     3
 10
2898.629880
 20
7665.650674
 11
2913.522288
 21
7665.650674
  0
LINE
  8
CSLAYER3
  6
CONTINUOUS
 62
     3
 10
2898.798011
 20
7665.318674
 11
2913.522288
 21
7665.318674
  0
LINE
  8
CSLAYER3
  6
CONTINUOUS
 62
     3
 10
2898.975660
 20
7664.986674
 11
2913.522288
 21
7664.986674
  0
LINE
  8
CSLAYER3
  6
CONTINUOUS
 62
     3
 10
2899.163179
 20
7664.654674
 11
2913.522288
 21
7664.654674
  0
LINE
  8
CSLAYER3
  6
CONTINUOUS
 62
     3
 10
2899.360961
 20
7664.322674
 11
2913.522288
 21
7664.322674
  0
LINE
  8
CSLAYER3
  6
CONTINUOUS
 62
     3
 10
2899.569442
 20
7663.990674
 11
2913.522288
 21
7663.990674
  0
LINE
  8
CSLAYER3
  6
CONTINUOUS
 62
     3
 10
2899.789110
 20
7663.658674
 11
2913.522288
 21
7663.658674
  0
LINE
  8
CSLAYER3
  6
CONTINUOUS
 62
     3
 10
2900.020510
 20
7663.326674
 11
2913.522288
 21
7663.326674
  0
LINE
  8
CSLAYER3
  6
CONTINUOUS
 62
     3
 10
2900.264257
 20
7662.994674
 11
2913.522288
 21
7662.994674
  0
LINE
  8
CSLAYER3
  6
CONTINUOUS
 62
     3
 10
2900.521046
 20
7662.662674
 11
2913.522288
 21
7662.662674
  0
LINE
  8
CSLAYER3
  6
CONTINUOUS
 62
     3
 10
2900.791664
 20
7662.330674
 11
2913.522288
 21
7662.330674
  0
LINE
  8
CSLAYER3
  6
CONTINUOUS
 62
     3
 10
2901.077015
 20
7661.998674
 11
2913.522288
 21
7661.998674
  0
LINE
  8
CSLAYER3
  6
CONTINUOUS
 62
     3
 10
2901.378137
 20
7661.666674
 11
2913.522288
 21
7661.666674
  0
LINE
  8
CSLAYER3
  6
CONTINUOUS
 62
     3
 10
2901.696234
 20
7661.334674
 11
2913.522288
 21
7661.334674
  0
LINE
  8
CSLAYER3
  6
CONTINUOUS
 62
     3
 10
2902.032717
 20
7661.002674
 11
2913.522288
 21
7661.002674
  0
LINE
  8
CSLAYER3
  6
CONTINUOUS
 62
     3
 10
2902.389253
 20
7660.670674
 11
2913.522288
 21
7660.670674
  0
LINE
  8
CSLAYER3
  6
CONTINUOUS
 62
     3
 10
2902.767834
 20
7660.338674
 11
2913.522288
 21
7660.338674
  0
LINE
  8
CSLAYER3
  6
CONTINUOUS
 62
     3
 10
2903.170881
 20
7660.006674
 11
2913.522288
 21
7660.006674
  0
LINE
  8
CSLAYER3
  6
CONTINUOUS
 62
     3
 10
2903.601375
 20
7659.674674
 11
2913.522288
 21
7659.674674
  0
LINE
  8
CSLAYER3
  6
CONTINUOUS
 62
     3
 10
2904.063062
 20
7659.342674
 11
2913.522288
 21
7659.342674
  0
LINE
  8
CSLAYER3
  6
CONTINUOUS
 62
     3
 10
2904.560761
 20
7659.010674
 11
2913.522288
 21
7659.010674
  0
LINE
  8
CSLAYER3
  6
CONTINUOUS
 62
     3
 10
2905.100856
 20
7658.678674
 11
2913.522288
 21
7658.678674
  0
LINE
  8
CSLAYER3
  6
CONTINUOUS
 62
     3
 10
2905.692114
 20
7658.346674
 11
2913.522288
 21
7658.346674
  0
LINE
  8
CSLAYER3
  6
CONTINUOUS
 62
     3
 10
2906.347172
 20
7658.014674
 11
2913.522288
 21
7658.014674
  0
LINE
  8
CSLAYER3
  6
CONTINUOUS
 62
     3
 10
2907.085480
 20
7657.682674
 11
2913.522288
 21
7657.682674
  0
LINE
  8
CSLAYER3
  6
CONTINUOUS
 62
     3
 10
2907.939972
 20
7657.350674
 11
2913.522288
 21
7657.350674
  0
LINE
  8
CSLAYER3
  6
CONTINUOUS
 62
     3
 10
2908.975688
 20
7657.018674
 11
2913.522288
 21
7657.018674
  0
LINE
  8
CSLAYER3
  6
CONTINUOUS
 62
     3
 10
2910.366272
 20
7656.686674
 11
2913.522288
 21
7656.686674
  0
ENDBLK
  8
0
  0
BLOCK
  8
CSLAYER1
  2
BLKF0009
 70
   64
 10
0.0
 20
0.0
 30
0.0
  0
LINE
  8
CSLAYER3
  6
CENTER
 62
     7
 10
2886.298280
 20
7773.126884
 11
2763.334724
 21
7779.406596
  0
ENDBLK
  8
0
  0
BLOCK
  8
CSLAYER1
  2
BLKF0010
 70
   64
 10
0.0
 20
0.0
 30
0.0
  0
LINE
  8
CSLAYER3
  6
CONTINUOUS
 62
     3
 10
561.525940
 20
7315.781290
 11
111.525940
 21
7315.781290
  0
LINE
  8
CSLAYER3
  6
CONTINUOUS
 62
     3
 10
111.525940
 20
7315.781290
 11
111.525940
 21
7055.781290
  0
LINE
  8
CSLAYER3
  6
CONTINUOUS
 62
     3
 10
111.525940
 20
7055.781290
 11
561.525940
 21
7055.781290
  0
LINE
  8
CSLAYER3
  6
CONTINUOUS
 62
     3
 10
561.525940
 20
7055.781290
 11
561.525940
 21
7315.781290
  0
ENDBLK
  8
0
  0
BLOCK
  8
CSLAYER1
  2
BLKF0011
 70
   64
 10
0.0
 20
0.0
 30
0.0
  0
LINE
  8
CSLAYER3
  6
CONTINUOUS
 62
     3
 10
96.481478
 20
7411.803645
 11
504.982147
 21
7411.803645
  0
LINE
  8
CSLAYER3
  6
CONTINUOUS
 62
     3
 10
15.434266
 20
7469.903645
 11
15.434266
 21
7458.587688
  0
LINE
  8
CSLAYER3
  6
CONTINUOUS
 62
     3
 10
289.334266
 20
7503.103645
 11
48.634266
 21
7503.103645
  0
LINE
  8
CSLAYER3
  6
CONTINUOUS
 62
     3
 10
504.982147
 20
7411.803645
 11
571.382147
 21
7561.203645
  0
LINE
  8
CSLAYER3
  6
CONTINUOUS
 62
     3
 10
289.334266
 20
7503.103645
 11
314.216072
 21
7569.504232
  0
ARC
  8
CSLAYER3
  6
CONTINUOUS
 62
     3
 10
48.634266
 20
7469.903645
 40
33.200000
 50
90.000000
 51
180.000000
  0
LINE
  8
CSLAYER3
  6
CONTINUOUS
 62
     3
 10
38.567905
 20
7426.950552
 11
76.348755
 21
7414.929373
  0
ARC
  8
CSLAYER3
  6
CONTINUOUS
 62
     3
 10
48.634266
 20
7458.587688
 40
33.200000
 50
180.000000
 51
252.349876
  0
ARC
  8
CSLAYER3
  6
CONTINUOUS
 62
     3
 10
96.481478
 20
7478.203645
 40
66.400000
 50
252.349876
 51
270.000000
  0
LINE
  8
CSLAYER3
  6
CONTINUOUS
 62
     3
 10
314.216072
 20
7569.504232
 11
571.382147
 21
7561.203645
  0
ENDBLK
  8
0
  0
BLOCK
  8
CSLAYER1
  2
BLKF0012
 70
   64
 10
0.0
 20
0.0
 30
0.0
  0
LINE
  8
CSLAYER3
  6
CONTINUOUS
 62
     7
 10
2825.359908
 20
7795.595173
 11
2837.936445
 21
7794.715736
  0
LINE
  8
CSLAYER3
  6
CONTINUOUS
 62
     7
 10
2818.942445
 20
7786.671094
 11
2818.314637
 21
7777.693018
  0
LINE
  8
CSLAYER3
  6
CONTINUOUS
 62
     7
 10
2845.354649
 20
7791.657939
 11
2843.775764
 21
7769.078837
  0
LINE
  8
CSLAYER3
  6
CONTINUOUS
 62
     7
 10
2823.427653
 20
7767.962649
 11
2836.004191
 21
7767.083212
  0
LINE
  8
CSLAYER3
  6
CONTINUOUS
 62
     7
 10
2806.768336
 20
7784.600273
 11
2818.739105
 21
7783.763195
  0
LINE
  8
CSLAYER3
  6
CONTINUOUS
 62
     7
 10
2806.547208
 20
7781.437995
 11
2818.517977
 21
7780.600917
  0
LINE
  8
CSLAYER3
  6
CONTINUOUS
 62
     7
 10
2806.768336
 20
7784.600273
 11
2806.547208
 21
7781.437995
  0
LINE
  8
CSLAYER3
  6
CONTINUOUS
 62
     7
 10
2837.936445
 20
7794.715736
 11
2836.004191
 21
7767.083212
  0
LINE
  8
CSLAYER3
  6
CONTINUOUS
 62
     7
 10
2837.936445
 20
7794.715736
 11
2836.004191
 21
7767.083212
  0
LINE
  8
CSLAYER3
  6
CONTINUOUS
 62
     7
 10
2837.936445
 20
7794.715736
 11
2836.004191
 21
7767.083212
  0
LINE
  8
CSLAYER3
  6
CONTINUOUS
 62
     7
 10
2837.655862
 20
7794.735357
 11
2835.723608
 21
7767.102832
  0
LINE
  8
CSLAYER3
  6
CONTINUOUS
 62
     7
 10
2825.359908
 20
7795.595173
 11
2823.427653
 21
7767.962649
  0
LINE
  8
CSLAYER3
  6
CONTINUOUS
 62
     7
 10
2825.359908
 20
7795.595173
 11
2821.258869
 21
7791.126330
  0
LINE
  8
CSLAYER3
  6
CONTINUOUS
 62
     7
 10
2821.258869
 20
7791.126330
 11
2819.988469
 21
7772.958756
  0
LINE
  8
CSLAYER3
  6
CONTINUOUS
 62
     7
 10
2820.623669
 20
7782.042543
 11
2818.628541
 21
7782.182056
  0
LINE
  8
CSLAYER3
  6
CONTINUOUS
 62
     7
 10
2820.937573
 20
7786.531581
 11
2818.942445
 21
7786.671094
  0
LINE
  8
CSLAYER3
  6
CONTINUOUS
 62
     7
 10
2823.427653
 20
7767.962649
 11
2825.359908
 21
7795.595173
  0
LINE
  8
CSLAYER3
  6
CONTINUOUS
 62
     7
 10
2823.427653
 20
7767.962649
 11
2819.988469
 21
7772.958756
  0
LINE
  8
CSLAYER3
  6
CONTINUOUS
 62
     7
 10
2820.309765
 20
7777.553505
 11
2818.314637
 21
7777.693018
  0
LINE
  8
CSLAYER3
  6
CONTINUOUS
 62
     7
 10
2837.936445
 20
7794.715736
 11
2845.354649
 21
7791.657939
  0
LINE
  8
CSLAYER3
  6
CONTINUOUS
 62
     7
 10
2836.004191
 20
7767.083212
 11
2843.775764
 21
7769.078837
  0
ENDBLK
  8
0
  0
BLOCK
  8
CSLAYER1
  2
BLKF0013
 70
   64
 10
0.0
 20
0.0
 30
0.0
  0
LINE
  8
CSLAYER3
  6
CONTINUOUS
 62
     3
 10
2791.236181
 20
7642.344468
 11
2810.927437
 21
7923.942548
  0
LINE
  8
CSLAYER3
  6
CONTINUOUS
 62
     3
 10
2812.782168
 20
7836.743613
 11
2793.987417
 21
7838.057870
  0
LINE
  8
CSLAYER3
  6
CONTINUOUS
 62
     3
 10
2810.927437
 20
7923.942548
 11
2793.987417
 21
7838.057870
  0
LINE
  8
CSLAYER3
  6
CONTINUOUS
 62
     3
 10
2805.208608
 20
7728.436659
 11
2786.413857
 21
7729.750916
  0
LINE
  8
CSLAYER3
  6
CONTINUOUS
 62
     3
 10
2793.987417
 20
7838.057870
 11
2805.208608
 21
7728.436659
  0
LINE
  8
CSLAYER3
  6
CONTINUOUS
 62
     3
 10
2805.208608
 20
7728.436659
 11
2791.236181
 21
7642.344468
  0
LINE
  8
CSLAYER3
  6
CONTINUOUS
 62
     3
 10
2791.236181
 20
7642.344468
 11
2786.413857
 21
7729.750916
  0
LINE
  8
CSLAYER3
  6
CONTINUOUS
 62
     3
 10
2786.413857
 20
7729.750916
 11
2812.782168
 21
7836.743613
  0
LINE
  8
CSLAYER3
  6
CONTINUOUS
 62
     3
 10
2812.782168
 20
7836.743613
 11
2810.927437
 21
7923.942548
  0
ENDBLK
  8
0
  0
BLOCK
  8
CSLAYER1
  2
BLKF0014
 70
   64
 10
0.0
 20
0.0
 30
0.0
  0
LINE
  8
CSLAYER3
  6
CONTINUOUS
 62
     3
 10
2831.811060
 20
7217.174379
 11
2811.659298
 21
7216.621783
  0
LINE
  8
CSLAYER3
  6
CONTINUOUS
 62
     3
 10
2749.959188
 20
7267.711699
 11
2749.233796
 21
7202.455681
  0
LINE
  8
CSLAYER3
  6
CONTINUOUS
 62
     3
 10
2817.585630
 20
7266.773538
 11
2749.959188
 21
7267.711699
  0
LINE
  8
CSLAYER3
  6
CONTINUOUS
 62
     3
 10
2817.585630
 20
7266.773538
 11
2933.383772
 21
7202.455681
  0
LINE
  8
CSLAYER3
  6
CONTINUOUS
 62
     3
 10
2811.659298
 20
7216.621783
 11
2800.795401
 21
7215.486487
  0
LINE
  8
CSLAYER3
  6
CONTINUOUS
 62
     3
 10
2800.795401
 20
7215.486487
 11
2775.325397
 21
7211.216229
  0
LINE
  8
CSLAYER3
  6
CONTINUOUS
 62
     3
 10
2831.811060
 20
7217.174379
 11
2841.098925
 21
7216.591679
  0
LINE
  8
CSLAYER3
  6
CONTINUOUS
 62
     3
 10
2841.098925
 20
7216.591679
 11
2875.846334
 21
7213.087606
  0
LINE
  8
CSLAYER3
  6
CONTINUOUS
 62
     3
 10
2876.039284
 20
7214.087929
 11
2933.383772
 21
7202.455681
  0
LINE
  8
CSLAYER3
  6
CONTINUOUS
 62
     3
 10
2774.976398
 20
7212.172847
 11
2749.233796
 21
7202.455681
  0
LINE
  8
CSLAYER3
  6
CONTINUOUS
 62
     3
 10
2774.976398
 20
7212.172847
 11
2775.325397
 21
7211.216229
  0
LINE
  8
CSLAYER3
  6
CONTINUOUS
 62
     3
 10
2876.039284
 20
7214.087929
 11
2875.846334
 21
7213.087606
  0
LINE
  8
CSLAYER3
  6
CONTINUOUS
 62
     3
 10
2933.383772
 20
7202.455681
 11
2933.190822
 21
7201.455358
  0
ENDBLK
  8
0
  0
BLOCK
  8
CSLAYER1
  2
BLKF0015
 70
   64
 10
0.0
 20
0.0
 30
0.0
  0
LINE
  8
CSLAYER3
  6
CONTINUOUS
 62
     3
 10
2924.952825
 20
7726.116794
 11
2904.802509
 21
7726.719834
  0
LINE
  8
CSLAYER3
  6
CONTINUOUS
 62
     3
 10
2846.131309
 20
7781.261317
 11
2841.667837
 21
7716.154087
  0
LINE
  8
CSLAYER3
  6
CONTINUOUS
 62
     3
 10
2913.592877
 20
7776.449597
 11
2846.131309
 21
7781.261317
  0
LINE
  8
CSLAYER3
  6
CONTINUOUS
 62
     3
 10
2913.592877
 20
7776.449597
 11
3025.515240
 21
7705.602005
  0
LINE
  8
CSLAYER3
  6
CONTINUOUS
 62
     3
 10
2904.802509
 20
7726.719834
 11
2893.891407
 21
7726.208922
  0
LINE
  8
CSLAYER3
  6
CONTINUOUS
 62
     3
 10
2893.891407
 20
7726.208922
 11
2868.218560
 21
7723.405151
  0
LINE
  8
CSLAYER3
  6
CONTINUOUS
 62
     3
 10
2924.952825
 20
7726.116794
 11
2934.192039
 21
7725.002843
  0
LINE
  8
CSLAYER3
  6
CONTINUOUS
 62
     3
 10
2934.192039
 20
7725.002843
 11
2968.681567
 21
7719.513446
  0
LINE
  8
CSLAYER3
  6
CONTINUOUS
 62
     3
 10
2968.931520
 20
7720.501069
 11
3025.515240
 21
7705.602005
  0
LINE
  8
CSLAYER3
  6
CONTINUOUS
 62
     3
 10
2867.924950
 20
7724.380195
 11
2841.667837
 21
7716.154087
  0
LINE
  8
CSLAYER3
  6
CONTINUOUS
 62
     3
 10
2867.924950
 20
7724.380195
 11
2868.218560
 21
7723.405151
  0
LINE
  8
CSLAYER3
  6
CONTINUOUS
 62
     3
 10
2968.931520
 20
7720.501069
 11
2968.681567
 21
7719.513446
  0
LINE
  8
CSLAYER3
  6
CONTINUOUS
 62
     3
 10
3025.515240
 20
7705.602005
 11
3025.265287
 21
7704.614382
  0
ENDBLK
  8
0
  0
BLOCK
  8
CSLAYER1
  2
BLKF0016
 70
   64
 10
0.0
 20
0.0
 30
0.0
  0
LINE
  8
CSLAYER3
  6
CONTINUOUS
 62
     7
 10
3100.585730
 20
7073.238533
 11
3100.585730
 21
7066.238533
  0
LINE
  8
CSLAYER3
  6
CONTINUOUS
 62
     7
 10
3103.585730
 20
7073.238533
 11
3103.585730
 21
7066.238533
  0
CIRCLE
  8
CSLAYER3
  6
CONTINUOUS
 62
     7
 10
3102.085730
 20
7073.238533
 40
0.500000
  0
ARC
  8
CSLAYER3
  6
CONTINUOUS
 62
     7
 10
3102.085730
 20
7073.238533
 40
1.500000
 50
0.000000
 51
180.000000
  0
CIRCLE
  8
CSLAYER3
  6
CONTINUOUS
 62
     7
 10
3102.085730
 20
7057.238533
 40
0.500000
  0
ARC
  8
CSLAYER3
  6
CONTINUOUS
 62
     7
 10
3102.085730
 20
7057.238533
 40
1.500000
 50
180.000000
 51
360.000000
  0
CIRCLE
  8
CSLAYER3
  6
CONTINUOUS
 62
     7
 10
3095.585730
 20
7063.738533
 40
0.500000
  0
ARC
  8
CSLAYER3
  6
CONTINUOUS
 62
     7
 10
3095.585730
 20
7063.738533
 40
1.500000
 50
90.000000
 51
270.000000
  0
CIRCLE
  8
CSLAYER3
  6
CONTINUOUS
 62
     7
 10
3108.585730
 20
7063.738533
 40
0.500000
  0
ARC
  8
CSLAYER3
  6
CONTINUOUS
 62
     7
 10
3108.585730
 20
7063.738533
 40
1.500000
 50
-90.000000
 51
90.000000
  0
LINE
  8
CSLAYER3
  6
CONTINUOUS
 62
     7
 10
3095.585730
 20
7065.238533
 11
3099.585730
 21
7065.238533
  0
LINE
  8
CSLAYER3
  6
CONTINUOUS
 62
     7
 10
3108.585730
 20
7062.238533
 11
3104.585730
 21
7062.238533
  0
ARC
  8
CSLAYER3
  6
CONTINUOUS
 62
     7
 10
3099.585730
 20
7066.238533
 40
1.000000
 50
270.000000
 51
360.000000
  0
ARC
  8
CSLAYER3
  6
CONTINUOUS
 62
     7
 10
3099.585730
 20
7061.238533
 40
1.000000
 50
0.000000
 51
90.000000
  0
ARC
  8
CSLAYER3
  6
CONTINUOUS
 62
     7
 10
3104.585730
 20
7061.238533
 40
1.000000
 50
90.000000
 51
180.000000
  0
ARC
  8
CSLAYER3
  6
CONTINUOUS
 62
     7
 10
3104.585730
 20
7066.238533
 40
1.000000
 50
180.000000
 51
270.000000
  0
LINE
  8
CSLAYER3
  6
CONTINUOUS
 62
     7
 10
3104.585730
 20
7065.238533
 11
3108.585730
 21
7065.238533
  0
LINE
  8
CSLAYER3
  6
CONTINUOUS
 62
     7
 10
3103.585730
 20
7061.238533
 11
3103.585730
 21
7058.038533
  0
LINE
  8
CSLAYER3
  6
CONTINUOUS
 62
     7
 10
3099.585730
 20
7062.238533
 11
3095.585730
 21
7062.238533
  0
LINE
  8
CSLAYER3
  6
CONTINUOUS
 62
     7
 10
3100.585730
 20
7061.238533
 11
3100.585730
 21
7058.038533
  0
LINE
  8
CSLAYER3
  6
CONTINUOUS
 62
     7
 10
3085.085730
 20
7058.738533
 11
3085.085730
 21
7068.738533
  0
LINE
  8
CSLAYER3
  6
CONTINUOUS
 62
     7
 10
3080.585730
 20
7068.738533
 11
3112.585730
 21
7068.738533
  0
LINE
  8
CSLAYER3
  6
CONTINUOUS
 62
     7
 10
3108.085730
 20
7068.738533
 11
3108.085730
 21
7058.738533
  0
LINE
  8
CSLAYER3
  6
CONTINUOUS
 62
     7
 10
3112.585730
 20
7058.738533
 11
3080.585730
 21
7058.738533
  0
LINE
  8
CSLAYER3
  6
CONTINUOUS
 62
     7
 10
3112.585730
 20
7068.738533
 11
3112.585730
 21
7058.738533
  0
LINE
  8
CSLAYER3
  6
CONTINUOUS
 62
     7
 10
3080.585730
 20
7068.738533
 11
3080.585730
 21
7058.738533
  0
CIRCLE
  8
CSLAYER3
  6
CONTINUOUS
 62
     7
 10
3110.585730
 20
7063.738533
 40
1.000000
  0
CIRCLE
  8
CSLAYER3
  6
CONTINUOUS
 62
     7
 10
3082.585730
 20
7063.738533
 40
1.000000
  0
CIRCLE
  8
CSLAYER3
  6
CONTINUOUS
 62
     7
 10
3102.085730
 20
7063.738533
 40
1.500000
  0
CIRCLE
  8
CSLAYER3
  6
CONTINUOUS
 62
     7
 10
3102.085730
 20
7063.738533
 40
5.811350
  0
ENDBLK
  8
0
  0
BLOCK
  8
CSLAYER1
  2
BLKF0017
 70
   64
 10
0.0
 20
0.0
 30
0.0
  0
LINE
  8
CSLAYER3
  6
CONTINUOUS
 62
     7
 10
3100.585730
 20
7076.293066
 11
3100.585730
 21
7083.293066
  0
LINE
  8
CSLAYER3
  6
CONTINUOUS
 62
     7
 10
3103.585730
 20
7076.293066
 11
3103.585730
 21
7083.293066
  0
CIRCLE
  8
CSLAYER3
  6
CONTINUOUS
 62
     7
 10
3102.085730
 20
7076.293066
 40
0.500000
  0
ARC
  8
CSLAYER3
  6
CONTINUOUS
 62
     7
 10
3102.085730
 20
7076.293066
 40
1.500000
 50
180.000000
 51
360.000000
  0
CIRCLE
  8
CSLAYER3
  6
CONTINUOUS
 62
     7
 10
3102.085730
 20
7092.293066
 40
0.500000
  0
ARC
  8
CSLAYER3
  6
CONTINUOUS
 62
     7
 10
3102.085730
 20
7092.293066
 40
1.500000
 50
0.000000
 51
180.000000
  0
CIRCLE
  8
CSLAYER3
  6
CONTINUOUS
 62
     7
 10
3095.585730
 20
7085.793066
 40
0.500000
  0
ARC
  8
CSLAYER3
  6
CONTINUOUS
 62
     7
 10
3095.585730
 20
7085.793066
 40
1.500000
 50
90.000000
 51
270.000000
  0
CIRCLE
  8
CSLAYER3
  6
CONTINUOUS
 62
     7
 10
3108.585730
 20
7085.793066
 40
0.500000
  0
ARC
  8
CSLAYER3
  6
CONTINUOUS
 62
     7
 10
3108.585730
 20
7085.793066
 40
1.500000
 50
-90.000000
 51
90.000000
  0
LINE
  8
CSLAYER3
  6
CONTINUOUS
 62
     7
 10
3095.585730
 20
7084.293066
 11
3099.585730
 21
7084.293066
  0
LINE
  8
CSLAYER3
  6
CONTINUOUS
 62
     7
 10
3108.585730
 20
7087.293066
 11
3104.585730
 21
7087.293066
  0
ARC
  8
CSLAYER3
  6
CONTINUOUS
 62
     7
 10
3099.585730
 20
7083.293066
 40
1.000000
 50
0.000000
 51
90.000000
  0
ARC
  8
CSLAYER3
  6
CONTINUOUS
 62
     7
 10
3099.585730
 20
7088.293066
 40
1.000000
 50
270.000000
 51
360.000000
  0
ARC
  8
CSLAYER3
  6
CONTINUOUS
 62
     7
 10
3104.585730
 20
7088.293066
 40
1.000000
 50
180.000000
 51
270.000000
  0
ARC
  8
CSLAYER3
  6
CONTINUOUS
 62
     7
 10
3104.585730
 20
7083.293066
 40
1.000000
 50
90.000000
 51
180.000000
  0
LINE
  8
CSLAYER3
  6
CONTINUOUS
 62
     7
 10
3104.585730
 20
7084.293066
 11
3108.585730
 21
7084.293066
  0
LINE
  8
CSLAYER3
  6
CONTINUOUS
 62
     7
 10
3103.585730
 20
7088.293066
 11
3103.585730
 21
7091.493066
  0
LINE
  8
CSLAYER3
  6
CONTINUOUS
 62
     7
 10
3099.585730
 20
7087.293066
 11
3095.585730
 21
7087.293066
  0
LINE
  8
CSLAYER3
  6
CONTINUOUS
 62
     7
 10
3100.585730
 20
7088.293066
 11
3100.585730
 21
7091.493066
  0
LINE
  8
CSLAYER3
  6
CONTINUOUS
 62
     7
 10
3085.085730
 20
7090.793066
 11
3085.085730
 21
7080.793066
  0
LINE
  8
CSLAYER3
  6
CONTINUOUS
 62
     7
 10
3080.585730
 20
7080.793066
 11
3112.585730
 21
7080.793066
  0
LINE
  8
CSLAYER3
  6
CONTINUOUS
 62
     7
 10
3108.085730
 20
7080.793066
 11
3108.085730
 21
7090.793066
  0
LINE
  8
CSLAYER3
  6
CONTINUOUS
 62
     7
 10
3112.585730
 20
7090.793066
 11
3080.585730
 21
7090.793066
  0
LINE
  8
CSLAYER3
  6
CONTINUOUS
 62
     7
 10
3112.585730
 20
7080.793066
 11
3112.585730
 21
7090.793066
  0
LINE
  8
CSLAYER3
  6
CONTINUOUS
 62
     7
 10
3080.585730
 20
7080.793066
 11
3080.585730
 21
7090.793066
  0
CIRCLE
  8
CSLAYER3
  6
CONTINUOUS
 62
     7
 10
3110.585730
 20
7085.793066
 40
1.000000
  0
CIRCLE
  8
CSLAYER3
  6
CONTINUOUS
 62
     7
 10
3082.585730
 20
7085.793066
 40
1.000000
  0
CIRCLE
  8
CSLAYER3
  6
CONTINUOUS
 62
     7
 10
3102.085730
 20
7085.793066
 40
1.500000
  0
CIRCLE
  8
CSLAYER3
  6
CONTINUOUS
 62
     7
 10
3102.085730
 20
7085.793066
 40
5.811350
  0
ENDBLK
  8
0
  0
BLOCK
  8
CSLAYER1
  2
BLKF0018
 70
   64
 10
0.0
 20
0.0
 30
0.0
  0
LINE
  8
CSLAYER3
  6
CONTINUOUS
 62
     3
 10
3772.290506
 20
7190.493891
 11
3516.101119
 21
7190.493891
  0
LINE
  8
CSLAYER3
  6
CONTINUOUS
 62
     3
 10
3772.290506
 20
7190.493891
 11
3798.112728
 21
7248.593891
  0
LINE
  8
CSLAYER3
  6
CONTINUOUS
 62
     3
 10
3516.064848
 20
7190.493891
 11
3540.946653
 21
7256.894478
  0
LINE
  8
CSLAYER3
  6
CONTINUOUS
 62
     3
 10
3540.946653
 20
7256.894478
 11
3798.112728
 21
7248.593891
  0
ENDBLK
  8
0
  0
BLOCK
  8
CSLAYER1
  2
BLKF0019
 70
   64
 10
0.0
 20
0.0
 30
0.0
  0
LINE
  8
CSLAYER3
  6
CONTINUOUS
 62
     3
 10
1729.207312
 20
6965.965418
 11
1729.207312
 21
6894.981405
  0
LINE
  8
CSLAYER3
  6
CONTINUOUS
 62
     3
 10
1757.207312
 20
6965.965418
 11
1757.207312
 21
6894.981405
  0
LINE
  8
CSLAYER3
  6
CONTINUOUS
 62
     3
 10
1729.207312
 20
6965.965418
 11
1757.207312
 21
6965.965418
  0
LINE
  8
CSLAYER3
  6
CONTINUOUS
 62
     3
 10
1729.207312
 20
6894.981405
 11
1757.207312
 21
6894.981405
  0
ENDBLK
  8
0
  0
BLOCK
  8
CSLAYER1
  2
BLKF0020
 70
   64
 10
0.0
 20
0.0
 30
0.0
  0
LINE
  8
CSLAYER3
  6
CONTINUOUS
 62
     3
 10
1729.207312
 20
6894.981405
 11
1729.207312
 21
6961.981405
  0
LINE
  8
CSLAYER3
  6
CONTINUOUS
 62
     3
 10
1729.207312
 20
6894.981405
 11
1687.207312
 21
6894.981405
  0
LINE
  8
CSLAYER3
  6
CONTINUOUS
 62
     3
 10
1729.207312
 20
6961.981405
 11
1687.207312
 21
6961.981405
  0
LINE
  8
CSLAYER3
  6
CONTINUOUS
 62
     3
 10
1687.207312
 20
6894.981405
 11
1687.207312
 21
6961.981405
  0
ENDBLK
  8
0
  0
BLOCK
  8
CSLAYER1
  2
BLKF0021
 70
   64
 10
0.0
 20
0.0
 30
0.0
  0
LINE
  8
CSLAYER3
  6
CONTINUOUS
 62
     3
 10
1789.901209
 20
6945.981405
 11
1759.901209
 21
6945.981405
  0
LINE
  8
CSLAYER3
  6
CONTINUOUS
 62
     3
 10
1789.901209
 20
6945.981405
 11
1792.595106
 21
6930.981405
  0
LINE
  8
CSLAYER3
  6
CONTINUOUS
 62
     3
 10
1759.901209
 20
6945.981405
 11
1757.207312
 21
6930.981405
  0
LINE
  8
CSLAYER3
  6
CONTINUOUS
 62
     3
 10
1757.207312
 20
6930.981405
 11
1764.901209
 21
6930.981405
  0
ARC
  8
CSLAYER3
  6
CONTINUOUS
 62
     3
 10
1774.901209
 20
6930.981405
 40
10.000000
 50
0.000000
 51
180.000000
  0
LINE
  8
CSLAYER3
  6
CONTINUOUS
 62
     3
 10
1784.901209
 20
6930.981405
 11
1792.595106
 21
6930.981405
  0
ENDBLK
  8
0
  0
BLOCK
  8
CSLAYER1
  2
BLKF0022
 70
   64
 10
0.0
 20
0.0
 30
0.0
  0
CIRCLE
  8
CSLAYER3
  6
CONTINUOUS
 62
     3
 10
1846.044049
 20
6920.471232
 40
2.000000
  0
LINE
  8
CSLAYER3
  6
CONTINUOUS
 62
     3
 10
1821.044049
 20
6945.961060
 11
1821.044049
 21
6930.471232
  0
ARC
  8
CSLAYER3
  6
CONTINUOUS
 62
     3
 10
1821.044049
 20
6920.471232
 40
10.000000
 50
-90.000000
 51
90.000000
  0
LINE
  8
CSLAYER3
  6
CONTINUOUS
 62
     3
 10
1821.044049
 20
6910.471232
 11
1821.044049
 21
6894.981405
  0
ARC
  8
CSLAYER3
  6
CONTINUOUS
 62
     3
 10
1846.044049
 20
6920.471232
 40
21.000000
 50
-90.000000
 51
90.000000
  0
LINE
  8
CSLAYER3
  6
CONTINUOUS
 62
     3
 10
1846.044049
 20
6899.471232
 11
1821.044049
 21
6894.981405
  0
LINE
  8
CSLAYER3
  6
CONTINUOUS
 62
     3
 10
1846.044049
 20
6941.471232
 11
1821.044049
 21
6945.961060
  0
CIRCLE
  8
CSLAYER3
  6
CONTINUOUS
 62
     3
 10
1853.468670
 20
6913.046611
 40
1.500000
  0
CIRCLE
  8
CSLAYER3
  6
CONTINUOUS
 62
     3
 10
1853.468670
 20
6927.895854
 40
1.500000
  0
CIRCLE
  8
CSLAYER3
  6
CONTINUOUS
 62
     3
 10
1838.619428
 20
6927.895854
 40
1.500000
  0
CIRCLE
  8
CSLAYER3
  6
CONTINUOUS
 62
     3
 10
1838.619428
 20
6913.046611
 40
1.500000
  0
CIRCLE
  8
CSLAYER3
  6
CONTINUOUS
 62
     3
 10
1835.544049
 20
6920.471232
 40
2.686849
  0
ENDBLK
  8
0
  0
BLOCK
  8
CSLAYER1
  2
BLKF0023
 70
   64
 10
0.0
 20
0.0
 30
0.0
  0
LINE
  8
CSLAYER3
  6
CONTINUOUS
 62
     3
 10
1757.207312
 20
6912.981405
 11
1757.207312
 21
6894.981405
  0
LINE
  8
CSLAYER3
  6
CONTINUOUS
 62
     3
 10
1757.207312
 20
6912.981405
 11
1794.517085
 21
6912.981405
  0
LINE
  8
CSLAYER3
  6
CONTINUOUS
 62
     3
 10
1821.044049
 20
6894.981405
 11
1757.207312
 21
6894.981405
  0
LINE
  8
CSLAYER3
  6
CONTINUOUS
 62
     3
 10
1794.517085
 20
6912.981405
 11
1821.044049
 21
6894.981405
  0
ENDBLK
  8
0
  0
BLOCK
  8
CSLAYER1
  2
BLKF0024
 70
   64
 10
0.0
 20
0.0
 30
0.0
  0
LINE
  8
CSLAYER3
  6
CONTINUOUS
 62
     3
 10
1992.568651
 20
7138.177139
 11
2012.720413
 21
7138.729735
  0
LINE
  8
CSLAYER3
  6
CONTINUOUS
 62
     3
 10
2074.420524
 20
7087.639819
 11
2075.145915
 21
7152.895837
  0
LINE
  8
CSLAYER3
  6
CONTINUOUS
 62
     3
 10
2006.794081
 20
7088.577980
 11
2074.420524
 21
7087.639819
  0
LINE
  8
CSLAYER3
  6
CONTINUOUS
 62
     3
 10
2006.794081
 20
7088.577980
 11
1890.995939
 21
7152.895837
  0
LINE
  8
CSLAYER3
  6
CONTINUOUS
 62
     3
 10
2012.720413
 20
7138.729735
 11
2023.584311
 21
7139.865030
  0
LINE
  8
CSLAYER3
  6
CONTINUOUS
 62
     3
 10
2023.584311
 20
7139.865030
 11
2049.054314
 21
7144.135288
  0
LINE
  8
CSLAYER3
  6
CONTINUOUS
 62
     3
 10
1992.568651
 20
7138.177139
 11
1983.280786
 21
7138.759839
  0
LINE
  8
CSLAYER3
  6
CONTINUOUS
 62
     3
 10
1983.280786
 20
7138.759839
 11
1948.533377
 21
7142.263912
  0
LINE
  8
CSLAYER3
  6
CONTINUOUS
 62
     3
 10
1948.340427
 20
7141.263589
 11
1890.995939
 21
7152.895837
  0
LINE
  8
CSLAYER3
  6
CONTINUOUS
 62
     3
 10
2049.403314
 20
7143.178671
 11
2075.145915
 21
7152.895837
  0
LINE
  8
CSLAYER3
  6
CONTINUOUS
 62
     3
 10
2049.403314
 20
7143.178671
 11
2049.054314
 21
7144.135288
  0
LINE
  8
CSLAYER3
  6
CONTINUOUS
 62
     3
 10
1948.340427
 20
7141.263589
 11
1948.533377
 21
7142.263912
  0
LINE
  8
CSLAYER3
  6
CONTINUOUS
 62
     3
 10
1890.995939
 20
7152.895837
 11
1891.188889
 21
7153.896160
  0
ENDBLK
  8
0
  0
BLOCK
  8
CSLAYER1
  2
BLKF0025
 70
   64
 10
0.0
 20
0.0
 30
0.0
  0
LINE
  8
CSLAYER3
  6
CONTINUOUS
 62
     3
 10
1687.207312
 20
6894.981405
 11
1616.223299
 21
6894.981405
  0
LINE
  8
CSLAYER3
  6
CONTINUOUS
 62
     3
 10
1687.207312
 20
6959.981405
 11
1616.223299
 21
6959.981405
  0
LINE
  8
CSLAYER3
  6
CONTINUOUS
 62
     3
 10
1687.207312
 20
6959.981405
 11
1687.207312
 21
6894.981405
  0
LINE
  8
CSLAYER3
  6
CONTINUOUS
 62
     3
 10
1616.223299
 20
6959.981405
 11
1616.223299
 21
6894.981405
  0
ENDBLK
  8
0
  0
BLOCK
  8
CSLAYER1
  2
BLKF0026
 70
   64
 10
0.0
 20
0.0
 30
0.0
  0
LINE
  8
CSLAYER3
  6
CONTINUOUS
 62
     3
 10
1602.900470
 20
7119.009993
 11
1602.900470
 21
7094.009993
  0
LINE
  8
CSLAYER3
  6
CONTINUOUS
 62
     3
 10
1551.057674
 20
7119.009993
 11
1602.900470
 21
7119.009993
  0
LINE
  8
CSLAYER3
  6
CONTINUOUS
 62
     3
 10
1551.057674
 20
7119.009993
 11
1551.057674
 21
7094.009993
  0
LINE
  8
CSLAYER3
  6
CONTINUOUS
 62
     3
 10
1551.057674
 20
7094.009993
 11
1602.900470
 21
7094.009993
  0
LINE
  8
CSLAYER3
  6
CONTINUOUS
 62
     3
 10
1585.773261
 20
7110.037259
 11
1562.773261
 21
7110.037259
  0
LINE
  8
CSLAYER3
  6
CONTINUOUS
 62
     3
 10
1562.773261
 20
7110.037259
 11
1562.773261
 21
7100.037259
  0
LINE
  8
CSLAYER3
  6
CONTINUOUS
 62
     3
 10
1562.773261
 20
7100.037259
 11
1585.773261
 21
7100.037259
  0
LINE
  8
CSLAYER3
  6
CONTINUOUS
 62
     3
 10
1585.773261
 20
7100.037259
 11
1585.773261
 21
7110.037259
  0
CIRCLE
  8
CSLAYER3
  6
CONTINUOUS
 62
     3
 10
1560.273261
 20
7105.037259
 40
1.000000
  0
CIRCLE
  8
CSLAYER3
  6
CONTINUOUS
 62
     3
 10
1588.273261
 20
7105.037259
 40
1.000000
  0
ENDBLK
  8
0
  0
BLOCK
  8
CSLAYER1
  2
BLKF0027
 70
   64
 10
0.0
 20
0.0
 30
0.0
  0
LINE
  8
CSLAYER3
  6
CONTINUOUS
 62
     3
 10
1602.900470
 20
7094.009993
 11
1602.900470
 21
7069.009993
  0
LINE
  8
CSLAYER3
  6
CONTINUOUS
 62
     3
 10
1551.057674
 20
7094.009993
 11
1602.900470
 21
7094.009993
  0
LINE
  8
CSLAYER3
  6
CONTINUOUS
 62
     3
 10
1551.057674
 20
7094.009993
 11
1551.057674
 21
7069.009993
  0
LINE
  8
CSLAYER3
  6
CONTINUOUS
 62
     3
 10
1551.057674
 20
7069.009993
 11
1602.900470
 21
7069.009993
  0
LINE
  8
CSLAYER3
  6
CONTINUOUS
 62
     3
 10
1585.773261
 20
7085.037259
 11
1562.773261
 21
7085.037259
  0
LINE
  8
CSLAYER3
  6
CONTINUOUS
 62
     3
 10
1562.773261
 20
7085.037259
 11
1562.773261
 21
7075.037259
  0
LINE
  8
CSLAYER3
  6
CONTINUOUS
 62
     3
 10
1562.773261
 20
7075.037259
 11
1585.773261
 21
7075.037259
  0
LINE
  8
CSLAYER3
  6
CONTINUOUS
 62
     3
 10
1585.773261
 20
7075.037259
 11
1585.773261
 21
7085.037259
  0
CIRCLE
  8
CSLAYER3
  6
CONTINUOUS
 62
     3
 10
1560.273261
 20
7080.037259
 40
1.000000
  0
CIRCLE
  8
CSLAYER3
  6
CONTINUOUS
 62
     3
 10
1588.273261
 20
7080.037259
 40
1.000000
  0
ENDBLK
  8
0
  0
BLOCK
  8
CSLAYER1
  2
BLKF0028
 70
   64
 10
0.0
 20
0.0
 30
0.0
  0
LINE
  8
CSLAYER3
  6
CONTINUOUS
 62
     3
 10
1602.900470
 20
7119.009993
 11
1602.900470
 21
7094.009993
  0
LINE
  8
CSLAYER3
  6
CONTINUOUS
 62
     3
 10
1627.900470
 20
7119.009993
 11
1627.900470
 21
7094.009993
  0
LINE
  8
CSLAYER3
  6
CONTINUOUS
 62
     3
 10
1602.900470
 20
7094.009993
 11
1627.900470
 21
7094.009993
  0
LINE
  8
CSLAYER3
  6
CONTINUOUS
 62
     3
 10
1627.900470
 20
7094.009993
 11
1602.900470
 21
7119.009993
  0
LINE
  8
CSLAYER3
  6
CONTINUOUS
 62
     3
 10
1602.900470
 20
7119.009993
 11
1627.900470
 21
7119.009993
  0
ENDBLK
  8
0
  0
BLOCK
  8
CSLAYER1
  2
BLKF0029
 70
   64
 10
0.0
 20
0.0
 30
0.0
  0
LINE
  8
CSLAYER3
  6
CONTINUOUS
 62
     3
 10
1602.900470
 20
7094.009993
 11
1602.900470
 21
7069.009993
  0
LINE
  8
CSLAYER3
  6
CONTINUOUS
 62
     3
 10
1627.900470
 20
7094.009993
 11
1627.900470
 21
7069.009993
  0
LINE
  8
CSLAYER3
  6
CONTINUOUS
 62
     3
 10
1602.900470
 20
7069.009993
 11
1627.900470
 21
7069.009993
  0
LINE
  8
CSLAYER3
  6
CONTINUOUS
 62
     3
 10
1627.900470
 20
7069.009993
 11
1602.900470
 21
7094.009993
  0
LINE
  8
CSLAYER3
  6
CONTINUOUS
 62
     3
 10
1602.900470
 20
7094.009993
 11
1627.900470
 21
7094.009993
  0
ENDBLK
  8
0
  0
BLOCK
  8
CSLAYER1
  2
BLKF0030
 70
   64
 10
0.0
 20
0.0
 30
0.0
  0
LINE
  8
CSLAYER3
  6
CONTINUOUS
 62
     3
 10
1817.420524
 20
7015.639819
 11
2074.420524
 21
7015.639819
  0
LINE
  8
CSLAYER3
  6
CONTINUOUS
 62
     3
 10
1817.420524
 20
7087.639819
 11
2074.420524
 21
7087.639819
  0
LINE
  8
CSLAYER3
  6
CONTINUOUS
 62
     3
 10
1817.420524
 20
7087.639819
 11
1817.420524
 21
7015.639819
  0
LINE
  8
CSLAYER3
  6
CONTINUOUS
 62
     3
 10
2074.420524
 20
7087.639819
 11
2074.420524
 21
7015.639819
  0
LINE
  8
CSLAYER3
  6
CONTINUOUS
 62
     3
 10
1853.420524
 20
7046.639819
 11
1918.420524
 21
7046.639819
  0
LINE
  8
CSLAYER3
  6
CONTINUOUS
 62
     3
 10
1853.420524
 20
7056.639819
 11
1918.420524
 21
7056.639819
  0
LINE
  8
CSLAYER3
  6
CONTINUOUS
 62
     3
 10
1853.420524
 20
7076.639819
 11
1853.420524
 21
7056.639819
  0
LINE
  8
CSLAYER3
  6
CONTINUOUS
 62
     3
 10
1918.420524
 20
7076.639819
 11
1918.420524
 21
7056.639819
  0
LINE
  8
CSLAYER3
  6
CONTINUOUS
 62
     3
 10
1853.420524
 20
7076.639819
 11
1918.420524
 21
7076.639819
  0
LINE
  8
CSLAYER3
  6
CONTINUOUS
 62
     3
 10
1853.420524
 20
7026.639819
 11
1918.420524
 21
7026.639819
  0
LINE
  8
CSLAYER3
  6
CONTINUOUS
 62
     3
 10
1918.420524
 20
7046.639819
 11
1918.420524
 21
7026.639819
  0
LINE
  8
CSLAYER3
  6
CONTINUOUS
 62
     3
 10
1853.420524
 20
7046.639819
 11
1853.420524
 21
7026.639819
  0
CIRCLE
  8
CSLAYER3
  6
CONTINUOUS
 62
     3
 10
1838.420524
 20
7081.639819
 40
2.000000
  0
CIRCLE
  8
CSLAYER3
  6
CONTINUOUS
 62
     3
 10
1838.420524
 20
7021.639819
 40
2.000000
  0
CIRCLE
  8
CSLAYER3
  6
CONTINUOUS
 62
     3
 10
1994.420524
 20
7081.639819
 40
2.000000
  0
CIRCLE
  8
CSLAYER3
  6
CONTINUOUS
 62
     3
 10
1994.420524
 20
7021.639819
 40
2.000000
  0
ENDBLK
  8
0
  0
BLOCK
  8
CSLAYER1
  2
BLKF0031
 70
   64
 10
0.0
 20
0.0
 30
0.0
  0
LINE
  8
CSLAYER3
  6
CONTINUOUS
 62
     3
 10
1667.787484
 20
7069.009993
 11
1627.900470
 21
7069.009993
  0
CIRCLE
  8
CSLAYER3
  6
CONTINUOUS
 62
     3
 10
1647.843977
 20
7085.581193
 40
5.500000
  0
LINE
  8
CSLAYER3
  6
CONTINUOUS
 62
     3
 10
1647.843977
 20
7101.081193
 11
1647.843977
 21
7091.081193
  0
LINE
  8
CSLAYER3
  6
CONTINUOUS
 62
     3
 10
1647.843977
 20
7101.081193
 11
1667.787484
 21
7069.009993
  0
LINE
  8
CSLAYER3
  6
CONTINUOUS
 62
     3
 10
1647.843977
 20
7101.081193
 11
1627.900470
 21
7069.009993
  0
LINE
  8
CSLAYER3
  6
CONTINUOUS
 62
     3
 10
1647.843977
 20
7080.081193
 11
1647.843977
 21
7069.009993
  0
ENDBLK
  8
0
  0
BLOCK
  8
CSLAYER1
  2
BLKF0032
 70
   64
 10
0.0
 20
0.0
 30
0.0
  0
LINE
  8
CSLAYER3
  6
CONTINUOUS
 62
     3
 10
1667.787484
 20
7069.009993
 11
1700.734543
 21
7069.009993
  0
CIRCLE
  8
CSLAYER3
  6
CONTINUOUS
 62
     3
 10
1684.261014
 20
7081.313323
 40
5.000000
  0
LINE
  8
CSLAYER3
  6
CONTINUOUS
 62
     3
 10
1684.261014
 20
7097.063323
 11
1684.261014
 21
7086.313323
  0
LINE
  8
CSLAYER3
  6
CONTINUOUS
 62
     3
 10
1700.734543
 20
7069.009993
 11
1684.476668
 21
7097.534028
  0
LINE
  8
CSLAYER3
  6
CONTINUOUS
 62
     3
 10
1684.476668
 20
7097.534028
 11
1667.787484
 21
7069.009993
  0
LINE
  8
CSLAYER3
  6
CONTINUOUS
 62
     3
 10
1684.261014
 20
7076.313323
 11
1684.261014
 21
7069.009993
  0
ENDBLK
  8
0
  0
BLOCK
  8
CSLAYER1
  2
BLKF0033
 70
   64
 10
0.0
 20
0.0
 30
0.0
  0
LINE
  8
CSLAYER3
  6
CONTINUOUS
 62
     3
 10
2188.201212
 20
6824.537035
 11
2236.422084
 21
6933.033996
  0
LINE
  8
CSLAYER3
  6
CONTINUOUS
 62
     3
 10
1961.308887
 20
6890.537035
 11
1986.561130
 21
6957.926187
  0
LINE
  8
CSLAYER3
  6
CONTINUOUS
 62
     3
 10
1986.190693
 20
6956.937623
 11
2243.356768
 21
6948.637035
  0
LINE
  8
CSLAYER3
  6
CONTINUOUS
 62
     3
 10
2240.920164
 20
6943.154677
 11
2081.318704
 21
6943.154677
  0
LINE
  8
CSLAYER3
  6
CONTINUOUS
 62
     3
 10
2081.318704
 20
6943.154677
 11
2081.318704
 21
6932.154677
  0
LINE
  8
CSLAYER3
  6
CONTINUOUS
 62
     3
 10
2081.318704
 20
6932.154677
 11
2236.422084
 21
6933.033996
  0
LINE
  8
CSLAYER3
  6
CONTINUOUS
 62
     3
 10
1961.308887
 20
6890.537035
 11
1961.308887
 21
6824.537035
  0
LINE
  8
CSLAYER3
  6
CONTINUOUS
 62
     3
 10
2188.201212
 20
6824.537035
 11
1961.308887
 21
6824.537035
  0
CIRCLE
  8
CSLAYER3
  6
CONTINUOUS
 62
     3
 10
2016.318729
 20
6893.192363
 40
16.226489
  0
CIRCLE
  8
CSLAYER3
  6
CONTINUOUS
 62
     3
 10
2074.568789
 20
6893.192363
 40
16.226489
  0
CIRCLE
  8
CSLAYER3
  6
CONTINUOUS
 62
     3
 10
2132.818849
 20
6893.192363
 40
16.226489
  0
LINE
  8
CSLAYER3
  6
CONTINUOUS
 62
     3
 10
2240.920164
 20
6943.154677
 11
2243.356768
 21
6948.637035
  0
ENDBLK
  8
0
  0
BLOCK
  8
CSLAYER1
  2
BLKF0034
 70
   64
 10
0.0
 20
0.0
 30
0.0
  0
LINE
  8
CSLAYER3
  6
CONTINUOUS
 62
     3
 10
1899.997788
 20
7102.358517
 11
1879.846026
 21
7101.805921
  0
LINE
  8
CSLAYER3
  6
CONTINUOUS
 62
     3
 10
1818.145915
 20
7152.895837
 11
1817.420524
 21
7087.639819
  0
LINE
  8
CSLAYER3
  6
CONTINUOUS
 62
     3
 10
1885.772358
 20
7151.957676
 11
1818.145915
 21
7152.895837
  0
LINE
  8
CSLAYER3
  6
CONTINUOUS
 62
     3
 10
1885.772358
 20
7151.957676
 11
2001.570500
 21
7087.639819
  0
LINE
  8
CSLAYER3
  6
CONTINUOUS
 62
     3
 10
1879.846026
 20
7101.805921
 11
1868.982128
 21
7100.670626
  0
LINE
  8
CSLAYER3
  6
CONTINUOUS
 62
     3
 10
1868.982128
 20
7100.670626
 11
1843.512125
 21
7096.400367
  0
LINE
  8
CSLAYER3
  6
CONTINUOUS
 62
     3
 10
1899.997788
 20
7102.358517
 11
1909.285653
 21
7101.775817
  0
LINE
  8
CSLAYER3
  6
CONTINUOUS
 62
     3
 10
1909.285653
 20
7101.775817
 11
1944.033062
 21
7098.271744
  0
LINE
  8
CSLAYER3
  6
CONTINUOUS
 62
     3
 10
1944.226012
 20
7099.272067
 11
2001.570500
 21
7087.639819
  0
LINE
  8
CSLAYER3
  6
CONTINUOUS
 62
     3
 10
1843.163125
 20
7097.356985
 11
1817.420524
 21
7087.639819
  0
LINE
  8
CSLAYER3
  6
CONTINUOUS
 62
     3
 10
1843.163125
 20
7097.356985
 11
1843.512125
 21
7096.400367
  0
LINE
  8
CSLAYER3
  6
CONTINUOUS
 62
     3
 10
1944.226012
 20
7099.272067
 11
1944.033062
 21
7098.271744
  0
LINE
  8
CSLAYER3
  6
CONTINUOUS
 62
     3
 10
2001.570500
 20
7087.639819
 11
2001.377550
 21
7086.639496
  0
ENDBLK
  8
0
  0
BLOCK
  8
CSLAYER1
  2
BLKF0035
 70
   64
 10
0.0
 20
0.0
 30
0.0
  0
LINE
  8
CSLAYER3
  6
CONTINUOUS
 62
     3
 10
1757.207312
 20
6912.981405
 11
1757.207312
 21
6930.981405
  0
LINE
  8
CSLAYER3
  6
CONTINUOUS
 62
     3
 10
1757.207312
 20
6912.981405
 11
1794.517085
 21
6912.981405
  0
LINE
  8
CSLAYER3
  6
CONTINUOUS
 62
     3
 10
1821.044049
 20
6930.981405
 11
1757.207312
 21
6930.981405
  0
LINE
  8
CSLAYER3
  6
CONTINUOUS
 62
     3
 10
1794.517085
 20
6912.981405
 11
1821.044049
 21
6930.981405
  0
ENDBLK
  8
0
  0
BLOCK
  8
CSLAYER1
  2
BLKF0036
 70
   64
 10
0.0
 20
0.0
 30
0.0
  0
LINE
  8
CSLAYER3
  6
CONTINUOUS
 62
     3
 10
2865.514832
 20
6851.974883
 11
2492.448166
 21
6851.974883
  0
LINE
  8
CSLAYER3
  6
CONTINUOUS
 62
     3
 10
2865.514832
 20
6923.974883
 11
2492.448166
 21
6923.974883
  0
LINE
  8
CSLAYER3
  6
CONTINUOUS
 62
     3
 10
2865.514832
 20
6851.974883
 11
2865.514832
 21
6923.974883
  0
LINE
  8
CSLAYER3
  6
CONTINUOUS
 62
     3
 10
2492.448166
 20
6851.974883
 11
2492.448166
 21
6923.974883
  0
ENDBLK
  8
0
  0
BLOCK
  8
CSLAYER1
  2
BLKF0037
 70
   64
 10
0.0
 20
0.0
 30
0.0
  0
LINE
  8
CSLAYER3
  6
CONTINUOUS
 62
     3
 10
1913.328264
 20
6776.283457
 11
1540.261597
 21
6776.283457
  0
LINE
  8
CSLAYER3
  6
CONTINUOUS
 62
     3
 10
1913.328264
 20
6848.283457
 11
1540.261597
 21
6848.283457
  0
LINE
  8
CSLAYER3
  6
CONTINUOUS
 62
     3
 10
1913.328264
 20
6776.283457
 11
1913.328264
 21
6848.283457
  0
LINE
  8
CSLAYER3
  6
CONTINUOUS
 62
     3
 10
1540.261597
 20
6776.283457
 11
1540.261597
 21
6848.283457
  0
ENDBLK
  8
0
  0
BLOCK
  8
CSLAYER1
  2
BLKF0038
 70
   64
 10
0.0
 20
0.0
 30
0.0
  0
LINE
  8
CSLAYER3
  6
CONTINUOUS
 62
     3
 10
1555.257674
 20
7140.023993
 11
1588.657674
 21
7140.023993
  0
LINE
  8
CSLAYER3
  6
CONTINUOUS
 62
     3
 10
1555.257674
 20
7161.023993
 11
1588.657674
 21
7161.023993
  0
LINE
  8
CSLAYER3
  6
CONTINUOUS
 62
     3
 10
1551.057674
 20
7156.823993
 11
1551.057674
 21
7144.223993
  0
LINE
  8
CSLAYER3
  6
CONTINUOUS
 62
     3
 10
1592.857674
 20
7156.823993
 11
1592.857674
 21
7144.223993
  0
LINE
  8
CSLAYER3
  6
CONTINUOUS
 62
     3
 10
1572.307674
 20
7157.523993
 11
1572.307674
 21
7143.523993
  0
LINE
  8
CSLAYER3
  6
CONTINUOUS
 62
     3
 10
1571.607674
 20
7157.523993
 11
1571.607674
 21
7143.523993
  0
LINE
  8
CSLAYER3
  6
CONTINUOUS
 62
     3
 10
1571.607674
 20
7143.523993
 11
1572.307674
 21
7143.523993
  0
LINE
  8
CSLAYER3
  6
CONTINUOUS
 62
     3
 10
1571.607674
 20
7157.523993
 11
1572.307674
 21
7157.523993
  0
ARC
  8
CSLAYER3
  6
CONTINUOUS
 62
     3
 10
1555.257674
 20
7144.223993
 40
4.200000
 50
180.000000
 51
270.000000
  0
ARC
  8
CSLAYER3
  6
CONTINUOUS
 62
     3
 10
1555.257674
 20
7156.823993
 40
4.200000
 50
90.000000
 51
180.000000
  0
ARC
  8
CSLAYER3
  6
CONTINUOUS
 62
     3
 10
1588.657674
 20
7156.823993
 40
4.200000
 50
0.000000
 51
90.000000
  0
ARC
  8
CSLAYER3
  6
CONTINUOUS
 62
     3
 10
1588.657674
 20
7144.223993
 40
4.200000
 50
270.000000
 51
360.000000
  0
ENDBLK
  8
0
  0
BLOCK
  8
CSLAYER1
  2
BLKF0039
 70
   64
 10
0.0
 20
0.0
 30
0.0
  0
LINE
  8
CSLAYER3
  6
CONTINUOUS
 62
     3
 10
1555.257674
 20
7119.009993
 11
1588.657674
 21
7119.009993
  0
LINE
  8
CSLAYER3
  6
CONTINUOUS
 62
     3
 10
1555.257674
 20
7140.009993
 11
1588.657674
 21
7140.009993
  0
LINE
  8
CSLAYER3
  6
CONTINUOUS
 62
     3
 10
1551.057674
 20
7135.809993
 11
1551.057674
 21
7123.209993
  0
LINE
  8
CSLAYER3
  6
CONTINUOUS
 62
     3
 10
1592.857674
 20
7135.809993
 11
1592.857674
 21
7123.209993
  0
LINE
  8
CSLAYER3
  6
CONTINUOUS
 62
     3
 10
1572.307674
 20
7136.509993
 11
1572.307674
 21
7122.509993
  0
LINE
  8
CSLAYER3
  6
CONTINUOUS
 62
     3
 10
1571.607674
 20
7136.509993
 11
1571.607674
 21
7122.509993
  0
LINE
  8
CSLAYER3
  6
CONTINUOUS
 62
     3
 10
1571.607674
 20
7122.509993
 11
1572.307674
 21
7122.509993
  0
LINE
  8
CSLAYER3
  6
CONTINUOUS
 62
     3
 10
1571.607674
 20
7136.509993
 11
1572.307674
 21
7136.509993
  0
ARC
  8
CSLAYER3
  6
CONTINUOUS
 62
     3
 10
1555.257674
 20
7123.209993
 40
4.200000
 50
180.000000
 51
270.000000
  0
ARC
  8
CSLAYER3
  6
CONTINUOUS
 62
     3
 10
1555.257674
 20
7135.809993
 40
4.200000
 50
90.000000
 51
180.000000
  0
ARC
  8
CSLAYER3
  6
CONTINUOUS
 62
     3
 10
1588.657674
 20
7135.809993
 40
4.200000
 50
0.000000
 51
90.000000
  0
ARC
  8
CSLAYER3
  6
CONTINUOUS
 62
     3
 10
1588.657674
 20
7123.209993
 40
4.200000
 50
270.000000
 51
360.000000
  0
ENDBLK
  8
0
  0
BLOCK
  8
CSLAYER1
  2
BLKF0040
 70
   64
 10
0.0
 20
0.0
 30
0.0
  0
LINE
  8
CSLAYER3
  6
CONTINUOUS
 62
     3
 10
1555.257674
 20
7161.023993
 11
1569.257674
 21
7161.023993
  0
LINE
  8
CSLAYER3
  6
CONTINUOUS
 62
     3
 10
1555.257674
 20
7161.023993
 11
1555.257674
 21
7163.123993
  0
LINE
  8
CSLAYER3
  6
CONTINUOUS
 62
     3
 10
1572.882754
 20
7182.023993
 11
1576.066735
 21
7182.023993
  0
LINE
  8
CSLAYER3
  6
CONTINUOUS
 62
     3
 10
1574.604087
 20
7173.623993
 11
1576.066735
 21
7173.623993
  0
LINE
  8
CSLAYER3
  6
CONTINUOUS
 62
     3
 10
1573.509241
 20
7173.096524
 11
1569.257674
 21
7163.123993
  0
LINE
  8
CSLAYER3
  6
CONTINUOUS
 62
     3
 10
1568.565063
 20
7180.533761
 11
1555.257674
 21
7163.123993
  0
LINE
  8
CSLAYER3
  6
CONTINUOUS
 62
     3
 10
1569.257674
 20
7163.123993
 11
1569.257674
 21
7161.023993
  0
CIRCLE
  8
CSLAYER3
  6
CONTINUOUS
 62
     3
 10
1576.573615
 20
7177.823993
 40
0.700000
  0
ARC
  8
CSLAYER3
  6
CONTINUOUS
 62
     3
 10
1576.066735
 20
7177.823993
 40
4.200000
 50
-90.000000
 51
90.000000
  0
ARC
  8
CSLAYER3
  6
CONTINUOUS
 62
     3
 10
1572.882754
 20
7175.023993
 40
7.000000
 50
90.000000
 51
128.083777
  0
ARC
  8
CSLAYER3
  6
CONTINUOUS
 62
     3
 10
1574.604087
 20
7172.223993
 40
1.400000
 50
90.000000
 51
141.447103
  0
ENDBLK
  8
0
  0
BLOCK
  8
CSLAYER1
  2
BLKF0041
 70
   64
 10
0.0
 20
0.0
 30
0.0
  0
LINE
  8
CSLAYER3
  6
CONTINUOUS
 62
     3
 10
1584.356379
 20
7161.023993
 11
1598.356379
 21
7161.023993
  0
LINE
  8
CSLAYER3
  6
CONTINUOUS
 62
     3
 10
1584.356379
 20
7161.023993
 11
1584.356379
 21
7163.123993
  0
LINE
  8
CSLAYER3
  6
CONTINUOUS
 62
     3
 10
1601.981459
 20
7182.023993
 11
1605.165440
 21
7182.023993
  0
LINE
  8
CSLAYER3
  6
CONTINUOUS
 62
     3
 10
1603.702792
 20
7173.623993
 11
1605.165440
 21
7173.623993
  0
LINE
  8
CSLAYER3
  6
CONTINUOUS
 62
     3
 10
1602.607946
 20
7173.096524
 11
1598.356379
 21
7163.123993
  0
LINE
  8
CSLAYER3
  6
CONTINUOUS
 62
     3
 10
1597.663768
 20
7180.533761
 11
1584.356379
 21
7163.123993
  0
LINE
  8
CSLAYER3
  6
CONTINUOUS
 62
     3
 10
1598.356379
 20
7163.123993
 11
1598.356379
 21
7161.023993
  0
CIRCLE
  8
CSLAYER3
  6
CONTINUOUS
 62
     3
 10
1605.672320
 20
7177.823993
 40
0.700000
  0
ARC
  8
CSLAYER3
  6
CONTINUOUS
 62
     3
 10
1605.165440
 20
7177.823993
 40
4.200000
 50
-90.000000
 51
90.000000
  0
ARC
  8
CSLAYER3
  6
CONTINUOUS
 62
     3
 10
1601.981459
 20
7175.023993
 40
7.000000
 50
90.000000
 51
128.083777
  0
ARC
  8
CSLAYER3
  6
CONTINUOUS
 62
     3
 10
1603.702792
 20
7172.223993
 40
1.400000
 50
90.000000
 51
141.447103
  0
ENDBLK
  8
0
  0
BLOCK
  8
CSLAYER1
  2
BLKF0042
 70
   64
 10
0.0
 20
0.0
 30
0.0
  0
LINE
  8
CSLAYER3
  6
CONTINUOUS
 62
     3
 10
1613.610878
 20
7161.023993
 11
1627.610878
 21
7161.023993
  0
LINE
  8
CSLAYER3
  6
CONTINUOUS
 62
     3
 10
1613.610878
 20
7161.023993
 11
1613.610878
 21
7163.123993
  0
LINE
  8
CSLAYER3
  6
CONTINUOUS
 62
     3
 10
1631.235957
 20
7182.023993
 11
1634.419938
 21
7182.023993
  0
LINE
  8
CSLAYER3
  6
CONTINUOUS
 62
     3
 10
1632.957291
 20
7173.623993
 11
1634.419938
 21
7173.623993
  0
LINE
  8
CSLAYER3
  6
CONTINUOUS
 62
     3
 10
1631.862444
 20
7173.096524
 11
1627.610878
 21
7163.123993
  0
LINE
  8
CSLAYER3
  6
CONTINUOUS
 62
     3
 10
1626.918266
 20
7180.533761
 11
1613.610878
 21
7163.123993
  0
LINE
  8
CSLAYER3
  6
CONTINUOUS
 62
     3
 10
1627.610878
 20
7163.123993
 11
1627.610878
 21
7161.023993
  0
CIRCLE
  8
CSLAYER3
  6
CONTINUOUS
 62
     3
 10
1634.926818
 20
7177.823993
 40
0.700000
  0
ARC
  8
CSLAYER3
  6
CONTINUOUS
 62
     3
 10
1634.419938
 20
7177.823993
 40
4.200000
 50
-90.000000
 51
90.000000
  0
ARC
  8
CSLAYER3
  6
CONTINUOUS
 62
     3
 10
1631.235957
 20
7175.023993
 40
7.000000
 50
90.000000
 51
128.083777
  0
ARC
  8
CSLAYER3
  6
CONTINUOUS
 62
     3
 10
1632.957291
 20
7172.223993
 40
1.400000
 50
90.000000
 51
141.447103
  0
ENDBLK
  8
0
  0
BLOCK
  8
CSLAYER1
  2
BLKF0043
 70
   64
 10
0.0
 20
0.0
 30
0.0
  0
LINE
  8
CSLAYER3
  6
CONTINUOUS
 62
     3
 10
1597.207050
 20
7182.036247
 11
1583.207050
 21
7182.036247
  0
LINE
  8
CSLAYER3
  6
CONTINUOUS
 62
     3
 10
1597.207050
 20
7182.036247
 11
1597.207050
 21
7179.936247
  0
LINE
  8
CSLAYER3
  6
CONTINUOUS
 62
     3
 10
1579.581970
 20
7161.036247
 11
1576.397990
 21
7161.036247
  0
LINE
  8
CSLAYER3
  6
CONTINUOUS
 62
     3
 10
1577.860637
 20
7169.436247
 11
1576.397990
 21
7169.436247
  0
LINE
  8
CSLAYER3
  6
CONTINUOUS
 62
     3
 10
1578.955483
 20
7169.963715
 11
1583.207050
 21
7179.936247
  0
LINE
  8
CSLAYER3
  6
CONTINUOUS
 62
     3
 10
1583.899662
 20
7162.526479
 11
1597.207050
 21
7179.936247
  0
LINE
  8
CSLAYER3
  6
CONTINUOUS
 62
     3
 10
1583.207050
 20
7179.936247
 11
1583.207050
 21
7182.036247
  0
CIRCLE
  8
CSLAYER3
  6
CONTINUOUS
 62
     3
 10
1575.891110
 20
7165.236247
 40
0.700000
  0
ARC
  8
CSLAYER3
  6
CONTINUOUS
 62
     3
 10
1576.397990
 20
7165.236247
 40
4.200000
 50
90.000000
 51
270.000000
  0
ARC
  8
CSLAYER3
  6
CONTINUOUS
 62
     3
 10
1579.581970
 20
7168.036247
 40
7.000000
 50
270.000000
 51
308.083777
  0
ARC
  8
CSLAYER3
  6
CONTINUOUS
 62
     3
 10
1577.860637
 20
7170.836247
 40
1.400000
 50
270.000000
 51
321.447103
  0
ENDBLK
  8
0
  0
BLOCK
  8
CSLAYER1
  2
BLKF0044
 70
   64
 10
0.0
 20
0.0
 30
0.0
  0
LINE
  8
CSLAYER3
  6
CONTINUOUS
 62
     3
 10
1626.461548
 20
7182.036247
 11
1612.461548
 21
7182.036247
  0
LINE
  8
CSLAYER3
  6
CONTINUOUS
 62
     3
 10
1626.461548
 20
7182.036247
 11
1626.461548
 21
7179.936247
  0
LINE
  8
CSLAYER3
  6
CONTINUOUS
 62
     3
 10
1608.836469
 20
7161.036247
 11
1605.652488
 21
7161.036247
  0
LINE
  8
CSLAYER3
  6
CONTINUOUS
 62
     3
 10
1607.115136
 20
7169.436247
 11
1605.652488
 21
7169.436247
  0
LINE
  8
CSLAYER3
  6
CONTINUOUS
 62
     3
 10
1608.209982
 20
7169.963715
 11
1612.461548
 21
7179.936247
  0
LINE
  8
CSLAYER3
  6
CONTINUOUS
 62
     3
 10
1613.154160
 20
7162.526479
 11
1626.461548
 21
7179.936247
  0
LINE
  8
CSLAYER3
  6
CONTINUOUS
 62
     3
 10
1612.461548
 20
7179.936247
 11
1612.461548
 21
7182.036247
  0
CIRCLE
  8
CSLAYER3
  6
CONTINUOUS
 62
     3
 10
1605.145608
 20
7165.236247
 40
0.700000
  0
ARC
  8
CSLAYER3
  6
CONTINUOUS
 62
     3
 10
1605.652488
 20
7165.236247
 40
4.200000
 50
90.000000
 51
270.000000
  0
ARC
  8
CSLAYER3
  6
CONTINUOUS
 62
     3
 10
1608.836469
 20
7168.036247
 40
7.000000
 50
270.000000
 51
308.083777
  0
ARC
  8
CSLAYER3
  6
CONTINUOUS
 62
     3
 10
1607.115136
 20
7170.836247
 40
1.400000
 50
270.000000
 51
321.447103
  0
ENDBLK
  8
0
  0
BLOCK
  8
CSLAYER1
  2
BLKF0045
 70
   64
 10
0.0
 20
0.0
 30
0.0
  0
LINE
  8
CSLAYER3
  6
CONTINUOUS
 62
     3
 10
1655.716047
 20
7182.036247
 11
1641.716047
 21
7182.036247
  0
LINE
  8
CSLAYER3
  6
CONTINUOUS
 62
     3
 10
1655.716047
 20
7182.036247
 11
1655.716047
 21
7179.936247
  0
LINE
  8
CSLAYER3
  6
CONTINUOUS
 62
     3
 10
1638.090967
 20
7161.036247
 11
1634.906987
 21
7161.036247
  0
LINE
  8
CSLAYER3
  6
CONTINUOUS
 62
     3
 10
1636.369634
 20
7169.436247
 11
1634.906987
 21
7169.436247
  0
LINE
  8
CSLAYER3
  6
CONTINUOUS
 62
     3
 10
1637.464480
 20
7169.963715
 11
1641.716047
 21
7179.936247
  0
LINE
  8
CSLAYER3
  6
CONTINUOUS
 62
     3
 10
1642.408659
 20
7162.526479
 11
1655.716047
 21
7179.936247
  0
LINE
  8
CSLAYER3
  6
CONTINUOUS
 62
     3
 10
1641.716047
 20
7179.936247
 11
1641.716047
 21
7182.036247
  0
CIRCLE
  8
CSLAYER3
  6
CONTINUOUS
 62
     3
 10
1634.400107
 20
7165.236247
 40
0.700000
  0
ARC
  8
CSLAYER3
  6
CONTINUOUS
 62
     3
 10
1634.906987
 20
7165.236247
 40
4.200000
 50
90.000000
 51
270.000000
  0
ARC
  8
CSLAYER3
  6
CONTINUOUS
 62
     3
 10
1638.090967
 20
7168.036247
 40
7.000000
 50
270.000000
 51
308.083777
  0
ARC
  8
CSLAYER3
  6
CONTINUOUS
 62
     3
 10
1636.369634
 20
7170.836247
 40
1.400000
 50
270.000000
 51
321.447103
  0
ENDBLK
  8
0
  0
BLOCK
  8
CSLAYER1
  2
BLKF0046
 70
   64
 10
0.0
 20
0.0
 30
0.0
  0
LINE
  8
CSLAYER3
  6
CONTINUOUS
 62
     3
 10
1597.057674
 20
7140.023993
 11
1630.457674
 21
7140.023993
  0
LINE
  8
CSLAYER3
  6
CONTINUOUS
 62
     3
 10
1597.057674
 20
7161.023993
 11
1630.457674
 21
7161.023993
  0
LINE
  8
CSLAYER3
  6
CONTINUOUS
 62
     3
 10
1592.857674
 20
7156.823993
 11
1592.857674
 21
7144.223993
  0
LINE
  8
CSLAYER3
  6
CONTINUOUS
 62
     3
 10
1634.657674
 20
7156.823993
 11
1634.657674
 21
7144.223993
  0
LINE
  8
CSLAYER3
  6
CONTINUOUS
 62
     3
 10
1614.107674
 20
7157.523993
 11
1614.107674
 21
7143.523993
  0
LINE
  8
CSLAYER3
  6
CONTINUOUS
 62
     3
 10
1613.407674
 20
7157.523993
 11
1613.407674
 21
7143.523993
  0
LINE
  8
CSLAYER3
  6
CONTINUOUS
 62
     3
 10
1613.407674
 20
7143.523993
 11
1614.107674
 21
7143.523993
  0
LINE
  8
CSLAYER3
  6
CONTINUOUS
 62
     3
 10
1613.407674
 20
7157.523993
 11
1614.107674
 21
7157.523993
  0
ARC
  8
CSLAYER3
  6
CONTINUOUS
 62
     3
 10
1597.057674
 20
7144.223993
 40
4.200000
 50
180.000000
 51
270.000000
  0
ARC
  8
CSLAYER3
  6
CONTINUOUS
 62
     3
 10
1597.057674
 20
7156.823993
 40
4.200000
 50
90.000000
 51
180.000000
  0
ARC
  8
CSLAYER3
  6
CONTINUOUS
 62
     3
 10
1630.457674
 20
7156.823993
 40
4.200000
 50
0.000000
 51
90.000000
  0
ARC
  8
CSLAYER3
  6
CONTINUOUS
 62
     3
 10
1630.457674
 20
7144.223993
 40
4.200000
 50
270.000000
 51
360.000000
  0
ENDBLK
  8
0
  0
BLOCK
  8
CSLAYER1
  2
BLKF0047
 70
   64
 10
0.0
 20
0.0
 30
0.0
  0
LINE
  8
CSLAYER3
  6
CONTINUOUS
 62
     3
 10
1597.057674
 20
7119.009993
 11
1630.457674
 21
7119.009993
  0
LINE
  8
CSLAYER3
  6
CONTINUOUS
 62
     3
 10
1597.057674
 20
7140.009993
 11
1630.457674
 21
7140.009993
  0
LINE
  8
CSLAYER3
  6
CONTINUOUS
 62
     3
 10
1592.857674
 20
7135.809993
 11
1592.857674
 21
7123.209993
  0
LINE
  8
CSLAYER3
  6
CONTINUOUS
 62
     3
 10
1634.657674
 20
7135.809993
 11
1634.657674
 21
7123.209993
  0
LINE
  8
CSLAYER3
  6
CONTINUOUS
 62
     3
 10
1614.107674
 20
7136.509993
 11
1614.107674
 21
7122.509993
  0
LINE
  8
CSLAYER3
  6
CONTINUOUS
 62
     3
 10
1613.407674
 20
7136.509993
 11
1613.407674
 21
7122.509993
  0
LINE
  8
CSLAYER3
  6
CONTINUOUS
 62
     3
 10
1613.407674
 20
7122.509993
 11
1614.107674
 21
7122.509993
  0
LINE
  8
CSLAYER3
  6
CONTINUOUS
 62
     3
 10
1613.407674
 20
7136.509993
 11
1614.107674
 21
7136.509993
  0
ARC
  8
CSLAYER3
  6
CONTINUOUS
 62
     3
 10
1597.057674
 20
7123.209993
 40
4.200000
 50
180.000000
 51
270.000000
  0
ARC
  8
CSLAYER3
  6
CONTINUOUS
 62
     3
 10
1597.057674
 20
7135.809993
 40
4.200000
 50
90.000000
 51
180.000000
  0
ARC
  8
CSLAYER3
  6
CONTINUOUS
 62
     3
 10
1630.457674
 20
7135.809993
 40
4.200000
 50
0.000000
 51
90.000000
  0
ARC
  8
CSLAYER3
  6
CONTINUOUS
 62
     3
 10
1630.457674
 20
7123.209993
 40
4.200000
 50
270.000000
 51
360.000000
  0
ENDBLK
  8
0
  0
BLOCK
  8
CSLAYER1
  2
BLKF0048
 70
   64
 10
0.0
 20
0.0
 30
0.0
  0
LINE
  8
CSLAYER3
  6
CONTINUOUS
 62
     3
 10
1638.857674
 20
7140.023993
 11
1672.257674
 21
7140.023993
  0
LINE
  8
CSLAYER3
  6
CONTINUOUS
 62
     3
 10
1638.857674
 20
7161.023993
 11
1672.257674
 21
7161.023993
  0
LINE
  8
CSLAYER3
  6
CONTINUOUS
 62
     3
 10
1634.657674
 20
7156.823993
 11
1634.657674
 21
7144.223993
  0
LINE
  8
CSLAYER3
  6
CONTINUOUS
 62
     3
 10
1676.457674
 20
7156.823993
 11
1676.457674
 21
7144.223993
  0
LINE
  8
CSLAYER3
  6
CONTINUOUS
 62
     3
 10
1655.907674
 20
7157.523993
 11
1655.907674
 21
7143.523993
  0
LINE
  8
CSLAYER3
  6
CONTINUOUS
 62
     3
 10
1655.207674
 20
7157.523993
 11
1655.207674
 21
7143.523993
  0
LINE
  8
CSLAYER3
  6
CONTINUOUS
 62
     3
 10
1655.207674
 20
7143.523993
 11
1655.907674
 21
7143.523993
  0
LINE
  8
CSLAYER3
  6
CONTINUOUS
 62
     3
 10
1655.207674
 20
7157.523993
 11
1655.907674
 21
7157.523993
  0
ARC
  8
CSLAYER3
  6
CONTINUOUS
 62
     3
 10
1638.857674
 20
7144.223993
 40
4.200000
 50
180.000000
 51
270.000000
  0
ARC
  8
CSLAYER3
  6
CONTINUOUS
 62
     3
 10
1638.857674
 20
7156.823993
 40
4.200000
 50
90.000000
 51
180.000000
  0
ARC
  8
CSLAYER3
  6
CONTINUOUS
 62
     3
 10
1672.257674
 20
7156.823993
 40
4.200000
 50
0.000000
 51
90.000000
  0
ARC
  8
CSLAYER3
  6
CONTINUOUS
 62
     3
 10
1672.257674
 20
7144.223993
 40
4.200000
 50
270.000000
 51
360.000000
  0
ENDBLK
  8
0
  0
BLOCK
  8
CSLAYER1
  2
BLKF0049
 70
   64
 10
0.0
 20
0.0
 30
0.0
  0
LINE
  8
CSLAYER3
  6
CONTINUOUS
 62
     3
 10
1638.857674
 20
7119.009993
 11
1672.257674
 21
7119.009993
  0
LINE
  8
CSLAYER3
  6
CONTINUOUS
 62
     3
 10
1638.857674
 20
7140.009993
 11
1672.257674
 21
7140.009993
  0
LINE
  8
CSLAYER3
  6
CONTINUOUS
 62
     3
 10
1634.657674
 20
7135.809993
 11
1634.657674
 21
7123.209993
  0
LINE
  8
CSLAYER3
  6
CONTINUOUS
 62
     3
 10
1676.457674
 20
7135.809993
 11
1676.457674
 21
7123.209993
  0
LINE
  8
CSLAYER3
  6
CONTINUOUS
 62
     3
 10
1655.907674
 20
7136.509993
 11
1655.907674
 21
7122.509993
  0
LINE
  8
CSLAYER3
  6
CONTINUOUS
 62
     3
 10
1655.207674
 20
7136.509993
 11
1655.207674
 21
7122.509993
  0
LINE
  8
CSLAYER3
  6
CONTINUOUS
 62
     3
 10
1655.207674
 20
7122.509993
 11
1655.907674
 21
7122.509993
  0
LINE
  8
CSLAYER3
  6
CONTINUOUS
 62
     3
 10
1655.207674
 20
7136.509993
 11
1655.907674
 21
7136.509993
  0
ARC
  8
CSLAYER3
  6
CONTINUOUS
 62
     3
 10
1638.857674
 20
7123.209993
 40
4.200000
 50
180.000000
 51
270.000000
  0
ARC
  8
CSLAYER3
  6
CONTINUOUS
 62
     3
 10
1638.857674
 20
7135.809993
 40
4.200000
 50
90.000000
 51
180.000000
  0
ARC
  8
CSLAYER3
  6
CONTINUOUS
 62
     3
 10
1672.257674
 20
7135.809993
 40
4.200000
 50
0.000000
 51
90.000000
  0
ARC
  8
CSLAYER3
  6
CONTINUOUS
 62
     3
 10
1672.257674
 20
7123.209993
 40
4.200000
 50
270.000000
 51
360.000000
  0
ENDBLK
  8
0
  0
BLOCK
  8
CSLAYER1
  2
BLKF0050
 70
   64
 10
0.0
 20
0.0
 30
0.0
  0
LINE
  8
CSLAYER3
  6
CONTINUOUS
 62
     3
 10
984.682862
 20
7036.665370
 11
990.297332
 21
7035.833659
  0
LINE
  8
CSLAYER3
  6
CONTINUOUS
 62
     3
 10
990.297332
 20
7035.833659
 11
993.267668
 21
7035.245533
  0
LINE
  8
CSLAYER3
  6
CONTINUOUS
 62
     3
 10
993.267668
 20
7035.245533
 11
996.702120
 21
7034.390076
  0
LINE
  8
CSLAYER3
  6
CONTINUOUS
 62
     3
 10
996.702120
 20
7034.390076
 11
999.208341
 21
7033.534619
  0
LINE
  8
CSLAYER3
  6
CONTINUOUS
 62
     3
 10
999.208341
 20
7033.534619
 11
1000.693509
 21
7032.625696
  0
LINE
  8
CSLAYER3
  6
CONTINUOUS
 62
     3
 10
1000.693509
 20
7032.625696
 11
1001.343270
 21
7031.877172
  0
LINE
  8
CSLAYER3
  6
CONTINUOUS
 62
     3
 10
1001.343270
 20
7031.877172
 11
1001.528089
 21
7030.948716
  0
LINE
  8
CSLAYER3
  6
CONTINUOUS
 62
     3
 10
984.682862
 20
7036.665370
 11
977.601232
 21
7037.576406
  0
LINE
  8
CSLAYER3
  6
CONTINUOUS
 62
     3
 10
977.601232
 20
7037.576406
 11
970.685286
 21
7038.258751
  0
LINE
  8
CSLAYER3
  6
CONTINUOUS
 62
     3
 10
970.685286
 20
7038.258751
 11
965.900993
 21
7038.588531
  0
LINE
  8
CSLAYER3
  6
CONTINUOUS
 62
     3
 10
965.900993
 20
7038.588531
 11
950.395357
 21
7039.392568
  0
LINE
  8
CSLAYER3
  6
CONTINUOUS
 62
     3
 10
950.395357
 20
7039.392568
 11
937.776273
 21
7039.620718
  0
LINE
  8
CSLAYER3
  6
CONTINUOUS
 62
     3
 10
937.776273
 20
7039.620718
 11
921.776303
 21
7039.589817
  0
LINE
  8
CSLAYER3
  6
CONTINUOUS
 62
     3
 10
921.776303
 20
7039.589817
 11
911.784648
 21
7039.306054
  0
LINE
  8
CSLAYER3
  6
CONTINUOUS
 62
     3
 10
911.784648
 20
7039.306054
 11
893.440893
 21
7038.556603
  0
LINE
  8
CSLAYER3
  6
CONTINUOUS
 62
     3
 10
893.440893
 20
7038.556603
 11
879.764730
 21
7037.778671
  0
LINE
  8
CSLAYER3
  6
CONTINUOUS
 62
     3
 10
875.044208
 20
7037.481806
 11
796.764730
 21
7032.107402
  0
LINE
  8
CSLAYER3
  6
CONTINUOUS
 62
     3
 10
796.764730
 20
7032.107402
 11
791.764730
 21
7032.107402
  0
LINE
  8
CSLAYER3
  6
CONTINUOUS
 62
     3
 10
984.682862
 20
7025.229642
 11
977.601232
 21
7024.318606
  0
LINE
  8
CSLAYER3
  6
CONTINUOUS
 62
     3
 10
977.601232
 20
7024.318606
 11
970.685286
 21
7023.636261
  0
LINE
  8
CSLAYER3
  6
CONTINUOUS
 62
     3
 10
970.685286
 20
7023.636261
 11
965.900993
 21
7023.306481
  0
LINE
  8
CSLAYER3
  6
CONTINUOUS
 62
     3
 10
965.900993
 20
7023.306481
 11
950.395357
 21
7022.502444
  0
LINE
  8
CSLAYER3
  6
CONTINUOUS
 62
     3
 10
950.395357
 20
7022.502444
 11
937.776273
 21
7022.274294
  0
LINE
  8
CSLAYER3
  6
CONTINUOUS
 62
     3
 10
937.776273
 20
7022.274294
 11
921.776303
 21
7022.269908
  0
LINE
  8
CSLAYER3
  6
CONTINUOUS
 62
     3
 10
921.776303
 20
7022.269908
 11
911.784648
 21
7022.553671
  0
LINE
  8
CSLAYER3
  6
CONTINUOUS
 62
     3
 10
911.784648
 20
7022.553671
 11
893.440893
 21
7023.303122
  0
LINE
  8
CSLAYER3
  6
CONTINUOUS
 62
     3
 10
893.440893
 20
7023.303122
 11
877.452070
 21
7024.212604
  0
LINE
  8
CSLAYER3
  6
CONTINUOUS
 62
     3
 10
877.452070
 20
7024.212604
 11
796.764730
 21
7029.752323
  0
LINE
  8
CSLAYER3
  6
CONTINUOUS
 62
     3
 10
796.764730
 20
7029.752323
 11
792.229709
 21
7029.752323
  0
LINE
  8
CSLAYER3
  6
CONTINUOUS
 62
     3
 10
984.688042
 20
7025.227002
 11
990.301758
 21
7026.060399
  0
LINE
  8
CSLAYER3
  6
CONTINUOUS
 62
     3
 10
990.301758
 20
7026.060399
 11
993.271561
 21
7026.649418
  0
LINE
  8
CSLAYER3
  6
CONTINUOUS
 62
     3
 10
993.271561
 20
7026.649418
 11
996.705237
 21
7027.505907
  0
LINE
  8
CSLAYER3
  6
CONTINUOUS
 62
     3
 10
996.705237
 20
7027.505907
 11
999.210683
 21
7028.362117
  0
LINE
  8
CSLAYER3
  6
CONTINUOUS
 62
     3
 10
999.210683
 20
7028.362117
 11
1000.695028
 21
7029.271486
  0
LINE
  8
CSLAYER3
  6
CONTINUOUS
 62
     3
 10
1000.695028
 20
7029.271486
 11
1001.344111
 21
7030.020205
  0
LINE
  8
CSLAYER3
  6
CONTINUOUS
 62
     3
 10
1001.344111
 20
7030.020205
 11
1001.528089
 21
7030.948716
  0
LINE
  8
CSLAYER3
  6
CONTINUOUS
 62
     3
 10
879.764730
 20
7037.778671
 11
879.764730
 21
7026.983749
  0
LINE
  8
CSLAYER3
  6
CONTINUOUS
 62
     3
 10
879.764730
 20
7026.983749
 11
875.044208
 21
7037.481806
  0
ENDBLK
  8
0
  0
BLOCK
  8
CSLAYER1
  2
BLKF0051
 70
   64
 10
0.0
 20
0.0
 30
0.0
  0
LINE
  8
CSLAYER3
  6
CONTINUOUS
 62
     3
 10
3522.866676
 20
7661.829358
 11
3517.252205
 21
7662.661069
  0
LINE
  8
CSLAYER3
  6
CONTINUOUS
 62
     3
 10
3517.252205
 20
7662.661069
 11
3514.281869
 21
7663.249196
  0
LINE
  8
CSLAYER3
  6
CONTINUOUS
 62
     3
 10
3514.281869
 20
7663.249196
 11
3510.847418
 21
7664.104652
  0
LINE
  8
CSLAYER3
  6
CONTINUOUS
 62
     3
 10
3510.847418
 20
7664.104652
 11
3508.341197
 21
7664.960109
  0
LINE
  8
CSLAYER3
  6
CONTINUOUS
 62
     3
 10
3508.341197
 20
7664.960109
 11
3506.856029
 21
7665.869032
  0
LINE
  8
CSLAYER3
  6
CONTINUOUS
 62
     3
 10
3506.856029
 20
7665.869032
 11
3506.206268
 21
7666.617557
  0
LINE
  8
CSLAYER3
  6
CONTINUOUS
 62
     3
 10
3506.206268
 20
7666.617557
 11
3506.021449
 21
7667.546012
  0
LINE
  8
CSLAYER3
  6
CONTINUOUS
 62
     3
 10
3522.866676
 20
7661.829358
 11
3529.948305
 21
7660.918322
  0
LINE
  8
CSLAYER3
  6
CONTINUOUS
 62
     3
 10
3529.948305
 20
7660.918322
 11
3536.864252
 21
7660.235978
  0
LINE
  8
CSLAYER3
  6
CONTINUOUS
 62
     3
 10
3536.864252
 20
7660.235978
 11
3541.648544
 21
7659.906197
  0
LINE
  8
CSLAYER3
  6
CONTINUOUS
 62
     3
 10
3541.648544
 20
7659.906197
 11
3557.154180
 21
7659.102160
  0
LINE
  8
CSLAYER3
  6
CONTINUOUS
 62
     3
 10
3557.154180
 20
7659.102160
 11
3569.773264
 21
7658.874011
  0
LINE
  8
CSLAYER3
  6
CONTINUOUS
 62
     3
 10
3569.773264
 20
7658.874011
 11
3585.773234
 21
7658.904911
  0
LINE
  8
CSLAYER3
  6
CONTINUOUS
 62
     3
 10
3585.773234
 20
7658.904911
 11
3595.764889
 21
7659.188674
  0
LINE
  8
CSLAYER3
  6
CONTINUOUS
 62
     3
 10
3595.764889
 20
7659.188674
 11
3614.108645
 21
7659.938125
  0
LINE
  8
CSLAYER3
  6
CONTINUOUS
 62
     3
 10
3614.108645
 20
7659.938125
 11
3627.784808
 21
7660.716057
  0
LINE
  8
CSLAYER3
  6
CONTINUOUS
 62
     3
 10
3632.505329
 20
7661.012923
 11
3710.784808
 21
7666.387326
  0
LINE
  8
CSLAYER3
  6
CONTINUOUS
 62
     3
 10
3710.784808
 20
7666.387326
 11
3715.784808
 21
7666.387326
  0
LINE
  8
CSLAYER3
  6
CONTINUOUS
 62
     3
 10
3522.866676
 20
7673.265086
 11
3529.948305
 21
7674.176123
  0
LINE
  8
CSLAYER3
  6
CONTINUOUS
 62
     3
 10
3529.948305
 20
7674.176123
 11
3536.864252
 21
7674.858467
  0
LINE
  8
CSLAYER3
  6
CONTINUOUS
 62
     3
 10
3536.864252
 20
7674.858467
 11
3541.648544
 21
7675.188248
  0
LINE
  8
CSLAYER3
  6
CONTINUOUS
 62
     3
 10
3541.648544
 20
7675.188248
 11
3557.154180
 21
7675.992284
  0
LINE
  8
CSLAYER3
  6
CONTINUOUS
 62
     3
 10
3557.154180
 20
7675.992284
 11
3569.773264
 21
7676.220434
  0
LINE
  8
CSLAYER3
  6
CONTINUOUS
 62
     3
 10
3569.773264
 20
7676.220434
 11
3585.773234
 21
7676.224820
  0
LINE
  8
CSLAYER3
  6
CONTINUOUS
 62
     3
 10
3585.773234
 20
7676.224820
 11
3595.764889
 21
7675.941057
  0
LINE
  8
CSLAYER3
  6
CONTINUOUS
 62
     3
 10
3595.764889
 20
7675.941057
 11
3614.108645
 21
7675.191606
  0
LINE
  8
CSLAYER3
  6
CONTINUOUS
 62
     3
 10
3614.108645
 20
7675.191606
 11
3630.097467
 21
7674.282125
  0
LINE
  8
CSLAYER3
  6
CONTINUOUS
 62
     3
 10
3630.097467
 20
7674.282125
 11
3710.784808
 21
7668.742405
  0
LINE
  8
CSLAYER3
  6
CONTINUOUS
 62
     3
 10
3710.784808
 20
7668.742405
 11
3715.319828
 21
7668.742405
  0
LINE
  8
CSLAYER3
  6
CONTINUOUS
 62
     3
 10
3522.861496
 20
7673.267727
 11
3517.247780
 21
7672.434329
  0
LINE
  8
CSLAYER3
  6
CONTINUOUS
 62
     3
 10
3517.247780
 20
7672.434329
 11
3514.277977
 21
7671.845310
  0
LINE
  8
CSLAYER3
  6
CONTINUOUS
 62
     3
 10
3514.277977
 20
7671.845310
 11
3510.844301
 21
7670.988821
  0
LINE
  8
CSLAYER3
  6
CONTINUOUS
 62
     3
 10
3510.844301
 20
7670.988821
 11
3508.338855
 21
7670.132612
  0
LINE
  8
CSLAYER3
  6
CONTINUOUS
 62
     3
 10
3508.338855
 20
7670.132612
 11
3506.854510
 21
7669.223243
  0
LINE
  8
CSLAYER3
  6
CONTINUOUS
 62
     3
 10
3506.854510
 20
7669.223243
 11
3506.205427
 21
7668.474523
  0
LINE
  8
CSLAYER3
  6
CONTINUOUS
 62
     3
 10
3506.205427
 20
7668.474523
 11
3506.021449
 21
7667.546012
  0
LINE
  8
CSLAYER3
  6
CONTINUOUS
 62
     3
 10
3627.784808
 20
7660.716057
 11
3627.784808
 21
7671.510979
  0
LINE
  8
CSLAYER3
  6
CONTINUOUS
 62
     3
 10
3627.784808
 20
7671.510979
 11
3632.505329
 21
7661.012923
  0
ENDBLK
  8
0
  0
BLOCK
  8
CSLAYER1
  2
BLKF0052
 70
   64
 10
0.0
 20
0.0
 30
0.0
  0
LINE
  8
CSLAYER3
  6
CONTINUOUS
 62
     3
 10
4021.908158
 20
7944.378863
 11
4016.293688
 21
7945.210574
  0
LINE
  8
CSLAYER3
  6
CONTINUOUS
 62
     3
 10
4016.293688
 20
7945.210574
 11
4013.323352
 21
7945.798700
  0
LINE
  8
CSLAYER3
  6
CONTINUOUS
 62
     3
 10
4013.323352
 20
7945.798700
 11
4009.888901
 21
7946.654157
  0
LINE
  8
CSLAYER3
  6
CONTINUOUS
 62
     3
 10
4009.888901
 20
7946.654157
 11
4007.382680
 21
7947.509614
  0
LINE
  8
CSLAYER3
  6
CONTINUOUS
 62
     3
 10
4007.382680
 20
7947.509614
 11
4005.897512
 21
7948.418537
  0
LINE
  8
CSLAYER3
  6
CONTINUOUS
 62
     3
 10
4005.897512
 20
7948.418537
 11
4005.247751
 21
7949.167061
  0
LINE
  8
CSLAYER3
  6
CONTINUOUS
 62
     3
 10
4005.247751
 20
7949.167061
 11
4005.062932
 21
7950.095517
  0
LINE
  8
CSLAYER3
  6
CONTINUOUS
 62
     3
 10
4021.908158
 20
7944.378863
 11
4028.989788
 21
7943.467827
  0
LINE
  8
CSLAYER3
  6
CONTINUOUS
 62
     3
 10
4028.989788
 20
7943.467827
 11
4035.905735
 21
7942.785482
  0
LINE
  8
CSLAYER3
  6
CONTINUOUS
 62
     3
 10
4035.905735
 20
7942.785482
 11
4040.690027
 21
7942.455702
  0
LINE
  8
CSLAYER3
  6
CONTINUOUS
 62
     3
 10
4040.690027
 20
7942.455702
 11
4056.195663
 21
7941.651665
  0
LINE
  8
CSLAYER3
  6
CONTINUOUS
 62
     3
 10
4056.195663
 20
7941.651665
 11
4068.814747
 21
7941.423515
  0
LINE
  8
CSLAYER3
  6
CONTINUOUS
 62
     3
 10
4068.814747
 20
7941.423515
 11
4084.814717
 21
7941.454416
  0
LINE
  8
CSLAYER3
  6
CONTINUOUS
 62
     3
 10
4084.814717
 20
7941.454416
 11
4094.806372
 21
7941.738179
  0
LINE
  8
CSLAYER3
  6
CONTINUOUS
 62
     3
 10
4094.806372
 20
7941.738179
 11
4113.150128
 21
7942.487630
  0
LINE
  8
CSLAYER3
  6
CONTINUOUS
 62
     3
 10
4113.150128
 20
7942.487630
 11
4126.826291
 21
7943.265562
  0
LINE
  8
CSLAYER3
  6
CONTINUOUS
 62
     3
 10
4131.546812
 20
7943.562427
 11
4209.826291
 21
7948.936831
  0
LINE
  8
CSLAYER3
  6
CONTINUOUS
 62
     3
 10
4209.826291
 20
7948.936831
 11
4214.826291
 21
7948.936831
  0
LINE
  8
CSLAYER3
  6
CONTINUOUS
 62
     3
 10
4021.908158
 20
7955.814591
 11
4028.989788
 21
7956.725627
  0
LINE
  8
CSLAYER3
  6
CONTINUOUS
 62
     3
 10
4028.989788
 20
7956.725627
 11
4035.905735
 21
7957.407972
  0
LINE
  8
CSLAYER3
  6
CONTINUOUS
 62
     3
 10
4035.905735
 20
7957.407972
 11
4040.690027
 21
7957.737752
  0
LINE
  8
CSLAYER3
  6
CONTINUOUS
 62
     3
 10
4040.690027
 20
7957.737752
 11
4056.195663
 21
7958.541789
  0
LINE
  8
CSLAYER3
  6
CONTINUOUS
 62
     3
 10
4056.195663
 20
7958.541789
 11
4068.814747
 21
7958.769939
  0
LINE
  8
CSLAYER3
  6
CONTINUOUS
 62
     3
 10
4068.814747
 20
7958.769939
 11
4084.814717
 21
7958.774325
  0
LINE
  8
CSLAYER3
  6
CONTINUOUS
 62
     3
 10
4084.814717
 20
7958.774325
 11
4094.806372
 21
7958.490562
  0
LINE
  8
CSLAYER3
  6
CONTINUOUS
 62
     3
 10
4094.806372
 20
7958.490562
 11
4113.150128
 21
7957.741111
  0
LINE
  8
CSLAYER3
  6
CONTINUOUS
 62
     3
 10
4113.150128
 20
7957.741111
 11
4129.138950
 21
7956.831629
  0
LINE
  8
CSLAYER3
  6
CONTINUOUS
 62
     3
 10
4129.138950
 20
7956.831629
 11
4209.826291
 21
7951.291910
  0
LINE
  8
CSLAYER3
  6
CONTINUOUS
 62
     3
 10
4209.826291
 20
7951.291910
 11
4214.361311
 21
7951.291910
  0
LINE
  8
CSLAYER3
  6
CONTINUOUS
 62
     3
 10
4021.902979
 20
7955.817231
 11
4016.289263
 21
7954.983834
  0
LINE
  8
CSLAYER3
  6
CONTINUOUS
 62
     3
 10
4016.289263
 20
7954.983834
 11
4013.319459
 21
7954.394815
  0
LINE
  8
CSLAYER3
  6
CONTINUOUS
 62
     3
 10
4013.319459
 20
7954.394815
 11
4009.885784
 21
7953.538326
  0
LINE
  8
CSLAYER3
  6
CONTINUOUS
 62
     3
 10
4009.885784
 20
7953.538326
 11
4007.380338
 21
7952.682116
  0
LINE
  8
CSLAYER3
  6
CONTINUOUS
 62
     3
 10
4007.380338
 20
7952.682116
 11
4005.895993
 21
7951.772747
  0
LINE
  8
CSLAYER3
  6
CONTINUOUS
 62
     3
 10
4005.895993
 20
7951.772747
 11
4005.246910
 21
7951.024028
  0
LINE
  8
CSLAYER3
  6
CONTINUOUS
 62
     3
 10
4005.246910
 20
7951.024028
 11
4005.062932
 21
7950.095517
  0
LINE
  8
CSLAYER3
  6
CONTINUOUS
 62
     3
 10
4126.826291
 20
7943.265562
 11
4126.826291
 21
7954.060484
  0
LINE
  8
CSLAYER3
  6
CONTINUOUS
 62
     3
 10
4126.826291
 20
7954.060484
 11
4131.546812
 21
7943.562427
  0
ENDBLK
  8
0
  0
BLOCK
  8
CSLAYER1
  2
BLKF0053
 70
   64
 10
0.0
 20
0.0
 30
0.0
  0
LINE
  8
CSLAYER3
  6
CONTINUOUS
 62
     3
 10
2154.238393
 20
7695.692146
 11
1490.110889
 21
7695.692146
  0
LINE
  8
CSLAYER3
  6
CONTINUOUS
 62
     3
 10
1490.110889
 20
7695.692146
 11
1173.158899
 21
7794.913094
  0
LINE
  8
CSLAYER3
  6
CONTINUOUS
 62
     3
 10
2148.717280
 20
7728.892146
 11
1495.186039
 21
7728.892146
  0
LINE
  8
CSLAYER3
  6
CONTINUOUS
 62
     3
 10
1495.186039
 20
7728.892146
 11
1183.077423
 21
7826.596889
  0
LINE
  8
CSLAYER3
  6
CONTINUOUS
 62
     3
 10
1183.077423
 20
7826.596889
 11
1170.679267
 21
7786.992146
  0
LINE
  8
CSLAYER3
  6
CONTINUOUS
 62
     3
 10
2155.618671
 20
7687.392146
 11
1855.430386
 21
7687.392146
  0
LINE
  8
CSLAYER3
  6
CONTINUOUS
 62
     3
 10
1488.842101
 20
7687.392146
 11
1170.679267
 21
7786.992146
  0
LINE
  8
CSLAYER3
  6
CONTINUOUS
 62
     3
 10
1855.430386
 20
7537.992146
 11
1789.030386
 21
7537.992146
  0
LINE
  8
CSLAYER3
  6
CONTINUOUS
 62
     3
 10
1789.030386
 20
7695.692146
 11
1789.030386
 21
7537.992146
  0
LINE
  8
CSLAYER3
  6
CONTINUOUS
 62
     3
 10
1855.430386
 20
7695.692146
 11
1855.430386
 21
7537.992146
  0
LINE
  8
CSLAYER3
  6
CONTINUOUS
 62
     3
 10
1789.030386
 20
7687.392146
 11
1488.842101
 21
7687.392146
  0
LINE
  8
CSLAYER3
  6
CONTINUOUS
 62
     3
 10
1855.430386
 20
7629.292146
 11
1789.030386
 21
7629.292146
  0
LINE
  8
CSLAYER3
  6
CONTINUOUS
 62
     3
 10
1488.842101
 20
7687.392146
 11
1495.186039
 21
7728.892146
  0
LINE
  8
CSLAYER3
  6
CONTINUOUS
 62
     3
 10
2154.349883
 20
7695.692146
 11
2471.301873
 21
7794.913094
  0
LINE
  8
CSLAYER3
  6
CONTINUOUS
 62
     3
 10
2149.274733
 20
7728.892146
 11
2461.383348
 21
7826.596889
  0
LINE
  8
CSLAYER3
  6
CONTINUOUS
 62
     3
 10
2461.383348
 20
7826.596889
 11
2473.781505
 21
7786.992146
  0
LINE
  8
CSLAYER3
  6
CONTINUOUS
 62
     3
 10
2155.618671
 20
7687.392146
 11
2473.781505
 21
7786.992146
  0
LINE
  8
CSLAYER3
  6
CONTINUOUS
 62
     3
 10
2155.618671
 20
7687.392146
 11
2149.274733
 21
7728.892146
  0
ENDBLK
  8
0
  0
BLOCK
  8
CSLAYER1
  2
BLKF0054
 70
   64
 10
0.0
 20
0.0
 30
0.0
  0
LINE
  8
CSLAYER3
  6
CONTINUOUS
 62
     3
 10
3750.271362
 20
7519.346927
 11
3744.656892
 21
7520.178638
  0
LINE
  8
CSLAYER3
  6
CONTINUOUS
 62
     3
 10
3744.656892
 20
7520.178638
 11
3741.686556
 21
7520.766764
  0
LINE
  8
CSLAYER3
  6
CONTINUOUS
 62
     3
 10
3741.686556
 20
7520.766764
 11
3738.252105
 21
7521.622221
  0
LINE
  8
CSLAYER3
  6
CONTINUOUS
 62
     3
 10
3738.252105
 20
7521.622221
 11
3735.745883
 21
7522.477678
  0
LINE
  8
CSLAYER3
  6
CONTINUOUS
 62
     3
 10
3735.745883
 20
7522.477678
 11
3734.260715
 21
7523.386601
  0
LINE
  8
CSLAYER3
  6
CONTINUOUS
 62
     3
 10
3734.260715
 20
7523.386601
 11
3733.610954
 21
7524.135125
  0
LINE
  8
CSLAYER3
  6
CONTINUOUS
 62
     3
 10
3733.610954
 20
7524.135125
 11
3733.426135
 21
7525.063581
  0
LINE
  8
CSLAYER3
  6
CONTINUOUS
 62
     3
 10
3750.271362
 20
7519.346927
 11
3757.352992
 21
7518.435891
  0
LINE
  8
CSLAYER3
  6
CONTINUOUS
 62
     3
 10
3757.352992
 20
7518.435891
 11
3764.268939
 21
7517.753546
  0
LINE
  8
CSLAYER3
  6
CONTINUOUS
 62
     3
 10
3764.268939
 20
7517.753546
 11
3769.053231
 21
7517.423766
  0
LINE
  8
CSLAYER3
  6
CONTINUOUS
 62
     3
 10
3769.053231
 20
7517.423766
 11
3784.558867
 21
7516.619729
  0
LINE
  8
CSLAYER3
  6
CONTINUOUS
 62
     3
 10
3784.558867
 20
7516.619729
 11
3797.177951
 21
7516.391579
  0
LINE
  8
CSLAYER3
  6
CONTINUOUS
 62
     3
 10
3797.177951
 20
7516.391579
 11
3813.177921
 21
7516.422480
  0
LINE
  8
CSLAYER3
  6
CONTINUOUS
 62
     3
 10
3813.177921
 20
7516.422480
 11
3823.169576
 21
7516.706243
  0
LINE
  8
CSLAYER3
  6
CONTINUOUS
 62
     3
 10
3823.169576
 20
7516.706243
 11
3841.513331
 21
7517.455694
  0
LINE
  8
CSLAYER3
  6
CONTINUOUS
 62
     3
 10
3841.513331
 20
7517.455694
 11
3855.189494
 21
7518.233626
  0
LINE
  8
CSLAYER3
  6
CONTINUOUS
 62
     3
 10
3859.910016
 20
7518.530491
 11
3938.189494
 21
7523.904895
  0
LINE
  8
CSLAYER3
  6
CONTINUOUS
 62
     3
 10
3938.189494
 20
7523.904895
 11
3943.189494
 21
7523.904895
  0
LINE
  8
CSLAYER3
  6
CONTINUOUS
 62
     3
 10
3750.271362
 20
7530.782655
 11
3757.352992
 21
7531.693691
  0
LINE
  8
CSLAYER3
  6
CONTINUOUS
 62
     3
 10
3757.352992
 20
7531.693691
 11
3764.268939
 21
7532.376035
  0
LINE
  8
CSLAYER3
  6
CONTINUOUS
 62
     3
 10
3764.268939
 20
7532.376035
 11
3769.053231
 21
7532.705816
  0
LINE
  8
CSLAYER3
  6
CONTINUOUS
 62
     3
 10
3769.053231
 20
7532.705816
 11
3784.558867
 21
7533.509853
  0
LINE
  8
CSLAYER3
  6
CONTINUOUS
 62
     3
 10
3784.558867
 20
7533.509853
 11
3797.177951
 21
7533.738002
  0
LINE
  8
CSLAYER3
  6
CONTINUOUS
 62
     3
 10
3797.177951
 20
7533.738002
 11
3813.177921
 21
7533.742389
  0
LINE
  8
CSLAYER3
  6
CONTINUOUS
 62
     3
 10
3813.177921
 20
7533.742389
 11
3823.169576
 21
7533.458626
  0
LINE
  8
CSLAYER3
  6
CONTINUOUS
 62
     3
 10
3823.169576
 20
7533.458626
 11
3841.513331
 21
7532.709175
  0
LINE
  8
CSLAYER3
  6
CONTINUOUS
 62
     3
 10
3841.513331
 20
7532.709175
 11
3857.502154
 21
7531.799693
  0
LINE
  8
CSLAYER3
  6
CONTINUOUS
 62
     3
 10
3857.502154
 20
7531.799693
 11
3938.189494
 21
7526.259974
  0
LINE
  8
CSLAYER3
  6
CONTINUOUS
 62
     3
 10
3938.189494
 20
7526.259974
 11
3942.724515
 21
7526.259974
  0
LINE
  8
CSLAYER3
  6
CONTINUOUS
 62
     3
 10
3750.266183
 20
7530.785295
 11
3744.652466
 21
7529.951898
  0
LINE
  8
CSLAYER3
  6
CONTINUOUS
 62
     3
 10
3744.652466
 20
7529.951898
 11
3741.682663
 21
7529.362879
  0
LINE
  8
CSLAYER3
  6
CONTINUOUS
 62
     3
 10
3741.682663
 20
7529.362879
 11
3738.248987
 21
7528.506390
  0
LINE
  8
CSLAYER3
  6
CONTINUOUS
 62
     3
 10
3738.248987
 20
7528.506390
 11
3735.743541
 21
7527.650180
  0
LINE
  8
CSLAYER3
  6
CONTINUOUS
 62
     3
 10
3735.743541
 20
7527.650180
 11
3734.259197
 21
7526.740811
  0
LINE
  8
CSLAYER3
  6
CONTINUOUS
 62
     3
 10
3734.259197
 20
7526.740811
 11
3733.610114
 21
7525.992091
  0
LINE
  8
CSLAYER3
  6
CONTINUOUS
 62
     3
 10
3733.610114
 20
7525.992091
 11
3733.426135
 21
7525.063581
  0
LINE
  8
CSLAYER3
  6
CONTINUOUS
 62
     3
 10
3855.189494
 20
7518.233626
 11
3855.189494
 21
7529.028548
  0
LINE
  8
CSLAYER3
  6
CONTINUOUS
 62
     3
 10
3855.189494
 20
7529.028548
 11
3859.910016
 21
7518.530491
  0
ENDBLK
  8
0
  0
BLOCK
  8
CSLAYER1
  2
BLKF0055
 70
   64
 10
0.0
 20
0.0
 30
0.0
  0
LINE
  8
CSLAYER3
  6
CONTINUOUS
 62
     3
 10
622.735092
 20
10054.089783
 11
604.660548
 21
10025.060970
  0
LINE
  8
CSLAYER3
  6
CONTINUOUS
 62
     3
 10
596.889687
 20
10012.580497
 11
600.805658
 21
10027.461184
  0
LINE
  8
CSLAYER3
  6
CONTINUOUS
 62
     3
 10
596.889687
 20
10012.580497
 11
608.515438
 21
10022.660755
  0
LINE
  8
CSLAYER3
  6
CONTINUOUS
 62
     3
 10
608.515438
 20
10022.660755
 11
600.805658
 21
10027.461184
  0
ENDBLK
  8
0
  0
BLOCK
  8
CSLAYER1
  2
BLKF0056
 70
   64
 10
0.0
 20
0.0
 30
0.0
  0
LINE
  8
CSLAYER3
  6
CONTINUOUS
 62
     3
 10
524.052637
 20
10058.005754
 11
505.978093
 21
10028.976940
  0
LINE
  8
CSLAYER3
  6
CONTINUOUS
 62
     3
 10
498.207232
 20
10016.496467
 11
502.123203
 21
10031.377155
  0
LINE
  8
CSLAYER3
  6
CONTINUOUS
 62
     3
 10
498.207232
 20
10016.496467
 11
509.832983
 21
10026.576726
  0
LINE
  8
CSLAYER3
  6
CONTINUOUS
 62
     3
 10
509.832983
 20
10026.576726
 11
502.123203
 21
10031.377155
  0
ENDBLK
  8
0
  0
BLOCK
  8
CSLAYER1
  2
BLKF0057
 70
   64
 10
0.0
 20
0.0
 30
0.0
  0
LINE
  8
CSLAYER3
  6
CONTINUOUS
 62
     7
 10
423.080425
 20
9957.115745
 11
450.380425
 21
9957.115745
  0
LINE
  8
CSLAYER3
  6
CONTINUOUS
 62
     7
 10
423.325671
 20
9985.715745
 11
438.435180
 21
9985.715745
  0
LINE
  8
CSLAYER3
  6
CONTINUOUS
 62
     7
 10
417.230425
 20
9976.615745
 11
423.080425
 21
9976.615745
  0
LINE
  8
CSLAYER3
  6
CONTINUOUS
 62
     7
 10
417.230425
 20
9975.965745
 11
456.230425
 21
9975.965745
  0
LINE
  8
CSLAYER3
  6
CONTINUOUS
 62
     7
 10
417.230425
 20
9976.615745
 11
417.230425
 21
9975.965745
  0
LINE
  8
CSLAYER3
  6
CONTINUOUS
 62
     7
 10
456.230425
 20
9976.615745
 11
456.230425
 21
9975.965745
  0
LINE
  8
CSLAYER3
  6
CONTINUOUS
 62
     7
 10
450.380425
 20
9975.965745
 11
450.380425
 21
9957.115745
  0
LINE
  8
CSLAYER3
  6
CONTINUOUS
 62
     7
 10
423.080425
 20
9975.965745
 11
423.080425
 21
9957.115745
  0
LINE
  8
CSLAYER3
  6
CONTINUOUS
 62
     7
 10
423.080425
 20
9981.165745
 11
428.797859
 21
9981.165745
  0
LINE
  8
CSLAYER3
  6
CONTINUOUS
 62
     7
 10
438.435180
 20
9985.715745
 11
438.435180
 21
9981.165745
  0
LINE
  8
CSLAYER3
  6
CONTINUOUS
 62
     7
 10
423.325671
 20
9985.715745
 11
423.325671
 21
9981.165745
  0
LINE
  8
CSLAYER3
  6
CONTINUOUS
 62
     7
 10
450.380425
 20
9976.615745
 11
450.380425
 21
9978.565745
  0
LINE
  8
CSLAYER3
  6
CONTINUOUS
 62
     7
 10
447.780425
 20
9981.165745
 11
450.380425
 21
9978.565745
  0
LINE
  8
CSLAYER3
  6
CONTINUOUS
 62
     7
 10
432.663393
 20
9981.165745
 11
447.780425
 21
9981.165745
  0
LINE
  8
CSLAYER3
  6
CONTINUOUS
 62
     7
 10
420.480425
 20
9990.915745
 11
441.280425
 21
9990.915745
  0
LINE
  8
CSLAYER3
  6
CONTINUOUS
 62
     7
 10
420.480425
 20
9989.615745
 11
441.280425
 21
9989.615745
  0
LINE
  8
CSLAYER3
  6
CONTINUOUS
 62
     7
 10
427.630425
 20
9989.615745
 11
427.630425
 21
9985.715745
  0
LINE
  8
CSLAYER3
  6
CONTINUOUS
 62
     7
 10
420.480425
 20
9990.915745
 11
420.480425
 21
9989.615745
  0
LINE
  8
CSLAYER3
  6
CONTINUOUS
 62
     7
 10
441.280425
 20
9990.915745
 11
441.280425
 21
9989.615745
  0
LINE
  8
CSLAYER3
  6
CONTINUOUS
 62
     7
 10
428.930425
 20
9989.615745
 11
428.930425
 21
9990.915745
  0
LINE
  8
CSLAYER3
  6
CONTINUOUS
 62
     7
 10
432.830425
 20
9990.915745
 11
432.830425
 21
9989.615745
  0
LINE
  8
CSLAYER3
  6
CONTINUOUS
 62
     7
 10
423.080425
 20
9976.615745
 11
423.080425
 21
9981.165745
  0
LINE
  8
CSLAYER3
  6
CONTINUOUS
 62
     7
 10
423.080425
 20
9976.615745
 11
456.230425
 21
9976.615745
  0
ENDBLK
  8
0
  0
BLOCK
  8
CSLAYER1
  2
BLKF0058
 70
   64
 10
0.0
 20
0.0
 30
0.0
  0
LINE
  8
CSLAYER3
  6
CONTINUOUS
 62
     7
 10
2868.156779
 20
7640.171003
 11
2895.456779
 21
7640.171003
  0
LINE
  8
CSLAYER3
  6
CONTINUOUS
 62
     7
 10
2868.402025
 20
7668.771003
 11
2883.511534
 21
7668.771003
  0
LINE
  8
CSLAYER3
  6
CONTINUOUS
 62
     7
 10
2862.306779
 20
7659.671003
 11
2868.156779
 21
7659.671003
  0
LINE
  8
CSLAYER3
  6
CONTINUOUS
 62
     7
 10
2862.306779
 20
7659.021003
 11
2901.306779
 21
7659.021003
  0
LINE
  8
CSLAYER3
  6
CONTINUOUS
 62
     7
 10
2862.306779
 20
7659.671003
 11
2862.306779
 21
7659.021003
  0
LINE
  8
CSLAYER3
  6
CONTINUOUS
 62
     7
 10
2901.306779
 20
7659.671003
 11
2901.306779
 21
7659.021003
  0
LINE
  8
CSLAYER3
  6
CONTINUOUS
 62
     7
 10
2895.456779
 20
7659.021003
 11
2895.456779
 21
7640.171003
  0
LINE
  8
CSLAYER3
  6
CONTINUOUS
 62
     7
 10
2868.156779
 20
7659.021003
 11
2868.156779
 21
7640.171003
  0
LINE
  8
CSLAYER3
  6
CONTINUOUS
 62
     7
 10
2868.156779
 20
7664.221003
 11
2873.874213
 21
7664.221003
  0
LINE
  8
CSLAYER3
  6
CONTINUOUS
 62
     7
 10
2883.511534
 20
7668.771003
 11
2883.511534
 21
7664.221003
  0
LINE
  8
CSLAYER3
  6
CONTINUOUS
 62
     7
 10
2868.402025
 20
7668.771003
 11
2868.402025
 21
7664.221003
  0
LINE
  8
CSLAYER3
  6
CONTINUOUS
 62
     7
 10
2895.456779
 20
7659.671003
 11
2895.456779
 21
7661.621003
  0
LINE
  8
CSLAYER3
  6
CONTINUOUS
 62
     7
 10
2892.856779
 20
7664.221003
 11
2895.456779
 21
7661.621003
  0
LINE
  8
CSLAYER3
  6
CONTINUOUS
 62
     7
 10
2877.739748
 20
7664.221003
 11
2892.856779
 21
7664.221003
  0
LINE
  8
CSLAYER3
  6
CONTINUOUS
 62
     7
 10
2865.556779
 20
7673.971003
 11
2886.356779
 21
7673.971003
  0
LINE
  8
CSLAYER3
  6
CONTINUOUS
 62
     7
 10
2865.556779
 20
7672.671003
 11
2886.356779
 21
7672.671003
  0
LINE
  8
CSLAYER3
  6
CONTINUOUS
 62
     7
 10
2872.706779
 20
7672.671003
 11
2872.706779
 21
7668.771003
  0
LINE
  8
CSLAYER3
  6
CONTINUOUS
 62
     7
 10
2865.556779
 20
7673.971003
 11
2865.556779
 21
7672.671003
  0
LINE
  8
CSLAYER3
  6
CONTINUOUS
 62
     7
 10
2886.356779
 20
7673.971003
 11
2886.356779
 21
7672.671003
  0
LINE
  8
CSLAYER3
  6
CONTINUOUS
 62
     7
 10
2874.006779
 20
7672.671003
 11
2874.006779
 21
7673.971003
  0
LINE
  8
CSLAYER3
  6
CONTINUOUS
 62
     7
 10
2877.906779
 20
7673.971003
 11
2877.906779
 21
7672.671003
  0
LINE
  8
CSLAYER3
  6
CONTINUOUS
 62
     7
 10
2868.156779
 20
7659.671003
 11
2868.156779
 21
7664.221003
  0
LINE
  8
CSLAYER3
  6
CONTINUOUS
 62
     7
 10
2868.156779
 20
7659.671003
 11
2901.306779
 21
7659.671003
  0
ENDBLK
  8
0
  0
BLOCK
  8
CSLAYER1
  2
BLKF0059
 70
   64
 10
0.0
 20
0.0
 30
0.0
  0
LINE
  8
CSLAYER3
  6
CONTINUOUS
 62
     7
 10
438.636371
 20
10145.106821
 11
438.636371
 21
10138.106821
  0
LINE
  8
CSLAYER3
  6
CONTINUOUS
 62
     7
 10
441.636371
 20
10145.106821
 11
441.636371
 21
10138.106821
  0
CIRCLE
  8
CSLAYER3
  6
CONTINUOUS
 62
     7
 10
440.136371
 20
10145.106821
 40
0.500000
  0
ARC
  8
CSLAYER3
  6
CONTINUOUS
 62
     7
 10
440.136371
 20
10145.106821
 40
1.500000
 50
0.000000
 51
180.000000
  0
CIRCLE
  8
CSLAYER3
  6
CONTINUOUS
 62
     7
 10
440.136371
 20
10129.106821
 40
0.500000
  0
ARC
  8
CSLAYER3
  6
CONTINUOUS
 62
     7
 10
440.136371
 20
10129.106821
 40
1.500000
 50
180.000000
 51
360.000000
  0
CIRCLE
  8
CSLAYER3
  6
CONTINUOUS
 62
     7
 10
433.636371
 20
10135.606821
 40
0.500000
  0
ARC
  8
CSLAYER3
  6
CONTINUOUS
 62
     7
 10
433.636371
 20
10135.606821
 40
1.500000
 50
90.000000
 51
270.000000
  0
CIRCLE
  8
CSLAYER3
  6
CONTINUOUS
 62
     7
 10
446.636371
 20
10135.606821
 40
0.500000
  0
ARC
  8
CSLAYER3
  6
CONTINUOUS
 62
     7
 10
446.636371
 20
10135.606821
 40
1.500000
 50
-90.000000
 51
90.000000
  0
LINE
  8
CSLAYER3
  6
CONTINUOUS
 62
     7
 10
433.636371
 20
10137.106821
 11
437.636371
 21
10137.106821
  0
LINE
  8
CSLAYER3
  6
CONTINUOUS
 62
     7
 10
446.636371
 20
10134.106821
 11
442.636371
 21
10134.106821
  0
ARC
  8
CSLAYER3
  6
CONTINUOUS
 62
     7
 10
437.636371
 20
10138.106821
 40
1.000000
 50
270.000000
 51
360.000000
  0
ARC
  8
CSLAYER3
  6
CONTINUOUS
 62
     7
 10
437.636371
 20
10133.106821
 40
1.000000
 50
0.000000
 51
90.000000
  0
ARC
  8
CSLAYER3
  6
CONTINUOUS
 62
     7
 10
442.636371
 20
10133.106821
 40
1.000000
 50
90.000000
 51
180.000000
  0
ARC
  8
CSLAYER3
  6
CONTINUOUS
 62
     7
 10
442.636371
 20
10138.106821
 40
1.000000
 50
180.000000
 51
270.000000
  0
LINE
  8
CSLAYER3
  6
CONTINUOUS
 62
     7
 10
442.636371
 20
10137.106821
 11
446.636371
 21
10137.106821
  0
LINE
  8
CSLAYER3
  6
CONTINUOUS
 62
     7
 10
441.636371
 20
10133.106821
 11
441.636371
 21
10129.906821
  0
LINE
  8
CSLAYER3
  6
CONTINUOUS
 62
     7
 10
437.636371
 20
10134.106821
 11
433.636371
 21
10134.106821
  0
LINE
  8
CSLAYER3
  6
CONTINUOUS
 62
     7
 10
438.636371
 20
10133.106821
 11
438.636371
 21
10129.906821
  0
LINE
  8
CSLAYER3
  6
CONTINUOUS
 62
     7
 10
423.136371
 20
10130.606821
 11
423.136371
 21
10140.606821
  0
LINE
  8
CSLAYER3
  6
CONTINUOUS
 62
     7
 10
418.636371
 20
10140.606821
 11
450.636371
 21
10140.606821
  0
LINE
  8
CSLAYER3
  6
CONTINUOUS
 62
     7
 10
446.136371
 20
10140.606821
 11
446.136371
 21
10130.606821
  0
LINE
  8
CSLAYER3
  6
CONTINUOUS
 62
     7
 10
450.636371
 20
10130.606821
 11
418.636371
 21
10130.606821
  0
LINE
  8
CSLAYER3
  6
CONTINUOUS
 62
     7
 10
450.636371
 20
10140.606821
 11
450.636371
 21
10130.606821
  0
LINE
  8
CSLAYER3
  6
CONTINUOUS
 62
     7
 10
418.636371
 20
10140.606821
 11
418.636371
 21
10130.606821
  0
CIRCLE
  8
CSLAYER3
  6
CONTINUOUS
 62
     7
 10
448.636371
 20
10135.606821
 40
1.000000
  0
CIRCLE
  8
CSLAYER3
  6
CONTINUOUS
 62
     7
 10
420.636371
 20
10135.606821
 40
1.000000
  0
CIRCLE
  8
CSLAYER3
  6
CONTINUOUS
 62
     7
 10
440.136371
 20
10135.606821
 40
1.500000
  0
CIRCLE
  8
CSLAYER3
  6
CONTINUOUS
 62
     7
 10
440.136371
 20
10135.606821
 40
5.811350
  0
ENDBLK
  8
0
  0
BLOCK
  8
CSLAYER1
  2
BLKF0060
 70
   64
 10
0.0
 20
0.0
 30
0.0
  0
LINE
  8
CSLAYER3
  6
CONTINUOUS
 62
     7
 10
438.636371
 20
10148.161354
 11
438.636371
 21
10155.161354
  0
LINE
  8
CSLAYER3
  6
CONTINUOUS
 62
     7
 10
441.636371
 20
10148.161354
 11
441.636371
 21
10155.161354
  0
CIRCLE
  8
CSLAYER3
  6
CONTINUOUS
 62
     7
 10
440.136371
 20
10148.161354
 40
0.500000
  0
ARC
  8
CSLAYER3
  6
CONTINUOUS
 62
     7
 10
440.136371
 20
10148.161354
 40
1.500000
 50
180.000000
 51
360.000000
  0
CIRCLE
  8
CSLAYER3
  6
CONTINUOUS
 62
     7
 10
440.136371
 20
10164.161354
 40
0.500000
  0
ARC
  8
CSLAYER3
  6
CONTINUOUS
 62
     7
 10
440.136371
 20
10164.161354
 40
1.500000
 50
0.000000
 51
180.000000
  0
CIRCLE
  8
CSLAYER3
  6
CONTINUOUS
 62
     7
 10
433.636371
 20
10157.661354
 40
0.500000
  0
ARC
  8
CSLAYER3
  6
CONTINUOUS
 62
     7
 10
433.636371
 20
10157.661354
 40
1.500000
 50
90.000000
 51
270.000000
  0
CIRCLE
  8
CSLAYER3
  6
CONTINUOUS
 62
     7
 10
446.636371
 20
10157.661354
 40
0.500000
  0
ARC
  8
CSLAYER3
  6
CONTINUOUS
 62
     7
 10
446.636371
 20
10157.661354
 40
1.500000
 50
-90.000000
 51
90.000000
  0
LINE
  8
CSLAYER3
  6
CONTINUOUS
 62
     7
 10
433.636371
 20
10156.161354
 11
437.636371
 21
10156.161354
  0
LINE
  8
CSLAYER3
  6
CONTINUOUS
 62
     7
 10
446.636371
 20
10159.161354
 11
442.636371
 21
10159.161354
  0
ARC
  8
CSLAYER3
  6
CONTINUOUS
 62
     7
 10
437.636371
 20
10155.161354
 40
1.000000
 50
0.000000
 51
90.000000
  0
ARC
  8
CSLAYER3
  6
CONTINUOUS
 62
     7
 10
437.636371
 20
10160.161354
 40
1.000000
 50
270.000000
 51
360.000000
  0
ARC
  8
CSLAYER3
  6
CONTINUOUS
 62
     7
 10
442.636371
 20
10160.161354
 40
1.000000
 50
180.000000
 51
270.000000
  0
ARC
  8
CSLAYER3
  6
CONTINUOUS
 62
     7
 10
442.636371
 20
10155.161354
 40
1.000000
 50
90.000000
 51
180.000000
  0
LINE
  8
CSLAYER3
  6
CONTINUOUS
 62
     7
 10
442.636371
 20
10156.161354
 11
446.636371
 21
10156.161354
  0
LINE
  8
CSLAYER3
  6
CONTINUOUS
 62
     7
 10
441.636371
 20
10160.161354
 11
441.636371
 21
10163.361354
  0
LINE
  8
CSLAYER3
  6
CONTINUOUS
 62
     7
 10
437.636371
 20
10159.161354
 11
433.636371
 21
10159.161354
  0
LINE
  8
CSLAYER3
  6
CONTINUOUS
 62
     7
 10
438.636371
 20
10160.161354
 11
438.636371
 21
10163.361354
  0
LINE
  8
CSLAYER3
  6
CONTINUOUS
 62
     7
 10
423.136371
 20
10162.661354
 11
423.136371
 21
10152.661354
  0
LINE
  8
CSLAYER3
  6
CONTINUOUS
 62
     7
 10
418.636371
 20
10152.661354
 11
450.636371
 21
10152.661354
  0
LINE
  8
CSLAYER3
  6
CONTINUOUS
 62
     7
 10
446.136371
 20
10152.661354
 11
446.136371
 21
10162.661354
  0
LINE
  8
CSLAYER3
  6
CONTINUOUS
 62
     7
 10
450.636371
 20
10162.661354
 11
418.636371
 21
10162.661354
  0
LINE
  8
CSLAYER3
  6
CONTINUOUS
 62
     7
 10
450.636371
 20
10152.661354
 11
450.636371
 21
10162.661354
  0
LINE
  8
CSLAYER3
  6
CONTINUOUS
 62
     7
 10
418.636371
 20
10152.661354
 11
418.636371
 21
10162.661354
  0
CIRCLE
  8
CSLAYER3
  6
CONTINUOUS
 62
     7
 10
448.636371
 20
10157.661354
 40
1.000000
  0
CIRCLE
  8
CSLAYER3
  6
CONTINUOUS
 62
     7
 10
420.636371
 20
10157.661354
 40
1.000000
  0
CIRCLE
  8
CSLAYER3
  6
CONTINUOUS
 62
     7
 10
440.136371
 20
10157.661354
 40
1.500000
  0
CIRCLE
  8
CSLAYER3
  6
CONTINUOUS
 62
     7
 10
440.136371
 20
10157.661354
 40
5.811350
  0
ENDBLK
  8
0
  0
BLOCK
  8
CSLAYER1
  2
BLKF0061
 70
   64
 10
0.0
 20
0.0
 30
0.0
  0
LINE
  8
CSLAYER3
  6
CONTINUOUS
 62
     3
 10
1167.668354
 20
9999.617236
 11
471.066893
 21
9999.617236
  0
LINE
  8
CSLAYER3
  6
CONTINUOUS
 62
     3
 10
471.066893
 20
9988.617236
 11
1167.668354
 21
9992.566442
  0
LINE
  8
CSLAYER3
  6
CONTINUOUS
 62
     3
 10
1167.668354
 20
9992.566442
 11
1167.668354
 21
9999.617236
  0
ENDBLK
  8
0
  0
BLOCK
  8
CSLAYER1
  2
BLKF0062
 70
   64
 10
0.0
 20
0.0
 30
0.0
  0
LINE
  8
CSLAYER3
  6
CONTINUOUS
 62
     3
 10
1167.678347
 20
10150.159470
 11
634.535864
 21
10151.670728
  0
LINE
  8
CSLAYER3
  6
CONTINUOUS
 62
     3
 10
1167.658360
 20
10143.108704
 11
1167.678347
 21
10150.159470
  0
LINE
  8
CSLAYER3
  6
CONTINUOUS
 62
     3
 10
634.535864
 20
10141.597527
 11
1167.658360
 21
10143.108704
  0
ENDBLK
  8
0
  0
BLOCK
  8
CSLAYER1
  2
BLKF0063
 70
   64
 10
0.0
 20
0.0
 30
0.0
  0
LINE
  8
CSLAYER3
  6
CONTINUOUS
 62
     3
 10
554.561424
 20
10295.399951
 11
534.409661
 21
10294.847355
  0
LINE
  8
CSLAYER3
  6
CONTINUOUS
 62
     3
 10
472.925114
 20
10365.329326
 11
471.984159
 21
10280.681253
  0
LINE
  8
CSLAYER3
  6
CONTINUOUS
 62
     3
 10
540.335993
 20
10344.999110
 11
472.709551
 21
10345.937271
  0
LINE
  8
CSLAYER3
  6
CONTINUOUS
 62
     3
 10
540.335993
 20
10344.999110
 11
656.134136
 21
10280.681253
  0
LINE
  8
CSLAYER3
  6
CONTINUOUS
 62
     3
 10
534.409661
 20
10294.847355
 11
523.545764
 21
10293.712060
  0
LINE
  8
CSLAYER3
  6
CONTINUOUS
 62
     3
 10
523.545764
 20
10293.712060
 11
498.075760
 21
10289.441801
  0
LINE
  8
CSLAYER3
  6
CONTINUOUS
 62
     3
 10
554.561424
 20
10295.399951
 11
563.849288
 21
10294.817251
  0
LINE
  8
CSLAYER3
  6
CONTINUOUS
 62
     3
 10
563.849288
 20
10294.817251
 11
598.596698
 21
10291.313178
  0
LINE
  8
CSLAYER3
  6
CONTINUOUS
 62
     3
 10
598.789648
 20
10292.313501
 11
656.134136
 21
10280.681253
  0
LINE
  8
CSLAYER3
  6
CONTINUOUS
 62
     3
 10
497.726761
 20
10290.398419
 11
471.984159
 21
10280.681253
  0
LINE
  8
CSLAYER3
  6
CONTINUOUS
 62
     3
 10
497.726761
 20
10290.398419
 11
498.075760
 21
10289.441801
  0
LINE
  8
CSLAYER3
  6
CONTINUOUS
 62
     3
 10
598.789648
 20
10292.313501
 11
598.596698
 21
10291.313178
  0
LINE
  8
CSLAYER3
  6
CONTINUOUS
 62
     3
 10
656.134136
 20
10280.681253
 11
655.941186
 21
10279.680930
  0
ENDBLK
  8
0
  0
BLOCK
  8
CSLAYER1
  2
BLKF0064
 70
   64
 10
0.0
 20
0.0
 30
0.0
  0
LINE
  8
CSLAYER3
  6
CONTINUOUS
 62
     3
 10
378.475467
 20
9595.601893
 11
635.641543
 21
9587.301305
  0
LINE
  8
CSLAYER3
  6
CONTINUOUS
 62
     3
 10
378.731978
 20
9603.549035
 11
381.985427
 21
9610.395641
  0
LINE
  8
CSLAYER3
  6
CONTINUOUS
 62
     3
 10
381.985427
 20
9610.395641
 11
387.990624
 21
9615.080139
  0
LINE
  8
CSLAYER3
  6
CONTINUOUS
 62
     3
 10
387.990624
 20
9615.080139
 11
400.079520
 21
9619.324356
  0
LINE
  8
CSLAYER3
  6
CONTINUOUS
 62
     3
 10
635.641543
 20
9587.301305
 11
599.297410
 21
9596.221372
  0
LINE
  8
CSLAYER3
  6
CONTINUOUS
 62
     3
 10
448.580869
 20
9625.703307
 11
437.669767
 21
9625.202412
  0
LINE
  8
CSLAYER3
  6
CONTINUOUS
 62
     3
 10
437.669767
 20
9625.202412
 11
411.996920
 21
9622.453618
  0
LINE
  8
CSLAYER3
  6
CONTINUOUS
 62
     3
 10
411.996920
 20
9622.453618
 11
400.079520
 21
9619.324356
  0
LINE
  8
CSLAYER3
  6
CONTINUOUS
 62
     3
 10
468.731184
 20
9625.112091
 11
477.970399
 21
9624.019982
  0
LINE
  8
CSLAYER3
  6
CONTINUOUS
 62
     3
 10
477.970399
 20
9624.019982
 11
512.459926
 21
9618.638221
  0
LINE
  8
CSLAYER3
  6
CONTINUOUS
 62
     3
 10
512.459926
 20
9618.638221
 11
599.297410
 21
9596.221372
  0
LINE
  8
CSLAYER3
  6
CONTINUOUS
 62
     3
 10
378.731978
 20
9603.549035
 11
378.475467
 21
9595.601893
  0
ENDBLK
  8
0
  0
BLOCK
  8
CSLAYER1
  2
BLKF0065
 70
   64
 10
0.0
 20
0.0
 30
0.0
  0
CIRCLE
  8
CSLAYER3
  6
CONTINUOUS
 62
     3
 10
457.440160
 20
9572.893059
 40
16.600000
  0
LINE
  8
CSLAYER3
  6
CONTINUOUS
 62
     3
 10
440.854641
 20
9572.199833
 11
457.440160
 21
9572.199833
  0
LINE
  8
CSLAYER3
  6
CONTINUOUS
 62
     3
 10
440.844091
 20
9572.531833
 11
457.440160
 21
9572.531833
  0
LINE
  8
CSLAYER3
  6
CONTINUOUS
 62
     3
 10
440.840186
 20
9572.863833
 11
457.440160
 21
9572.863833
  0
LINE
  8
CSLAYER3
  6
CONTINUOUS
 62
     3
 10
457.440160
 20
9573.195833
 11
474.037399
 21
9573.195833
  0
LINE
  8
CSLAYER3
  6
CONTINUOUS
 62
     3
 10
457.440160
 20
9573.527833
 11
474.028019
 21
9573.527833
  0
LINE
  8
CSLAYER3
  6
CONTINUOUS
 62
     3
 10
457.440160
 20
9573.859833
 11
474.011984
 21
9573.859833
  0
LINE
  8
CSLAYER3
  6
CONTINUOUS
 62
     3
 10
457.440160
 20
9574.191833
 11
473.989275
 21
9574.191833
  0
LINE
  8
CSLAYER3
  6
CONTINUOUS
 62
     3
 10
457.440160
 20
9574.523833
 11
473.959863
 21
9574.523833
  0
LINE
  8
CSLAYER3
  6
CONTINUOUS
 62
     3
 10
457.440160
 20
9574.855833
 11
473.923713
 21
9574.855833
  0
LINE
  8
CSLAYER3
  6
CONTINUOUS
 62
     3
 10
457.440160
 20
9575.187833
 11
473.880781
 21
9575.187833
  0
LINE
  8
CSLAYER3
  6
CONTINUOUS
 62
     3
 10
457.440160
 20
9575.519833
 11
473.831013
 21
9575.519833
  0
LINE
  8
CSLAYER3
  6
CONTINUOUS
 62
     3
 10
457.440160
 20
9575.851833
 11
473.774347
 21
9575.851833
  0
LINE
  8
CSLAYER3
  6
CONTINUOUS
 62
     3
 10
457.440160
 20
9576.183833
 11
473.710711
 21
9576.183833
  0
LINE
  8
CSLAYER3
  6
CONTINUOUS
 62
     3
 10
457.440160
 20
9576.515833
 11
473.640022
 21
9576.515833
  0
LINE
  8
CSLAYER3
  6
CONTINUOUS
 62
     3
 10
457.440160
 20
9576.847833
 11
473.562188
 21
9576.847833
  0
LINE
  8
CSLAYER3
  6
CONTINUOUS
 62
     3
 10
457.440160
 20
9577.179833
 11
473.477104
 21
9577.179833
  0
LINE
  8
CSLAYER3
  6
CONTINUOUS
 62
     3
 10
457.440160
 20
9577.511833
 11
473.384656
 21
9577.511833
  0
LINE
  8
CSLAYER3
  6
CONTINUOUS
 62
     3
 10
457.440160
 20
9577.843833
 11
473.284713
 21
9577.843833
  0
LINE
  8
CSLAYER3
  6
CONTINUOUS
 62
     3
 10
457.440160
 20
9578.175833
 11
473.177133
 21
9578.175833
  0
LINE
  8
CSLAYER3
  6
CONTINUOUS
 62
     3
 10
457.440160
 20
9578.507833
 11
473.061758
 21
9578.507833
  0
LINE
  8
CSLAYER3
  6
CONTINUOUS
 62
     3
 10
457.440160
 20
9578.839833
 11
472.938414
 21
9578.839833
  0
LINE
  8
CSLAYER3
  6
CONTINUOUS
 62
     3
 10
457.440160
 20
9579.171833
 11
472.806910
 21
9579.171833
  0
LINE
  8
CSLAYER3
  6
CONTINUOUS
 62
     3
 10
457.440160
 20
9579.503833
 11
472.667033
 21
9579.503833
  0
LINE
  8
CSLAYER3
  6
CONTINUOUS
 62
     3
 10
457.440160
 20
9579.835833
 11
472.518552
 21
9579.835833
  0
LINE
  8
CSLAYER3
  6
CONTINUOUS
 62
     3
 10
457.440160
 20
9580.167833
 11
472.361208
 21
9580.167833
  0
LINE
  8
CSLAYER3
  6
CONTINUOUS
 62
     3
 10
457.440160
 20
9580.499833
 11
472.194719
 21
9580.499833
  0
LINE
  8
CSLAYER3
  6
CONTINUOUS
 62
     3
 10
457.440160
 20
9580.831833
 11
472.018770
 21
9580.831833
  0
LINE
  8
CSLAYER3
  6
CONTINUOUS
 62
     3
 10
457.440160
 20
9581.163833
 11
471.833016
 21
9581.163833
  0
LINE
  8
CSLAYER3
  6
CONTINUOUS
 62
     3
 10
457.440160
 20
9581.495833
 11
471.637071
 21
9581.495833
  0
LINE
  8
CSLAYER3
  6
CONTINUOUS
 62
     3
 10
457.440160
 20
9581.827833
 11
471.430507
 21
9581.827833
  0
LINE
  8
CSLAYER3
  6
CONTINUOUS
 62
     3
 10
457.440160
 20
9582.159833
 11
471.212847
 21
9582.159833
  0
LINE
  8
CSLAYER3
  6
CONTINUOUS
 62
     3
 10
457.440160
 20
9582.491833
 11
470.983555
 21
9582.491833
  0
LINE
  8
CSLAYER3
  6
CONTINUOUS
 62
     3
 10
457.440160
 20
9582.823833
 11
470.742030
 21
9582.823833
  0
LINE
  8
CSLAYER3
  6
CONTINUOUS
 62
     3
 10
457.440160
 20
9583.155833
 11
470.487592
 21
9583.155833
  0
LINE
  8
CSLAYER3
  6
CONTINUOUS
 62
     3
 10
457.440160
 20
9583.487833
 11
470.219470
 21
9583.487833
  0
LINE
  8
CSLAYER3
  6
CONTINUOUS
 62
     3
 10
457.440160
 20
9583.819833
 11
469.936784
 21
9583.819833
  0
LINE
  8
CSLAYER3
  6
CONTINUOUS
 62
     3
 10
457.440160
 20
9584.151833
 11
469.638521
 21
9584.151833
  0
LINE
  8
CSLAYER3
  6
CONTINUOUS
 62
     3
 10
457.440160
 20
9584.483833
 11
469.323508
 21
9584.483833
  0
LINE
  8
CSLAYER3
  6
CONTINUOUS
 62
     3
 10
457.440160
 20
9584.815833
 11
468.990375
 21
9584.815833
  0
LINE
  8
CSLAYER3
  6
CONTINUOUS
 62
     3
 10
457.440160
 20
9585.147833
 11
468.637504
 21
9585.147833
  0
LINE
  8
CSLAYER3
  6
CONTINUOUS
 62
     3
 10
457.440160
 20
9585.479833
 11
468.262966
 21
9585.479833
  0
LINE
  8
CSLAYER3
  6
CONTINUOUS
 62
     3
 10
457.440160
 20
9585.811833
 11
467.864424
 21
9585.811833
  0
LINE
  8
CSLAYER3
  6
CONTINUOUS
 62
     3
 10
457.440160
 20
9586.143833
 11
467.439009
 21
9586.143833
  0
LINE
  8
CSLAYER3
  6
CONTINUOUS
 62
     3
 10
457.440160
 20
9586.475833
 11
466.983129
 21
9586.475833
  0
LINE
  8
CSLAYER3
  6
CONTINUOUS
 62
     3
 10
457.440160
 20
9586.807833
 11
466.492180
 21
9586.807833
  0
LINE
  8
CSLAYER3
  6
CONTINUOUS
 62
     3
 10
457.440160
 20
9587.139833
 11
465.960103
 21
9587.139833
  0
LINE
  8
CSLAYER3
  6
CONTINUOUS
 62
     3
 10
457.440160
 20
9587.471833
 11
465.378633
 21
9587.471833
  0
LINE
  8
CSLAYER3
  6
CONTINUOUS
 62
     3
 10
457.440160
 20
9587.803833
 11
464.735968
 21
9587.803833
  0
LINE
  8
CSLAYER3
  6
CONTINUOUS
 62
     3
 10
457.440160
 20
9588.135833
 11
464.014188
 21
9588.135833
  0
LINE
  8
CSLAYER3
  6
CONTINUOUS
 62
     3
 10
457.440160
 20
9588.467833
 11
463.183540
 21
9588.467833
  0
LINE
  8
CSLAYER3
  6
CONTINUOUS
 62
     3
 10
457.440160
 20
9588.799833
 11
462.187216
 21
9588.799833
  0
LINE
  8
CSLAYER3
  6
CONTINUOUS
 62
     3
 10
457.440160
 20
9589.131833
 11
460.884317
 21
9589.131833
  0
LINE
  8
CSLAYER3
  6
CONTINUOUS
 62
     3
 10
457.440160
 20
9589.463833
 11
458.424763
 21
9589.463833
  0
LINE
  8
CSLAYER3
  6
CONTINUOUS
 62
     3
 10
440.871850
 20
9571.867833
 11
457.440160
 21
9571.867833
  0
LINE
  8
CSLAYER3
  6
CONTINUOUS
 62
     3
 10
440.895737
 20
9571.535833
 11
457.440160
 21
9571.535833
  0
LINE
  8
CSLAYER3
  6
CONTINUOUS
 62
     3
 10
440.926332
 20
9571.203833
 11
457.440160
 21
9571.203833
  0
LINE
  8
CSLAYER3
  6
CONTINUOUS
 62
     3
 10
440.963673
 20
9570.871833
 11
457.440160
 21
9570.871833
  0
LINE
  8
CSLAYER3
  6
CONTINUOUS
 62
     3
 10
441.007804
 20
9570.539833
 11
457.440160
 21
9570.539833
  0
LINE
  8
CSLAYER3
  6
CONTINUOUS
 62
     3
 10
441.058782
 20
9570.207833
 11
457.440160
 21
9570.207833
  0
LINE
  8
CSLAYER3
  6
CONTINUOUS
 62
     3
 10
441.116670
 20
9569.875833
 11
457.440160
 21
9569.875833
  0
LINE
  8
CSLAYER3
  6
CONTINUOUS
 62
     3
 10
441.181542
 20
9569.543833
 11
457.440160
 21
9569.543833
  0
LINE
  8
CSLAYER3
  6
CONTINUOUS
 62
     3
 10
441.253481
 20
9569.211833
 11
457.440160
 21
9569.211833
  0
LINE
  8
CSLAYER3
  6
CONTINUOUS
 62
     3
 10
441.332584
 20
9568.879833
 11
457.440160
 21
9568.879833
  0
LINE
  8
CSLAYER3
  6
CONTINUOUS
 62
     3
 10
441.418955
 20
9568.547833
 11
457.440160
 21
9568.547833
  0
LINE
  8
CSLAYER3
  6
CONTINUOUS
 62
     3
 10
441.512714
 20
9568.215833
 11
457.440160
 21
9568.215833
  0
LINE
  8
CSLAYER3
  6
CONTINUOUS
 62
     3
 10
441.613990
 20
9567.883833
 11
457.440160
 21
9567.883833
  0
LINE
  8
CSLAYER3
  6
CONTINUOUS
 62
     3
 10
441.722931
 20
9567.551833
 11
457.440160
 21
9567.551833
  0
LINE
  8
CSLAYER3
  6
CONTINUOUS
 62
     3
 10
441.839695
 20
9567.219833
 11
457.440160
 21
9567.219833
  0
LINE
  8
CSLAYER3
  6
CONTINUOUS
 62
     3
 10
441.964461
 20
9566.887833
 11
457.440160
 21
9566.887833
  0
LINE
  8
CSLAYER3
  6
CONTINUOUS
 62
     3
 10
442.097424
 20
9566.555833
 11
457.440160
 21
9566.555833
  0
LINE
  8
CSLAYER3
  6
CONTINUOUS
 62
     3
 10
442.238798
 20
9566.223833
 11
457.440160
 21
9566.223833
  0
LINE
  8
CSLAYER3
  6
CONTINUOUS
 62
     3
 10
442.388820
 20
9565.891833
 11
457.440160
 21
9565.891833
  0
LINE
  8
CSLAYER3
  6
CONTINUOUS
 62
     3
 10
442.547753
 20
9565.559833
 11
457.440160
 21
9565.559833
  0
LINE
  8
CSLAYER3
  6
CONTINUOUS
 62
     3
 10
442.715884
 20
9565.227833
 11
457.440160
 21
9565.227833
  0
LINE
  8
CSLAYER3
  6
CONTINUOUS
 62
     3
 10
442.893533
 20
9564.895833
 11
457.440160
 21
9564.895833
  0
LINE
  8
CSLAYER3
  6
CONTINUOUS
 62
     3
 10
443.081052
 20
9564.563833
 11
457.440160
 21
9564.563833
  0
LINE
  8
CSLAYER3
  6
CONTINUOUS
 62
     3
 10
443.278834
 20
9564.231833
 11
457.440160
 21
9564.231833
  0
LINE
  8
CSLAYER3
  6
CONTINUOUS
 62
     3
 10
443.487315
 20
9563.899833
 11
457.440160
 21
9563.899833
  0
LINE
  8
CSLAYER3
  6
CONTINUOUS
 62
     3
 10
443.706983
 20
9563.567833
 11
457.440160
 21
9563.567833
  0
LINE
  8
CSLAYER3
  6
CONTINUOUS
 62
     3
 10
443.938383
 20
9563.235833
 11
457.440160
 21
9563.235833
  0
LINE
  8
CSLAYER3
  6
CONTINUOUS
 62
     3
 10
444.182130
 20
9562.903833
 11
457.440160
 21
9562.903833
  0
LINE
  8
CSLAYER3
  6
CONTINUOUS
 62
     3
 10
444.438918
 20
9562.571833
 11
457.440160
 21
9562.571833
  0
LINE
  8
CSLAYER3
  6
CONTINUOUS
 62
     3
 10
444.709537
 20
9562.239833
 11
457.440160
 21
9562.239833
  0
LINE
  8
CSLAYER3
  6
CONTINUOUS
 62
     3
 10
444.994888
 20
9561.907833
 11
457.440160
 21
9561.907833
  0
LINE
  8
CSLAYER3
  6
CONTINUOUS
 62
     3
 10
445.296010
 20
9561.575833
 11
457.440160
 21
9561.575833
  0
LINE
  8
CSLAYER3
  6
CONTINUOUS
 62
     3
 10
445.614107
 20
9561.243833
 11
457.440160
 21
9561.243833
  0
LINE
  8
CSLAYER3
  6
CONTINUOUS
 62
     3
 10
445.950590
 20
9560.911833
 11
457.440160
 21
9560.911833
  0
LINE
  8
CSLAYER3
  6
CONTINUOUS
 62
     3
 10
446.307125
 20
9560.579833
 11
457.440160
 21
9560.579833
  0
LINE
  8
CSLAYER3
  6
CONTINUOUS
 62
     3
 10
446.685707
 20
9560.247833
 11
457.440160
 21
9560.247833
  0
LINE
  8
CSLAYER3
  6
CONTINUOUS
 62
     3
 10
447.088754
 20
9559.915833
 11
457.440160
 21
9559.915833
  0
LINE
  8
CSLAYER3
  6
CONTINUOUS
 62
     3
 10
447.519248
 20
9559.583833
 11
457.440160
 21
9559.583833
  0
LINE
  8
CSLAYER3
  6
CONTINUOUS
 62
     3
 10
447.980934
 20
9559.251833
 11
457.440160
 21
9559.251833
  0
LINE
  8
CSLAYER3
  6
CONTINUOUS
 62
     3
 10
448.478634
 20
9558.919833
 11
457.440160
 21
9558.919833
  0
LINE
  8
CSLAYER3
  6
CONTINUOUS
 62
     3
 10
449.018728
 20
9558.587833
 11
457.440160
 21
9558.587833
  0
LINE
  8
CSLAYER3
  6
CONTINUOUS
 62
     3
 10
449.609987
 20
9558.255833
 11
457.440160
 21
9558.255833
  0
LINE
  8
CSLAYER3
  6
CONTINUOUS
 62
     3
 10
450.265045
 20
9557.923833
 11
457.440160
 21
9557.923833
  0
LINE
  8
CSLAYER3
  6
CONTINUOUS
 62
     3
 10
451.003353
 20
9557.591833
 11
457.440160
 21
9557.591833
  0
LINE
  8
CSLAYER3
  6
CONTINUOUS
 62
     3
 10
451.857844
 20
9557.259833
 11
457.440160
 21
9557.259833
  0
LINE
  8
CSLAYER3
  6
CONTINUOUS
 62
     3
 10
452.893561
 20
9556.927833
 11
457.440160
 21
9556.927833
  0
LINE
  8
CSLAYER3
  6
CONTINUOUS
 62
     3
 10
454.284145
 20
9556.595833
 11
457.440160
 21
9556.595833
  0
ENDBLK
  8
0
  0
BLOCK
  8
CSLAYER1
  2
BLKF0066
 70
   64
 10
0.0
 20
0.0
 30
0.0
  0
LINE
  8
CSLAYER3
  6
CENTER
 62
     7
 10
430.216153
 20
9673.036044
 11
307.252597
 21
9679.315756
  0
ENDBLK
  8
0
  0
BLOCK
  8
CSLAYER1
  2
BLKF0067
 70
   64
 10
0.0
 20
0.0
 30
0.0
  0
LINE
  8
CSLAYER3
  6
CONTINUOUS
 62
     7
 10
369.277780
 20
9695.504333
 11
381.854318
 21
9694.624896
  0
LINE
  8
CSLAYER3
  6
CONTINUOUS
 62
     7
 10
362.860318
 20
9686.580254
 11
362.232509
 21
9677.602178
  0
LINE
  8
CSLAYER3
  6
CONTINUOUS
 62
     7
 10
389.272521
 20
9691.567099
 11
387.693637
 21
9668.987997
  0
LINE
  8
CSLAYER3
  6
CONTINUOUS
 62
     7
 10
367.345526
 20
9667.871809
 11
379.922064
 21
9666.992372
  0
LINE
  8
CSLAYER3
  6
CONTINUOUS
 62
     7
 10
350.686209
 20
9684.509433
 11
362.656978
 21
9683.672355
  0
LINE
  8
CSLAYER3
  6
CONTINUOUS
 62
     7
 10
350.465081
 20
9681.347155
 11
362.435850
 21
9680.510077
  0
LINE
  8
CSLAYER3
  6
CONTINUOUS
 62
     7
 10
350.686209
 20
9684.509433
 11
350.465081
 21
9681.347155
  0
LINE
  8
CSLAYER3
  6
CONTINUOUS
 62
     7
 10
381.854318
 20
9694.624896
 11
379.922064
 21
9666.992372
  0
LINE
  8
CSLAYER3
  6
CONTINUOUS
 62
     7
 10
381.854318
 20
9694.624896
 11
379.922064
 21
9666.992372
  0
LINE
  8
CSLAYER3
  6
CONTINUOUS
 62
     7
 10
381.854318
 20
9694.624896
 11
379.922064
 21
9666.992372
  0
LINE
  8
CSLAYER3
  6
CONTINUOUS
 62
     7
 10
381.573735
 20
9694.644516
 11
379.641480
 21
9667.011992
  0
LINE
  8
CSLAYER3
  6
CONTINUOUS
 62
     7
 10
369.277780
 20
9695.504333
 11
367.345526
 21
9667.871809
  0
LINE
  8
CSLAYER3
  6
CONTINUOUS
 62
     7
 10
369.277780
 20
9695.504333
 11
365.176742
 21
9691.035490
  0
LINE
  8
CSLAYER3
  6
CONTINUOUS
 62
     7
 10
365.176742
 20
9691.035490
 11
363.906341
 21
9672.867916
  0
LINE
  8
CSLAYER3
  6
CONTINUOUS
 62
     7
 10
364.541542
 20
9681.951703
 11
362.546414
 21
9682.091216
  0
LINE
  8
CSLAYER3
  6
CONTINUOUS
 62
     7
 10
364.855446
 20
9686.440741
 11
362.860318
 21
9686.580254
  0
LINE
  8
CSLAYER3
  6
CONTINUOUS
 62
     7
 10
367.345526
 20
9667.871809
 11
369.277780
 21
9695.504333
  0
LINE
  8
CSLAYER3
  6
CONTINUOUS
 62
     7
 10
367.345526
 20
9667.871809
 11
363.906341
 21
9672.867916
  0
LINE
  8
CSLAYER3
  6
CONTINUOUS
 62
     7
 10
364.227638
 20
9677.462665
 11
362.232509
 21
9677.602178
  0
LINE
  8
CSLAYER3
  6
CONTINUOUS
 62
     7
 10
381.854318
 20
9694.624896
 11
389.272521
 21
9691.567099
  0
LINE
  8
CSLAYER3
  6
CONTINUOUS
 62
     7
 10
379.922064
 20
9666.992372
 11
387.693637
 21
9668.987997
  0
ENDBLK
  8
0
  0
BLOCK
  8
CSLAYER1
  2
BLKF0068
 70
   64
 10
0.0
 20
0.0
 30
0.0
  0
LINE
  8
CSLAYER3
  6
CONTINUOUS
 62
     3
 10
335.154054
 20
9542.253627
 11
354.845310
 21
9823.851708
  0
LINE
  8
CSLAYER3
  6
CONTINUOUS
 62
     3
 10
356.700041
 20
9736.652773
 11
337.905290
 21
9737.967030
  0
LINE
  8
CSLAYER3
  6
CONTINUOUS
 62
     3
 10
354.845310
 20
9823.851708
 11
337.905290
 21
9737.967030
  0
LINE
  8
CSLAYER3
  6
CONTINUOUS
 62
     3
 10
349.126481
 20
9628.345819
 11
330.331730
 21
9629.660076
  0
LINE
  8
CSLAYER3
  6
CONTINUOUS
 62
     3
 10
337.905290
 20
9737.967030
 11
349.126481
 21
9628.345819
  0
LINE
  8
CSLAYER3
  6
CONTINUOUS
 62
     3
 10
349.126481
 20
9628.345819
 11
335.154054
 21
9542.253627
  0
LINE
  8
CSLAYER3
  6
CONTINUOUS
 62
     3
 10
335.154054
 20
9542.253627
 11
330.331730
 21
9629.660076
  0
LINE
  8
CSLAYER3
  6
CONTINUOUS
 62
     3
 10
330.331730
 20
9629.660076
 11
356.700041
 21
9736.652773
  0
LINE
  8
CSLAYER3
  6
CONTINUOUS
 62
     3
 10
356.700041
 20
9736.652773
 11
354.845310
 21
9823.851708
  0
ENDBLK
  8
0
  0
BLOCK
  8
CSLAYER1
  2
BLKF0069
 70
   64
 10
0.0
 20
0.0
 30
0.0
  0
LINE
  8
CSLAYER3
  6
CONTINUOUS
 62
     3
 10
468.870697
 20
9626.025954
 11
448.720382
 21
9626.628994
  0
LINE
  8
CSLAYER3
  6
CONTINUOUS
 62
     3
 10
390.049181
 20
9681.170477
 11
385.585710
 21
9616.063247
  0
LINE
  8
CSLAYER3
  6
CONTINUOUS
 62
     3
 10
457.510750
 20
9676.358757
 11
390.049181
 21
9681.170477
  0
LINE
  8
CSLAYER3
  6
CONTINUOUS
 62
     3
 10
457.510750
 20
9676.358757
 11
569.433112
 21
9605.511165
  0
LINE
  8
CSLAYER3
  6
CONTINUOUS
 62
     3
 10
448.720382
 20
9626.628994
 11
437.809280
 21
9626.118082
  0
LINE
  8
CSLAYER3
  6
CONTINUOUS
 62
     3
 10
437.809280
 20
9626.118082
 11
412.136433
 21
9623.314311
  0
LINE
  8
CSLAYER3
  6
CONTINUOUS
 62
     3
 10
468.870697
 20
9626.025954
 11
478.109912
 21
9624.912002
  0
LINE
  8
CSLAYER3
  6
CONTINUOUS
 62
     3
 10
478.109912
 20
9624.912002
 11
512.599439
 21
9619.422606
  0
LINE
  8
CSLAYER3
  6
CONTINUOUS
 62
     3
 10
512.849392
 20
9620.410229
 11
569.433112
 21
9605.511165
  0
LINE
  8
CSLAYER3
  6
CONTINUOUS
 62
     3
 10
411.842823
 20
9624.289355
 11
385.585710
 21
9616.063247
  0
LINE
  8
CSLAYER3
  6
CONTINUOUS
 62
     3
 10
411.842823
 20
9624.289355
 11
412.136433
 21
9623.314311
  0
LINE
  8
CSLAYER3
  6
CONTINUOUS
 62
     3
 10
512.849392
 20
9620.410229
 11
512.599439
 21
9619.422606
  0
LINE
  8
CSLAYER3
  6
CONTINUOUS
 62
     3
 10
569.433112
 20
9605.511165
 11
569.183159
 21
9604.523542
  0
ENDBLK
  8
0
  0
BLOCK
  8
CSLAYER1
  2
BLKF0070
 70
   64
 10
0.0
 20
0.0
 30
0.0
  0
LINE
  8
CSLAYER3
  6
CONTINUOUS
 62
     3
 10
1066.784548
 20
9561.738518
 11
1061.170078
 21
9562.570229
  0
LINE
  8
CSLAYER3
  6
CONTINUOUS
 62
     3
 10
1061.170078
 20
9562.570229
 11
1058.199742
 21
9563.158355
  0
LINE
  8
CSLAYER3
  6
CONTINUOUS
 62
     3
 10
1058.199742
 20
9563.158355
 11
1054.765291
 21
9564.013812
  0
LINE
  8
CSLAYER3
  6
CONTINUOUS
 62
     3
 10
1054.765291
 20
9564.013812
 11
1052.259070
 21
9564.869269
  0
LINE
  8
CSLAYER3
  6
CONTINUOUS
 62
     3
 10
1052.259070
 20
9564.869269
 11
1050.773902
 21
9565.778192
  0
LINE
  8
CSLAYER3
  6
CONTINUOUS
 62
     3
 10
1050.773902
 20
9565.778192
 11
1050.124141
 21
9566.526717
  0
LINE
  8
CSLAYER3
  6
CONTINUOUS
 62
     3
 10
1050.124141
 20
9566.526717
 11
1049.939322
 21
9567.455172
  0
LINE
  8
CSLAYER3
  6
CONTINUOUS
 62
     3
 10
1066.784548
 20
9561.738518
 11
1073.866178
 21
9560.827482
  0
LINE
  8
CSLAYER3
  6
CONTINUOUS
 62
     3
 10
1073.866178
 20
9560.827482
 11
1080.782125
 21
9560.145137
  0
LINE
  8
CSLAYER3
  6
CONTINUOUS
 62
     3
 10
1080.782125
 20
9560.145137
 11
1085.566417
 21
9559.815357
  0
LINE
  8
CSLAYER3
  6
CONTINUOUS
 62
     3
 10
1085.566417
 20
9559.815357
 11
1101.072053
 21
9559.011320
  0
LINE
  8
CSLAYER3
  6
CONTINUOUS
 62
     3
 10
1101.072053
 20
9559.011320
 11
1113.691137
 21
9558.783170
  0
LINE
  8
CSLAYER3
  6
CONTINUOUS
 62
     3
 10
1113.691137
 20
9558.783170
 11
1129.691107
 21
9558.814071
  0
LINE
  8
CSLAYER3
  6
CONTINUOUS
 62
     3
 10
1129.691107
 20
9558.814071
 11
1139.682762
 21
9559.097834
  0
LINE
  8
CSLAYER3
  6
CONTINUOUS
 62
     3
 10
1139.682762
 20
9559.097834
 11
1158.026517
 21
9559.847285
  0
LINE
  8
CSLAYER3
  6
CONTINUOUS
 62
     3
 10
1158.026517
 20
9559.847285
 11
1171.702681
 21
9560.625217
  0
LINE
  8
CSLAYER3
  6
CONTINUOUS
 62
     3
 10
1176.423202
 20
9560.922082
 11
1254.702681
 21
9566.296486
  0
LINE
  8
CSLAYER3
  6
CONTINUOUS
 62
     3
 10
1254.702681
 20
9566.296486
 11
1259.702681
 21
9566.296486
  0
LINE
  8
CSLAYER3
  6
CONTINUOUS
 62
     3
 10
1066.784548
 20
9573.174246
 11
1073.866178
 21
9574.085282
  0
LINE
  8
CSLAYER3
  6
CONTINUOUS
 62
     3
 10
1073.866178
 20
9574.085282
 11
1080.782125
 21
9574.767627
  0
LINE
  8
CSLAYER3
  6
CONTINUOUS
 62
     3
 10
1080.782125
 20
9574.767627
 11
1085.566417
 21
9575.097407
  0
LINE
  8
CSLAYER3
  6
CONTINUOUS
 62
     3
 10
1085.566417
 20
9575.097407
 11
1101.072053
 21
9575.901444
  0
LINE
  8
CSLAYER3
  6
CONTINUOUS
 62
     3
 10
1101.072053
 20
9575.901444
 11
1113.691137
 21
9576.129594
  0
LINE
  8
CSLAYER3
  6
CONTINUOUS
 62
     3
 10
1113.691137
 20
9576.129594
 11
1129.691107
 21
9576.133980
  0
LINE
  8
CSLAYER3
  6
CONTINUOUS
 62
     3
 10
1129.691107
 20
9576.133980
 11
1139.682762
 21
9575.850217
  0
LINE
  8
CSLAYER3
  6
CONTINUOUS
 62
     3
 10
1139.682762
 20
9575.850217
 11
1158.026517
 21
9575.100766
  0
LINE
  8
CSLAYER3
  6
CONTINUOUS
 62
     3
 10
1158.026517
 20
9575.100766
 11
1174.015340
 21
9574.191284
  0
LINE
  8
CSLAYER3
  6
CONTINUOUS
 62
     3
 10
1174.015340
 20
9574.191284
 11
1254.702681
 21
9568.651565
  0
LINE
  8
CSLAYER3
  6
CONTINUOUS
 62
     3
 10
1254.702681
 20
9568.651565
 11
1259.237701
 21
9568.651565
  0
LINE
  8
CSLAYER3
  6
CONTINUOUS
 62
     3
 10
1066.779369
 20
9573.176887
 11
1061.165652
 21
9572.343489
  0
LINE
  8
CSLAYER3
  6
CONTINUOUS
 62
     3
 10
1061.165652
 20
9572.343489
 11
1058.195849
 21
9571.754470
  0
LINE
  8
CSLAYER3
  6
CONTINUOUS
 62
     3
 10
1058.195849
 20
9571.754470
 11
1054.762173
 21
9570.897981
  0
LINE
  8
CSLAYER3
  6
CONTINUOUS
 62
     3
 10
1054.762173
 20
9570.897981
 11
1052.256727
 21
9570.041772
  0
LINE
  8
CSLAYER3
  6
CONTINUOUS
 62
     3
 10
1052.256727
 20
9570.041772
 11
1050.772383
 21
9569.132403
  0
LINE
  8
CSLAYER3
  6
CONTINUOUS
 62
     3
 10
1050.772383
 20
9569.132403
 11
1050.123300
 21
9568.383683
  0
LINE
  8
CSLAYER3
  6
CONTINUOUS
 62
     3
 10
1050.123300
 20
9568.383683
 11
1049.939322
 21
9567.455172
  0
LINE
  8
CSLAYER3
  6
CONTINUOUS
 62
     3
 10
1171.702681
 20
9560.625217
 11
1171.702681
 21
9571.420139
  0
LINE
  8
CSLAYER3
  6
CONTINUOUS
 62
     3
 10
1171.702681
 20
9571.420139
 11
1176.423202
 21
9560.922082
  0
ENDBLK
  8
0
  0
BLOCK
  8
CSLAYER1
  2
BLKF0071
 70
   64
 10
0.0
 20
0.0
 30
0.0
  0
LINE
  8
CSLAYER3
  6
CONTINUOUS
 62
     7
 10
412.074652
 20
9540.080163
 11
439.374652
 21
9540.080163
  0
LINE
  8
CSLAYER3
  6
CONTINUOUS
 62
     7
 10
412.319898
 20
9568.680163
 11
427.429406
 21
9568.680163
  0
LINE
  8
CSLAYER3
  6
CONTINUOUS
 62
     7
 10
406.224652
 20
9559.580163
 11
412.074652
 21
9559.580163
  0
LINE
  8
CSLAYER3
  6
CONTINUOUS
 62
     7
 10
406.224652
 20
9558.930163
 11
445.224652
 21
9558.930163
  0
LINE
  8
CSLAYER3
  6
CONTINUOUS
 62
     7
 10
406.224652
 20
9559.580163
 11
406.224652
 21
9558.930163
  0
LINE
  8
CSLAYER3
  6
CONTINUOUS
 62
     7
 10
445.224652
 20
9559.580163
 11
445.224652
 21
9558.930163
  0
LINE
  8
CSLAYER3
  6
CONTINUOUS
 62
     7
 10
439.374652
 20
9558.930163
 11
439.374652
 21
9540.080163
  0
LINE
  8
CSLAYER3
  6
CONTINUOUS
 62
     7
 10
412.074652
 20
9558.930163
 11
412.074652
 21
9540.080163
  0
LINE
  8
CSLAYER3
  6
CONTINUOUS
 62
     7
 10
412.074652
 20
9564.130163
 11
417.792086
 21
9564.130163
  0
LINE
  8
CSLAYER3
  6
CONTINUOUS
 62
     7
 10
427.429406
 20
9568.680163
 11
427.429406
 21
9564.130163
  0
LINE
  8
CSLAYER3
  6
CONTINUOUS
 62
     7
 10
412.319898
 20
9568.680163
 11
412.319898
 21
9564.130163
  0
LINE
  8
CSLAYER3
  6
CONTINUOUS
 62
     7
 10
439.374652
 20
9559.580163
 11
439.374652
 21
9561.530163
  0
LINE
  8
CSLAYER3
  6
CONTINUOUS
 62
     7
 10
436.774652
 20
9564.130163
 11
439.374652
 21
9561.530163
  0
LINE
  8
CSLAYER3
  6
CONTINUOUS
 62
     7
 10
421.657620
 20
9564.130163
 11
436.774652
 21
9564.130163
  0
LINE
  8
CSLAYER3
  6
CONTINUOUS
 62
     7
 10
409.474652
 20
9573.880163
 11
430.274652
 21
9573.880163
  0
LINE
  8
CSLAYER3
  6
CONTINUOUS
 62
     7
 10
409.474652
 20
9572.580163
 11
430.274652
 21
9572.580163
  0
LINE
  8
CSLAYER3
  6
CONTINUOUS
 62
     7
 10
416.624652
 20
9572.580163
 11
416.624652
 21
9568.680163
  0
LINE
  8
CSLAYER3
  6
CONTINUOUS
 62
     7
 10
409.474652
 20
9573.880163
 11
409.474652
 21
9572.580163
  0
LINE
  8
CSLAYER3
  6
CONTINUOUS
 62
     7
 10
430.274652
 20
9573.880163
 11
430.274652
 21
9572.580163
  0
LINE
  8
CSLAYER3
  6
CONTINUOUS
 62
     7
 10
417.924652
 20
9572.580163
 11
417.924652
 21
9573.880163
  0
LINE
  8
CSLAYER3
  6
CONTINUOUS
 62
     7
 10
421.824652
 20
9573.880163
 11
421.824652
 21
9572.580163
  0
LINE
  8
CSLAYER3
  6
CONTINUOUS
 62
     7
 10
412.074652
 20
9559.580163
 11
412.074652
 21
9564.130163
  0
LINE
  8
CSLAYER3
  6
CONTINUOUS
 62
     7
 10
412.074652
 20
9559.580163
 11
445.224652
 21
9559.580163
  0
ENDBLK
  8
0
  0
BLOCK
  8
CSLAYER1
  2
BLKF0072
 70
   64
 10
0.0
 20
0.0
 30
0.0
  0
LINE
  8
CSLAYER3
  6
CONTINUOUS
 62
     3
 10
1010.111145
 20
8779.602170
 11
345.983641
 21
8779.602170
  0
LINE
  8
CSLAYER3
  6
CONTINUOUS
 62
     3
 10
345.983641
 20
8779.602170
 11
29.031651
 21
8878.823118
  0
LINE
  8
CSLAYER3
  6
CONTINUOUS
 62
     3
 10
1004.590032
 20
8812.802170
 11
351.058792
 21
8812.802170
  0
LINE
  8
CSLAYER3
  6
CONTINUOUS
 62
     3
 10
351.058792
 20
8812.802170
 11
38.950176
 21
8910.506913
  0
LINE
  8
CSLAYER3
  6
CONTINUOUS
 62
     3
 10
38.950176
 20
8910.506913
 11
26.552020
 21
8870.902170
  0
LINE
  8
CSLAYER3
  6
CONTINUOUS
 62
     3
 10
1011.491424
 20
8771.302170
 11
714.047393
 21
8771.302170
  0
LINE
  8
CSLAYER3
  6
CONTINUOUS
 62
     3
 10
344.714853
 20
8771.302170
 11
26.552020
 21
8870.902170
  0
LINE
  8
CSLAYER3
  6
CONTINUOUS
 62
     3
 10
711.303138
 20
8621.902170
 11
644.903138
 21
8621.902170
  0
LINE
  8
CSLAYER3
  6
CONTINUOUS
 62
     3
 10
642.047393
 20
8771.302170
 11
344.714853
 21
8771.302170
  0
LINE
  8
CSLAYER3
  6
CONTINUOUS
 62
     3
 10
711.303138
 20
8713.202170
 11
644.903138
 21
8713.202170
  0
LINE
  8
CSLAYER3
  6
CONTINUOUS
 62
     3
 10
344.714853
 20
8771.302170
 11
351.058792
 21
8812.802170
  0
LINE
  8
CSLAYER3
  6
CONTINUOUS
 62
     3
 10
1010.222636
 20
8779.602170
 11
1327.174626
 21
8878.823118
  0
LINE
  8
CSLAYER3
  6
CONTINUOUS
 62
     3
 10
1005.147485
 20
8812.802170
 11
1317.256101
 21
8910.506913
  0
LINE
  8
CSLAYER3
  6
CONTINUOUS
 62
     3
 10
1317.256101
 20
8910.506913
 11
1329.654257
 21
8870.902170
  0
LINE
  8
CSLAYER3
  6
CONTINUOUS
 62
     3
 10
1011.491424
 20
8771.302170
 11
1329.654257
 21
8870.902170
  0
LINE
  8
CSLAYER3
  6
CONTINUOUS
 62
     3
 10
1011.491424
 20
8771.302170
 11
1005.147485
 21
8812.802170
  0
ENDBLK
  8
0
  0
ENDSEC
  0
SECTION
  2
ENTITIES
  0
INSERT
  8
CSLAYER1
  2
BLKF0000
 10
0.0
 20
0.0
 30
0.0
  0
LINE
  8
CSLAYER3
  6
CONTINUOUS
 62
     3
 10
4141.397425
 20
7644.335391
 11
4141.326070
 21
7641.952563
  0
LINE
  8
CSLAYER3
  6
CONTINUOUS
 62
     3
 10
4133.785245
 20
7637.763667
 11
3883.891106
 21
7637.763667
  0
LINE
  8
CSLAYER3
  6
CONTINUOUS
 62
     3
 10
4140.635547
 20
7647.401298
 11
4138.992538
 21
7651.167735
  0
LINE
  8
CSLAYER3
  6
CONTINUOUS
 62
     3
 10
4136.747912
 20
7653.918155
 11
4133.492197
 21
7656.631251
  0
LINE
  8
CSLAYER3
  6
CONTINUOUS
 62
     3
 10
4130.306331
 20
7658.271785
 11
4120.727549
 21
7661.986007
  0
LINE
  8
CSLAYER3
  6
CONTINUOUS
 62
     3
 10
4066.546726
 20
7670.357609
 11
4083.738610
 21
7669.420758
  0
LINE
  8
CSLAYER3
  6
CONTINUOUS
 62
     3
 10
4083.738610
 20
7669.420758
 11
4104.903244
 21
7666.112860
  0
LINE
  8
CSLAYER3
  6
CONTINUOUS
 62
     3
 10
4111.363297
 20
7664.770718
 11
4120.727549
 21
7661.986007
  0
LINE
  8
CSLAYER3
  6
CONTINUOUS
 62
     3
 10
4057.238134
 20
7670.303423
 11
4043.616778
 21
7669.137435
  0
LINE
  8
CSLAYER3
  6
CONTINUOUS
 62
     3
 10
4043.616778
 20
7669.137435
 11
4018.502326
 21
7666.044764
  0
LINE
  8
CSLAYER3
  6
CONTINUOUS
 62
     3
 10
3996.618061
 20
7662.292750
 11
3885.707843
 21
7639.341362
  0
LINE
  8
CSLAYER3
  6
CONTINUOUS
 62
     3
 10
3996.618061
 20
7662.292750
 11
4018.502326
 21
7666.044764
  0
LINE
  8
CSLAYER3
  6
CONTINUOUS
 62
     3
 10
4057.238134
 20
7670.303423
 11
4066.546726
 21
7670.357609
  0
LINE
  8
CSLAYER3
  6
CONTINUOUS
 62
     3
 10
4104.903244
 20
7666.112860
 11
4111.363297
 21
7664.770718
  0
LINE
  8
CSLAYER3
  6
CONTINUOUS
 62
     3
 10
4130.306331
 20
7658.271785
 11
4133.492197
 21
7656.631251
  0
LINE
  8
CSLAYER3
  6
CONTINUOUS
 62
     3
 10
4136.747912
 20
7653.918155
 11
4138.992538
 21
7651.167735
  0
LINE
  8
CSLAYER3
  6
CONTINUOUS
 62
     3
 10
4140.635547
 20
7647.401298
 11
4141.397425
 21
7644.335391
  0
LINE
  8
CSLAYER3
  6
CONTINUOUS
 62
     3
 10
4140.337840
 20
7639.722417
 11
4137.791934
 21
7638.243088
  0
LINE
  8
CSLAYER3
  6
CONTINUOUS
 62
     3
 10
4141.326070
 20
7641.952563
 11
4140.337840
 21
7639.722417
  0
LINE
  8
CSLAYER3
  6
CONTINUOUS
 62
     3
 10
4133.785245
 20
7637.763667
 11
4137.791934
 21
7638.243088
  0
LINE
  8
CSLAYER3
  6
CONTINUOUS
 62
     3
 10
3885.707843
 20
7639.341362
 11
3883.134164
 21
7639.341362
  0
TEXT
  8
CSLAYER3
 62
     3
 10
4143.721069
 20
8132.490906
 40
197.965576
 41
0.525000
  1
でかナイトメア
 50
90.000000
 51
0.000000
  7
FX_FONT
 72
     5
 11
4143.721069
 21
8825.370422
  0
LINE
  8
CSLAYER3
  6
CONTINUOUS
 62
     7
 10
1905.557749
 20
8939.950964
 11
1905.557749
 21
9287.586260
  0
LINE
  8
CSLAYER3
  6
CONTINUOUS
 62
     3
 10
1913.857749
 20
8274.554672
 11
1913.857749
 21
8938.682177
  0
LINE
  8
CSLAYER3
  6
CONTINUOUS
 62
     3
 10
1913.857749
 20
8938.682177
 11
2013.078698
 21
9255.634167
  0
LINE
  8
CSLAYER3
  6
CONTINUOUS
 62
     3
 10
1947.057749
 20
8280.075785
 11
1947.057749
 21
8933.607026
  0
LINE
  8
CSLAYER3
  6
CONTINUOUS
 62
     3
 10
1947.057749
 20
8933.607026
 11
2044.762493
 21
9245.715642
  0
LINE
  8
CSLAYER3
  6
CONTINUOUS
 62
     3
 10
2044.762493
 20
9245.715642
 11
2005.157749
 21
9258.113798
  0
LINE
  8
CSLAYER3
  6
CONTINUOUS
 62
     3
 10
1905.557749
 20
8273.174394
 11
1905.557749
 21
8573.362679
  0
LINE
  8
CSLAYER3
  6
CONTINUOUS
 62
     3
 10
1905.557749
 20
8939.950964
 11
2005.157749
 21
9258.113798
  0
LINE
  8
CSLAYER3
  6
CONTINUOUS
 62
     3
 10
1756.157749
 20
8573.362679
 11
1756.157749
 21
8639.762679
  0
LINE
  8
CSLAYER3
  6
CONTINUOUS
 62
     3
 10
1913.857749
 20
8639.762679
 11
1756.157749
 21
8639.762679
  0
LINE
  8
CSLAYER3
  6
CONTINUOUS
 62
     3
 10
1913.857749
 20
8573.362679
 11
1756.157749
 21
8573.362679
  0
LINE
  8
CSLAYER3
  6
CONTINUOUS
 62
     3
 10
1905.557749
 20
8639.762679
 11
1905.557749
 21
8939.950964
  0
LINE
  8
CSLAYER3
  6
CONTINUOUS
 62
     3
 10
1847.457749
 20
8573.362679
 11
1847.457749
 21
8639.762679
  0
DIMENSION
  8
CSLAYER3
 62
     7
  2
*D0000
 10
2005.157749
 20
9331.342037
 11
1975.278320
 21
9336.322266
 13
1905.557749
 23
9287.586260
 14
2005.157749
 24
9258.113798
  0
LINE
  8
CSLAYER3
  6
CONTINUOUS
 62
     3
 10
1905.557749
 20
8939.950964
 11
1947.057749
 21
8933.607026
  0
LINE
  8
CSLAYER3
  6
CONTINUOUS
 62
     3
 10
1913.857749
 20
8274.443182
 11
2013.078698
 21
7957.491192
  0
LINE
  8
CSLAYER3
  6
CONTINUOUS
 62
     3
 10
1947.057749
 20
8279.518332
 11
2044.762493
 21
7967.409717
  0
LINE
  8
CSLAYER3
  6
CONTINUOUS
 62
     3
 10
2044.762493
 20
7967.409717
 11
2005.157749
 21
7955.011561
  0
LINE
  8
CSLAYER3
  6
CONTINUOUS
 62
     3
 10
1905.557749
 20
8273.174394
 11
2005.157749
 21
7955.011561
  0
LINE
  8
CSLAYER3
  6
CONTINUOUS
 62
     3
 10
1905.557749
 20
8273.174394
 11
1947.057749
 21
8279.518332
  0
LINE
  8
CSLAYER3
  6
CONTINUOUS
 62
     3
 10
2924.813312
 20
7725.202931
 11
2904.662996
 21
7725.794147
  0
INSERT
  8
CSLAYER1
  2
BLKF0001
 10
0.0
 20
0.0
 30
0.0
  0
INSERT
  8
CSLAYER1
  2
BLKF0002
 10
0.0
 20
0.0
 30
0.0
  0
LINE
  8
CSLAYER3
  6
CONTINUOUS
 62
     3
 10
2834.423670
 20
9249.844907
 11
2834.423670
 21
7961.849348
  0
LINE
  8
CSLAYER3
  6
CONTINUOUS
 62
     3
 10
3091.723670
 20
9252.491528
 11
3091.723670
 21
7960.633830
  0
INSERT
  8
CSLAYER1
  2
BLKF0003
 10
0.0
 20
0.0
 30
0.0
  0
LINE
  8
CSLAYER3
  6
CONTINUOUS
 62
     3
 10
2834.423670
 20
8570.362679
 11
2560.675789
 21
8570.362679
  0
LINE
  8
CSLAYER3
  6
CONTINUOUS
 62
     3
 10
2834.423670
 20
8642.762679
 11
2560.675789
 21
8642.762679
  0
LINE
  8
CSLAYER3
  6
CONTINUOUS
 62
     3
 10
2834.423670
 20
8274.562679
 11
3091.723670
 21
8274.562679
  0
LINE
  8
CSLAYER3
  6
CONTINUOUS
 62
     3
 10
2834.423670
 20
8938.562679
 11
3091.723670
 21
8938.562679
  0
INSERT
  8
CSLAYER1
  2
BLKF0004
 10
0.0
 20
0.0
 30
0.0
  0
INSERT
  8
CSLAYER1
  2
BLKF0005
 10
0.0
 20
0.0
 30
0.0
  0
LINE
  8
CSLAYER3
  6
CONTINUOUS
 62
     3
 10
3091.723670
 20
8610.712679
 11
3627.903670
 21
8610.712679
  0
LINE
  8
CSLAYER3
  6
CONTINUOUS
 62
     3
 10
3091.723670
 20
8602.412679
 11
3627.903670
 21
8602.412679
  0
LINE
  8
CSLAYER3
  6
CONTINUOUS
 62
     3
 10
3506.723670
 20
8415.296084
 11
3506.723670
 21
8797.829275
  0
LINE
  8
CSLAYER3
  6
CONTINUOUS
 62
     3
 10
3627.903670
 20
8385.782679
 11
3627.903670
 21
8827.342679
  0
LINE
  8
CSLAYER3
  6
CONTINUOUS
 62
     3
 10
3702.603668
 20
8602.412679
 11
3702.603668
 21
8610.712679
  0
LINE
  8
CSLAYER3
  6
CONTINUOUS
 62
     3
 10
3627.903670
 20
8602.412679
 11
3627.903670
 21
8610.712679
  0
LINE
  8
CSLAYER3
  6
CONTINUOUS
 62
     3
 10
3627.903670
 20
8606.562679
 11
3631.800425
 21
8610.712679
  0
LINE
  8
CSLAYER3
  6
CONTINUOUS
 62
     3
 10
3631.800425
 20
8610.712679
 11
3702.603668
 21
8610.712679
  0
INSERT
  8
CSLAYER1
  2
BLKF0006
 10
0.0
 20
0.0
 30
0.0
  0
LINE
  8
CSLAYER3
  6
CONTINUOUS
 62
     3
 10
3627.903670
 20
8606.562679
 11
3631.800425
 21
8602.412679
  0
LINE
  8
CSLAYER3
  6
CONTINUOUS
 62
     3
 10
3631.800425
 20
8602.412679
 11
3702.603668
 21
8602.412679
  0
LINE
  8
CSLAYER3
  6
CONTINUOUS
 62
     3
 10
3710.903670
 20
8385.782679
 11
3710.903670
 21
8827.342679
  0
LINE
  8
CSLAYER3
  6
CONTINUOUS
 62
     3
 10
3627.903670
 20
8385.782679
 11
3710.903670
 21
8385.782679
  0
LINE
  8
CSLAYER3
  6
CONTINUOUS
 62
     3
 10
3627.903670
 20
8827.342679
 11
3710.903670
 21
8827.342679
  0
LINE
  8
CSLAYER3
  6
CONTINUOUS
 62
     3
 10
3627.903670
 20
8827.342679
 11
3506.723670
 21
8797.829275
  0
LINE
  8
CSLAYER3
  6
CONTINUOUS
 62
     3
 10
3506.723670
 20
8415.296084
 11
3627.903670
 21
8385.782679
  0
LINE
  8
CSLAYER3
  6
CONTINUOUS
 62
     3
 10
2535.775789
 20
8598.262679
 11
2535.775789
 21
8614.862679
  0
ARC
  8
CSLAYER3
  6
CONTINUOUS
 62
     3
 10
2560.675789
 20
8617.862679
 40
24.900000
 50
90.000000
 51
180.000000
  0
ARC
  8
CSLAYER3
  6
CONTINUOUS
 62
     3
 10
2560.675789
 20
8595.262679
 40
24.900000
 50
180.000000
 51
270.000000
  0
LINE
  8
CSLAYER3
  6
CONTINUOUS
 62
     3
 10
3702.603668
 20
7877.481299
 11
3702.603668
 21
7707.685916
  0
LINE
  8
CSLAYER3
  6
CONTINUOUS
 62
     3
 10
3702.603668
 20
7877.481299
 11
3627.903670
 21
7877.496352
  0
INSERT
  8
CSLAYER1
  2
BLKF0007
 10
0.0
 20
0.0
 30
0.0
  0
LINE
  8
CSLAYER3
  6
CONTINUOUS
 62
     3
 10
3091.723670
 20
7687.392146
 11
3627.903670
 21
7687.392146
  0
LINE
  8
CSLAYER3
  6
CONTINUOUS
 62
     3
 10
3087.942395
 20
7679.092146
 11
3627.903670
 21
7679.092146
  0
INSERT
  8
CSLAYER1
  2
BLKF0008
 10
0.0
 20
0.0
 30
0.0
  0
INSERT
  8
CSLAYER1
  2
BLKF0009
 10
0.0
 20
0.0
 30
0.0
  0
LINE
  8
CSLAYER3
  6
CONTINUOUS
 62
     3
 10
2616.823001
 20
7537.992146
 11
3025.323670
 21
7537.992146
  0
LINE
  8
CSLAYER3
  6
CONTINUOUS
 62
     3
 10
2535.775789
 20
7596.092146
 11
2535.775789
 21
7584.776189
  0
LINE
  8
CSLAYER3
  6
CONTINUOUS
 62
     3
 10
3065.901448
 20
7629.292146
 11
2568.975789
 21
7629.292146
  0
LINE
  8
CSLAYER3
  6
CONTINUOUS
 62
     3
 10
3025.323670
 20
7537.992146
 11
3091.723670
 21
7687.392146
  0
LINE
  8
CSLAYER3
  6
CONTINUOUS
 62
     3
 10
2809.675789
 20
7629.292146
 11
2834.557595
 21
7695.692733
  0
ARC
  8
CSLAYER3
  6
CONTINUOUS
 62
     3
 10
2568.975789
 20
7596.092146
 40
33.200000
 50
90.000000
 51
180.000000
  0
LINE
  8
CSLAYER3
  6
CONTINUOUS
 62
     3
 10
3627.903670
 20
7877.496352
 11
3627.903670
 21
7677.432146
  0
LINE
  8
CSLAYER3
  6
CONTINUOUS
 62
     3
 10
3627.903670
 20
7877.496352
 11
3521.279858
 21
7860.950273
  0
LINE
  8
CSLAYER3
  6
CONTINUOUS
 62
     3
 10
3521.279858
 20
7860.950273
 11
3481.823670
 21
7687.392146
  0
LINE
  8
CSLAYER3
  6
CONTINUOUS
 62
     3
 10
3627.903670
 20
7687.392146
 11
3702.603668
 21
7707.685916
  0
LINE
  8
CSLAYER3
  6
CONTINUOUS
 62
     3
 10
3626.407889
 20
7670.792146
 11
3695.213787
 21
7594.432146
  0
LINE
  8
CSLAYER3
  6
CONTINUOUS
 62
     3
 10
3522.239961
 20
7594.432146
 11
3695.213787
 21
7594.432146
  0
LINE
  8
CSLAYER3
  6
CONTINUOUS
 62
     3
 10
3484.842706
 20
7700.672146
 11
3627.903670
 21
7700.672146
  0
LINE
  8
CSLAYER3
  6
CONTINUOUS
 62
     3
 10
3484.842706
 20
7700.672146
 11
3484.842706
 21
7679.092146
  0
LINE
  8
CSLAYER3
  6
CONTINUOUS
 62
     3
 10
3480.738150
 20
7679.092146
 11
3522.239961
 21
7594.432146
  0
CIRCLE
  8
CSLAYER3
  6
DOT
 62
     7
 10
2776.475789
 20
7537.750429
 40
24.900000
  0
CIRCLE
  8
CSLAYER3
  6
DOT
 62
     7
 10
2776.475789
 20
7537.750429
 40
1.660000
  0
CIRCLE
  8
CSLAYER3
  6
DOT
 62
     7
 10
2776.475789
 20
7537.750429
 40
15.432268
  0
LINE
  8
CSLAYER3
  6
CONTINUOUS
 62
     3
 10
2558.909428
 20
7553.139053
 11
2596.690278
 21
7541.117874
  0
ARC
  8
CSLAYER3
  6
CONTINUOUS
 62
     3
 10
2568.975789
 20
7584.776189
 40
33.200000
 50
180.000000
 51
252.349876
  0
ARC
  8
CSLAYER3
  6
CONTINUOUS
 62
     3
 10
2616.823001
 20
7604.392146
 40
66.400000
 50
252.349876
 51
270.000000
  0
LINE
  8
CSLAYER3
  6
CONTINUOUS
 62
     3
 10
2774.213128
 20
7615.533923
 11
2669.324012
 21
7615.533923
  0
LINE
  8
CSLAYER3
  6
CONTINUOUS
 62
     3
 10
2669.324012
 20
7615.533923
 11
2669.324012
 21
7587.931525
  0
LINE
  8
CSLAYER3
  6
CONTINUOUS
 62
     3
 10
2669.324012
 20
7587.931525
 11
2774.213128
 21
7587.931525
  0
LINE
  8
CSLAYER3
  6
CONTINUOUS
 62
     3
 10
2774.213128
 20
7587.931525
 11
2774.213128
 21
7615.533923
  0
TEXT
  8
CSLAYER3
 62
     3
 10
2683.354932
 20
7588.145782
 40
26.559999
 41
0.535714
  1
バッテリー
 50
0.000000
 51
0.000000
  7
FX_FONT
 72
     5
 11
2749.754931
 21
7588.145782
  0
LINE
  8
CSLAYER3
  6
CONTINUOUS
 62
     3
 10
2910.888948
 20
7725.611476
 11
2910.888948
 21
7693.228975
  0
DIMENSION
  8
CSLAYER3
 62
     7
  2
*D0001
 10
2377.874606
 20
9252.491528
 11
2372.894531
 21
8607.854492
 13
2834.342498
 23
7963.217781
 14
2839.441099
 24
9252.491528
 50
90.000000
  0
LINE
  8
CSLAYER3
  6
CONTINUOUS
 62
     3
 10
3016.723670
 20
8274.562679
 11
3016.723670
 21
8571.562679
  0
LINE
  8
CSLAYER3
  6
CONTINUOUS
 62
     3
 10
3016.723670
 20
8641.562679
 11
3091.723670
 21
8641.562679
  0
LINE
  8
CSLAYER3
  6
CONTINUOUS
 62
     3
 10
3016.723670
 20
8571.562679
 11
3091.723670
 21
8571.562679
  0
LINE
  8
CSLAYER3
  6
CONTINUOUS
 62
     3
 10
3016.723670
 20
8641.562679
 11
3016.723670
 21
8938.562679
  0
LINE
  8
CSLAYER3
  6
CONTINUOUS
 62
     3
 10
3970.875721
 20
7656.965717
 11
3970.875721
 21
7637.763667
  0
DIMENSION
  8
CSLAYER3
 62
     7
  2
*D0002
 10
3710.903670
 20
9429.519751
 11
3123.339844
 21
9432.519531
 13
2535.775789
 23
8598.262679
 14
3710.903670
 24
8827.342679
  0
DIMENSION
  8
CSLAYER3
 62
     7
  2
*D0003
 10
2710.155351
 20
8938.562679
 11
2707.155273
 21
8606.562500
 13
2834.423670
 23
8274.562679
 14
2834.423670
 24
8938.562679
 50
90.000000
 70
1
  0
LINE
  8
CSLAYER3
  6
CONTINUOUS
 62
     3
 10
4144.300514
 20
7751.169089
 11
4144.229160
 21
7748.786261
  0
LINE
  8
CSLAYER3
  6
CONTINUOUS
 62
     3
 10
4136.688334
 20
7744.597365
 11
3886.794196
 21
7744.597365
  0
LINE
  8
CSLAYER3
  6
CONTINUOUS
 62
     3
 10
4143.538636
 20
7754.234996
 11
4141.895627
 21
7758.001433
  0
LINE
  8
CSLAYER3
  6
CONTINUOUS
 62
     3
 10
4139.651001
 20
7760.751853
 11
4136.395287
 21
7763.464949
  0
LINE
  8
CSLAYER3
  6
CONTINUOUS
 62
     3
 10
4133.209421
 20
7765.105483
 11
4123.630639
 21
7768.819705
  0
LINE
  8
CSLAYER3
  6
CONTINUOUS
 62
     3
 10
4069.449815
 20
7777.191307
 11
4086.641700
 21
7776.254456
  0
LINE
  8
CSLAYER3
  6
CONTINUOUS
 62
     3
 10
4086.641700
 20
7776.254456
 11
4107.806334
 21
7772.946558
  0
LINE
  8
CSLAYER3
  6
CONTINUOUS
 62
     3
 10
4114.266387
 20
7771.604416
 11
4123.630639
 21
7768.819705
  0
LINE
  8
CSLAYER3
  6
CONTINUOUS
 62
     3
 10
4060.141224
 20
7777.137121
 11
4046.519868
 21
7775.971133
  0
LINE
  8
CSLAYER3
  6
CONTINUOUS
 62
     3
 10
4046.519868
 20
7775.971133
 11
4021.405416
 21
7772.878462
  0
LINE
  8
CSLAYER3
  6
CONTINUOUS
 62
     3
 10
3999.521151
 20
7769.126448
 11
3888.610932
 21
7746.175060
  0
LINE
  8
CSLAYER3
  6
CONTINUOUS
 62
     3
 10
3999.521151
 20
7769.126448
 11
4021.405416
 21
7772.878462
  0
LINE
  8
CSLAYER3
  6
CONTINUOUS
 62
     3
 10
4060.141224
 20
7777.137121
 11
4069.449815
 21
7777.191307
  0
LINE
  8
CSLAYER3
  6
CONTINUOUS
 62
     3
 10
4107.806334
 20
7772.946558
 11
4114.266387
 21
7771.604416
  0
LINE
  8
CSLAYER3
  6
CONTINUOUS
 62
     3
 10
4133.209421
 20
7765.105483
 11
4136.395287
 21
7763.464949
  0
LINE
  8
CSLAYER3
  6
CONTINUOUS
 62
     3
 10
4139.651001
 20
7760.751853
 11
4141.895627
 21
7758.001433
  0
LINE
  8
CSLAYER3
  6
CONTINUOUS
 62
     3
 10
4143.538636
 20
7754.234996
 11
4144.300514
 21
7751.169089
  0
LINE
  8
CSLAYER3
  6
CONTINUOUS
 62
     3
 10
4143.240930
 20
7746.556115
 11
4140.695023
 21
7745.076787
  0
LINE
  8
CSLAYER3
  6
CONTINUOUS
 62
     3
 10
4144.229160
 20
7748.786261
 11
4143.240930
 21
7746.556115
  0
LINE
  8
CSLAYER3
  6
CONTINUOUS
 62
     3
 10
4136.688334
 20
7744.597365
 11
4140.695023
 21
7745.076787
  0
LINE
  8
CSLAYER3
  6
CONTINUOUS
 62
     3
 10
3888.610932
 20
7746.175060
 11
3886.037253
 21
7746.175060
  0
LINE
  8
CSLAYER3
  6
CONTINUOUS
 62
     3
 10
3886.037253
 20
7746.175060
 11
3886.037253
 21
7744.597365
  0
INSERT
  8
CSLAYER1
  2
BLKF0010
 10
0.0
 20
0.0
 30
0.0
  0
INSERT
  8
CSLAYER1
  2
BLKF0011
 10
0.0
 20
0.0
 30
0.0
  0
LINE
  8
CSLAYER3
  6
CONTINUOUS
 62
     3
 10
208.742239
 20
7165.704362
 11
241.274559
 21
7165.704362
  0
LINE
  8
CSLAYER3
  6
CONTINUOUS
 62
     3
 10
127.695028
 20
7223.804362
 11
127.695028
 21
7212.488406
  0
LINE
  8
CSLAYER3
  6
CONTINUOUS
 62
     3
 10
528.072067
 20
7157.718463
 11
111.525940
 21
7157.718463
  0
LINE
  8
CSLAYER3
  6
CONTINUOUS
 62
     3
 10
487.494289
 20
7066.418463
 11
553.894289
 21
7215.818463
  0
LINE
  8
CSLAYER3
  6
CONTINUOUS
 62
     3
 10
271.846409
 20
7157.718463
 11
296.728214
 21
7224.119050
  0
ARC
  8
CSLAYER3
  6
CONTINUOUS
 62
     3
 10
160.895028
 20
7223.804362
 40
33.200000
 50
90.000000
 51
180.000000
  0
LINE
  8
CSLAYER3
  6
CONTINUOUS
 62
     3
 10
150.828667
 20
7180.851270
 11
188.609516
 21
7168.830090
  0
ARC
  8
CSLAYER3
  6
CONTINUOUS
 62
     3
 10
160.895028
 20
7212.488406
 40
33.200000
 50
180.000000
 51
252.349876
  0
ARC
  8
CSLAYER3
  6
CONTINUOUS
 62
     3
 10
208.742239
 20
7232.104362
 40
66.400000
 50
252.349876
 51
270.000000
  0
LINE
  8
CSLAYER3
  6
CONTINUOUS
 62
     3
 10
296.728214
 20
7224.119050
 11
553.894289
 21
7215.818463
  0
LINE
  8
CSLAYER3
  6
CONTINUOUS
 62
     3
 10
241.274559
 20
7257.004362
 11
241.274559
 21
7165.704362
  0
LINE
  8
CSLAYER3
  6
CONTINUOUS
 62
     3
 10
241.274559
 20
7257.004362
 11
160.895028
 21
7257.004362
  0
LINE
  8
CSLAYER3
  6
CONTINUOUS
 62
     3
 10
111.525940
 20
7066.418463
 11
487.494289
 21
7066.418463
  0
LINE
  8
CSLAYER3
  6
CONTINUOUS
 62
     3
 10
1800.590414
 20
8245.745955
 11
1807.469384
 21
8290.745955
  0
LINE
  8
CSLAYER3
  6
CONTINUOUS
 62
     3
 10
1807.469384
 20
8290.745955
 11
1797.469384
 21
8290.745955
  0
LINE
  8
CSLAYER3
  6
CONTINUOUS
 62
     3
 10
1797.469384
 20
8245.745955
 11
1797.469384
 21
8290.745955
  0
LINE
  8
CSLAYER3
  6
CONTINUOUS
 62
     3
 10
1707.756209
 20
8290.745955
 11
1725.256209
 21
8290.745955
  0
LINE
  8
CSLAYER3
  6
CONTINUOUS
 62
     3
 10
1725.256209
 20
8290.745955
 11
1725.256209
 21
8280.745955
  0
LINE
  8
CSLAYER3
  6
CONTINUOUS
 62
     3
 10
1707.756209
 20
8245.745955
 11
1707.756209
 21
8290.745955
  0
LINE
  8
CSLAYER3
  6
CONTINUOUS
 62
     3
 10
1725.256209
 20
8280.745955
 11
1724.968244
 21
8280.743442
  0
LINE
  8
CSLAYER3
  6
CONTINUOUS
 62
     3
 10
1724.968244
 20
8280.743442
 11
1724.680367
 21
8280.735904
  0
LINE
  8
CSLAYER3
  6
CONTINUOUS
 62
     3
 10
1724.680367
 20
8280.735904
 11
1724.392666
 21
8280.723342
  0
LINE
  8
CSLAYER3
  6
CONTINUOUS
 62
     3
 10
1724.392666
 20
8280.723342
 11
1724.105227
 21
8280.705762
  0
LINE
  8
CSLAYER3
  6
CONTINUOUS
 62
     3
 10
1724.105227
 20
8280.705762
 11
1723.818139
 21
8280.683167
  0
LINE
  8
CSLAYER3
  6
CONTINUOUS
 62
     3
 10
1723.818139
 20
8280.683167
 11
1723.531489
 21
8280.655566
  0
LINE
  8
CSLAYER3
  6
CONTINUOUS
 62
     3
 10
1723.531489
 20
8280.655566
 11
1723.245365
 21
8280.622966
  0
LINE
  8
CSLAYER3
  6
CONTINUOUS
 62
     3
 10
1723.245365
 20
8280.622966
 11
1722.959853
 21
8280.585378
  0
LINE
  8
CSLAYER3
  6
CONTINUOUS
 62
     3
 10
1722.959853
 20
8280.585378
 11
1722.675040
 21
8280.542812
  0
LINE
  8
CSLAYER3
  6
CONTINUOUS
 62
     3
 10
1722.675040
 20
8280.542812
 11
1722.391014
 21
8280.495283
  0
LINE
  8
CSLAYER3
  6
CONTINUOUS
 62
     3
 10
1722.391014
 20
8280.495283
 11
1722.107860
 21
8280.442803
  0
LINE
  8
CSLAYER3
  6
CONTINUOUS
 62
     3
 10
1722.107860
 20
8280.442803
 11
1721.825666
 21
8280.385390
  0
LINE
  8
CSLAYER3
  6
CONTINUOUS
 62
     3
 10
1721.825666
 20
8280.385390
 11
1721.544516
 21
8280.323061
  0
LINE
  8
CSLAYER3
  6
CONTINUOUS
 62
     3
 10
1721.544516
 20
8280.323061
 11
1721.264498
 21
8280.255834
  0
LINE
  8
CSLAYER3
  6
CONTINUOUS
 62
     3
 10
1721.264498
 20
8280.255834
 11
1720.985695
 21
8280.183731
  0
LINE
  8
CSLAYER3
  6
CONTINUOUS
 62
     3
 10
1720.985695
 20
8280.183731
 11
1720.708192
 21
8280.106773
  0
LINE
  8
CSLAYER3
  6
CONTINUOUS
 62
     3
 10
1720.708192
 20
8280.106773
 11
1720.432076
 21
8280.024983
  0
LINE
  8
CSLAYER3
  6
CONTINUOUS
 62
     3
 10
1720.432076
 20
8280.024983
 11
1720.157428
 21
8279.938387
  0
LINE
  8
CSLAYER3
  6
CONTINUOUS
 62
     3
 10
1720.157428
 20
8279.938387
 11
1719.884334
 21
8279.847011
  0
LINE
  8
CSLAYER3
  6
CONTINUOUS
 62
     3
 10
1719.884334
 20
8279.847011
 11
1719.612876
 21
8279.750883
  0
LINE
  8
CSLAYER3
  6
CONTINUOUS
 62
     3
 10
1719.612876
 20
8279.750883
 11
1719.343138
 21
8279.650032
  0
LINE
  8
CSLAYER3
  6
CONTINUOUS
 62
     3
 10
1719.343138
 20
8279.650032
 11
1719.075200
 21
8279.544488
  0
LINE
  8
CSLAYER3
  6
CONTINUOUS
 62
     3
 10
1719.075200
 20
8279.544488
 11
1718.809145
 21
8279.434285
  0
LINE
  8
CSLAYER3
  6
CONTINUOUS
 62
     3
 10
1718.809145
 20
8279.434285
 11
1718.545054
 21
8279.319455
  0
LINE
  8
CSLAYER3
  6
CONTINUOUS
 62
     3
 10
1718.545054
 20
8279.319455
 11
1718.283008
 21
8279.200033
  0
LINE
  8
CSLAYER3
  6
CONTINUOUS
 62
     3
 10
1718.283008
 20
8279.200033
 11
1718.023085
 21
8279.076057
  0
LINE
  8
CSLAYER3
  6
CONTINUOUS
 62
     3
 10
1718.023085
 20
8279.076057
 11
1717.765366
 21
8278.947563
  0
LINE
  8
CSLAYER3
  6
CONTINUOUS
 62
     3
 10
1717.765366
 20
8278.947563
 11
1717.509928
 21
8278.814590
  0
LINE
  8
CSLAYER3
  6
CONTINUOUS
 62
     3
 10
1717.509928
 20
8278.814590
 11
1717.256850
 21
8278.677180
  0
LINE
  8
CSLAYER3
  6
CONTINUOUS
 62
     3
 10
1717.256850
 20
8278.677180
 11
1717.006209
 21
8278.535374
  0
LINE
  8
CSLAYER3
  6
CONTINUOUS
 62
     3
 10
1717.006209
 20
8278.535374
 11
1716.758081
 21
8278.389215
  0
LINE
  8
CSLAYER3
  6
CONTINUOUS
 62
     3
 10
1716.758081
 20
8278.389215
 11
1716.512541
 21
8278.238748
  0
LINE
  8
CSLAYER3
  6
CONTINUOUS
 62
     3
 10
1716.512541
 20
8278.238748
 11
1716.269665
 21
8278.084019
  0
LINE
  8
CSLAYER3
  6
CONTINUOUS
 62
     3
 10
1716.269665
 20
8278.084019
 11
1716.029526
 21
8277.925075
  0
LINE
  8
CSLAYER3
  6
CONTINUOUS
 62
     3
 10
1716.029526
 20
8277.925075
 11
1715.792198
 21
8277.761964
  0
LINE
  8
CSLAYER3
  6
CONTINUOUS
 62
     3
 10
1715.792198
 20
8277.761964
 11
1715.557752
 21
8277.594735
  0
LINE
  8
CSLAYER3
  6
CONTINUOUS
 62
     3
 10
1715.557752
 20
8277.594735
 11
1715.326261
 21
8277.423441
  0
LINE
  8
CSLAYER3
  6
CONTINUOUS
 62
     3
 10
1715.326261
 20
8277.423441
 11
1715.097794
 21
8277.248132
  0
LINE
  8
CSLAYER3
  6
CONTINUOUS
 62
     3
 10
1715.097794
 20
8277.248132
 11
1714.872422
 21
8277.068863
  0
LINE
  8
CSLAYER3
  6
CONTINUOUS
 62
     3
 10
1714.872422
 20
8277.068863
 11
1714.650213
 21
8276.885688
  0
LINE
  8
CSLAYER3
  6
CONTINUOUS
 62
     3
 10
1714.650213
 20
8276.885688
 11
1714.431235
 21
8276.698663
  0
LINE
  8
CSLAYER3
  6
CONTINUOUS
 62
     3
 10
1714.431235
 20
8276.698663
 11
1714.215554
 21
8276.507844
  0
LINE
  8
CSLAYER3
  6
CONTINUOUS
 62
     3
 10
1714.215554
 20
8276.507844
 11
1714.003236
 21
8276.313291
  0
LINE
  8
CSLAYER3
  6
CONTINUOUS
 62
     3
 10
1714.003236
 20
8276.313291
 11
1713.794346
 21
8276.115062
  0
LINE
  8
CSLAYER3
  6
CONTINUOUS
 62
     3
 10
1713.794346
 20
8276.115062
 11
1713.588947
 21
8275.913217
  0
LINE
  8
CSLAYER3
  6
CONTINUOUS
 62
     3
 10
1713.588947
 20
8275.913217
 11
1713.387102
 21
8275.707818
  0
LINE
  8
CSLAYER3
  6
CONTINUOUS
 62
     3
 10
1713.387102
 20
8275.707818
 11
1713.188873
 21
8275.498928
  0
LINE
  8
CSLAYER3
  6
CONTINUOUS
 62
     3
 10
1713.188873
 20
8275.498928
 11
1712.994319
 21
8275.286610
  0
LINE
  8
CSLAYER3
  6
CONTINUOUS
 62
     3
 10
1712.994319
 20
8275.286610
 11
1712.803501
 21
8275.070929
  0
LINE
  8
CSLAYER3
  6
CONTINUOUS
 62
     3
 10
1712.803501
 20
8275.070929
 11
1712.616476
 21
8274.851950
  0
LINE
  8
CSLAYER3
  6
CONTINUOUS
 62
     3
 10
1712.616476
 20
8274.851950
 11
1712.433300
 21
8274.629741
  0
LINE
  8
CSLAYER3
  6
CONTINUOUS
 62
     3
 10
1712.433300
 20
8274.629741
 11
1712.254031
 21
8274.404369
  0
LINE
  8
CSLAYER3
  6
CONTINUOUS
 62
     3
 10
1712.254031
 20
8274.404369
 11
1712.078723
 21
8274.175903
  0
LINE
  8
CSLAYER3
  6
CONTINUOUS
 62
     3
 10
1712.078723
 20
8274.175903
 11
1711.907428
 21
8273.944412
  0
LINE
  8
CSLAYER3
  6
CONTINUOUS
 62
     3
 10
1711.907428
 20
8273.944412
 11
1711.740200
 21
8273.709966
  0
LINE
  8
CSLAYER3
  6
CONTINUOUS
 62
     3
 10
1711.740200
 20
8273.709966
 11
1711.577089
 21
8273.472638
  0
LINE
  8
CSLAYER3
  6
CONTINUOUS
 62
     3
 10
1711.577089
 20
8273.472638
 11
1711.418144
 21
8273.232499
  0
LINE
  8
CSLAYER3
  6
CONTINUOUS
 62
     3
 10
1711.418144
 20
8273.232499
 11
1711.263415
 21
8272.989623
  0
LINE
  8
CSLAYER3
  6
CONTINUOUS
 62
     3
 10
1711.263415
 20
8272.989623
 11
1711.112948
 21
8272.744083
  0
LINE
  8
CSLAYER3
  6
CONTINUOUS
 62
     3
 10
1711.112948
 20
8272.744083
 11
1710.966790
 21
8272.495955
  0
LINE
  8
CSLAYER3
  6
CONTINUOUS
 62
     3
 10
1710.966790
 20
8272.495955
 11
1710.824984
 21
8272.245314
  0
LINE
  8
CSLAYER3
  6
CONTINUOUS
 62
     3
 10
1710.824984
 20
8272.245314
 11
1710.687574
 21
8271.992236
  0
LINE
  8
CSLAYER3
  6
CONTINUOUS
 62
     3
 10
1710.687574
 20
8271.992236
 11
1710.554601
 21
8271.736798
  0
LINE
  8
CSLAYER3
  6
CONTINUOUS
 62
     3
 10
1710.554601
 20
8271.736798
 11
1710.426107
 21
8271.479079
  0
LINE
  8
CSLAYER3
  6
CONTINUOUS
 62
     3
 10
1710.426107
 20
8271.479079
 11
1710.302130
 21
8271.219156
  0
LINE
  8
CSLAYER3
  6
CONTINUOUS
 62
     3
 10
1710.302130
 20
8271.219156
 11
1710.182709
 21
8270.957109
  0
LINE
  8
CSLAYER3
  6
CONTINUOUS
 62
     3
 10
1710.182709
 20
8270.957109
 11
1710.067879
 21
8270.693018
  0
LINE
  8
CSLAYER3
  6
CONTINUOUS
 62
     3
 10
1710.067879
 20
8270.693018
 11
1709.957675
 21
8270.426964
  0
LINE
  8
CSLAYER3
  6
CONTINUOUS
 62
     3
 10
1709.957675
 20
8270.426964
 11
1709.852132
 21
8270.159026
  0
LINE
  8
CSLAYER3
  6
CONTINUOUS
 62
     3
 10
1709.852132
 20
8270.159026
 11
1709.751281
 21
8269.889287
  0
LINE
  8
CSLAYER3
  6
CONTINUOUS
 62
     3
 10
1709.751281
 20
8269.889287
 11
1709.655152
 21
8269.617829
  0
LINE
  8
CSLAYER3
  6
CONTINUOUS
 62
     3
 10
1709.655152
 20
8269.617829
 11
1709.563776
 21
8269.344735
  0
LINE
  8
CSLAYER3
  6
CONTINUOUS
 62
     3
 10
1709.563776
 20
8269.344735
 11
1709.477180
 21
8269.070088
  0
LINE
  8
CSLAYER3
  6
CONTINUOUS
 62
     3
 10
1709.477180
 20
8269.070088
 11
1709.395391
 21
8268.793971
  0
LINE
  8
CSLAYER3
  6
CONTINUOUS
 62
     3
 10
1709.395391
 20
8268.793971
 11
1709.318433
 21
8268.516469
  0
LINE
  8
CSLAYER3
  6
CONTINUOUS
 62
     3
 10
1709.318433
 20
8268.516469
 11
1709.246329
 21
8268.237666
  0
LINE
  8
CSLAYER3
  6
CONTINUOUS
 62
     3
 10
1709.246329
 20
8268.237666
 11
1709.179103
 21
8267.957647
  0
LINE
  8
CSLAYER3
  6
CONTINUOUS
 62
     3
 10
1709.179103
 20
8267.957647
 11
1709.116773
 21
8267.676498
  0
LINE
  8
CSLAYER3
  6
CONTINUOUS
 62
     3
 10
1709.116773
 20
8267.676498
 11
1709.059360
 21
8267.394303
  0
LINE
  8
CSLAYER3
  6
CONTINUOUS
 62
     3
 10
1709.059360
 20
8267.394303
 11
1709.006881
 21
8267.111150
  0
LINE
  8
CSLAYER3
  6
CONTINUOUS
 62
     3
 10
1709.006881
 20
8267.111150
 11
1708.959351
 21
8266.827124
  0
LINE
  8
CSLAYER3
  6
CONTINUOUS
 62
     3
 10
1708.959351
 20
8266.827124
 11
1708.916786
 21
8266.542311
  0
LINE
  8
CSLAYER3
  6
CONTINUOUS
 62
     3
 10
1708.916786
 20
8266.542311
 11
1708.879197
 21
8266.256799
  0
LINE
  8
CSLAYER3
  6
CONTINUOUS
 62
     3
 10
1708.879197
 20
8266.256799
 11
1708.846598
 21
8265.970675
  0
LINE
  8
CSLAYER3
  6
CONTINUOUS
 62
     3
 10
1708.846598
 20
8265.970675
 11
1708.818996
 21
8265.684025
  0
LINE
  8
CSLAYER3
  6
CONTINUOUS
 62
     3
 10
1708.818996
 20
8265.684025
 11
1708.796402
 21
8265.396937
  0
LINE
  8
CSLAYER3
  6
CONTINUOUS
 62
     3
 10
1708.796402
 20
8265.396937
 11
1708.778821
 21
8265.109498
  0
LINE
  8
CSLAYER3
  6
CONTINUOUS
 62
     3
 10
1708.778821
 20
8265.109498
 11
1708.766260
 21
8264.821797
  0
LINE
  8
CSLAYER3
  6
CONTINUOUS
 62
     3
 10
1708.766260
 20
8264.821797
 11
1708.758722
 21
8264.533920
  0
LINE
  8
CSLAYER3
  6
CONTINUOUS
 62
     3
 10
1708.758722
 20
8264.533920
 11
1708.756209
 21
8264.245955
  0
LINE
  8
CSLAYER3
  6
CONTINUOUS
 62
     3
 10
1708.756209
 20
8264.245955
 11
1708.758722
 21
8263.957990
  0
LINE
  8
CSLAYER3
  6
CONTINUOUS
 62
     3
 10
1708.756209
 20
8264.245955
 11
1708.756209
 21
8245.745955
  0
LINE
  8
CSLAYER3
  6
CONTINUOUS
 62
     3
 10
1551.814635
 20
8244.962761
 11
1611.814635
 21
8244.962761
  0
LINE
  8
CSLAYER3
  6
CONTINUOUS
 62
     3
 10
1611.814635
 20
8244.962761
 11
1611.814635
 21
8304.962761
  0
LINE
  8
CSLAYER3
  6
CONTINUOUS
 62
     3
 10
1611.814635
 20
8304.962761
 11
1611.805497
 21
8303.915616
  0
LINE
  8
CSLAYER3
  6
CONTINUOUS
 62
     3
 10
1611.805497
 20
8303.915616
 11
1611.778085
 21
8302.868791
  0
LINE
  8
CSLAYER3
  6
CONTINUOUS
 62
     3
 10
1611.778085
 20
8302.868791
 11
1611.732407
 21
8301.822603
  0
LINE
  8
CSLAYER3
  6
CONTINUOUS
 62
     3
 10
1611.732407
 20
8301.822603
 11
1611.668478
 21
8300.777372
  0
LINE
  8
CSLAYER3
  6
CONTINUOUS
 62
     3
 10
1611.668478
 20
8300.777372
 11
1611.586317
 21
8299.733416
  0
LINE
  8
CSLAYER3
  6
CONTINUOUS
 62
     3
 10
1611.586317
 20
8299.733416
 11
1611.485949
 21
8298.691053
  0
LINE
  8
CSLAYER3
  6
CONTINUOUS
 62
     3
 10
1611.485949
 20
8298.691053
 11
1611.367404
 21
8297.650600
  0
LINE
  8
CSLAYER3
  6
CONTINUOUS
 62
     3
 10
1611.367404
 20
8297.650600
 11
1611.230719
 21
8296.612375
  0
LINE
  8
CSLAYER3
  6
CONTINUOUS
 62
     3
 10
1611.230719
 20
8296.612375
 11
1611.075936
 21
8295.576693
  0
LINE
  8
CSLAYER3
  6
CONTINUOUS
 62
     3
 10
1611.075936
 20
8295.576693
 11
1610.903100
 21
8294.543870
  0
LINE
  8
CSLAYER3
  6
CONTINUOUS
 62
     3
 10
1610.903100
 20
8294.543870
 11
1610.712266
 21
8293.514221
  0
LINE
  8
CSLAYER3
  6
CONTINUOUS
 62
     3
 10
1610.712266
 20
8293.514221
 11
1610.503491
 21
8292.488059
  0
LINE
  8
CSLAYER3
  6
CONTINUOUS
 62
     3
 10
1610.503491
 20
8292.488059
 11
1610.276839
 21
8291.465698
  0
LINE
  8
CSLAYER3
  6
CONTINUOUS
 62
     3
 10
1610.276839
 20
8291.465698
 11
1610.032379
 21
8290.447447
  0
LINE
  8
CSLAYER3
  6
CONTINUOUS
 62
     3
 10
1610.032379
 20
8290.447447
 11
1609.770185
 21
8289.433618
  0
LINE
  8
CSLAYER3
  6
CONTINUOUS
 62
     3
 10
1609.770185
 20
8289.433618
 11
1609.490337
 21
8288.424519
  0
LINE
  8
CSLAYER3
  6
CONTINUOUS
 62
     3
 10
1609.490337
 20
8288.424519
 11
1609.192921
 21
8287.420458
  0
LINE
  8
CSLAYER3
  6
CONTINUOUS
 62
     3
 10
1609.192921
 20
8287.420458
 11
1608.878026
 21
8286.421741
  0
LINE
  8
CSLAYER3
  6
CONTINUOUS
 62
     3
 10
1608.878026
 20
8286.421741
 11
1608.545750
 21
8285.428672
  0
LINE
  8
CSLAYER3
  6
CONTINUOUS
 62
     3
 10
1608.545750
 20
8285.428672
 11
1608.196192
 21
8284.441552
  0
LINE
  8
CSLAYER3
  6
CONTINUOUS
 62
     3
 10
1608.196192
 20
8284.441552
 11
1607.829461
 21
8283.460684
  0
LINE
  8
CSLAYER3
  6
CONTINUOUS
 62
     3
 10
1607.829461
 20
8283.460684
 11
1607.445666
 21
8282.486365
  0
LINE
  8
CSLAYER3
  6
CONTINUOUS
 62
     3
 10
1607.445666
 20
8282.486365
 11
1607.044926
 21
8281.518893
  0
LINE
  8
CSLAYER3
  6
CONTINUOUS
 62
     3
 10
1607.044926
 20
8281.518893
 11
1606.627363
 21
8280.558562
  0
LINE
  8
CSLAYER3
  6
CONTINUOUS
 62
     3
 10
1606.627363
 20
8280.558562
 11
1606.193102
 21
8279.605665
  0
LINE
  8
CSLAYER3
  6
CONTINUOUS
 62
     3
 10
1606.193102
 20
8279.605665
 11
1605.742278
 21
8278.660492
  0
LINE
  8
CSLAYER3
  6
CONTINUOUS
 62
     3
 10
1605.742278
 20
8278.660492
 11
1605.275027
 21
8277.723331
  0
LINE
  8
CSLAYER3
  6
CONTINUOUS
 62
     3
 10
1605.275027
 20
8277.723331
 11
1604.791491
 21
8276.794467
  0
LINE
  8
CSLAYER3
  6
CONTINUOUS
 62
     3
 10
1604.791491
 20
8276.794467
 11
1604.291818
 21
8275.874184
  0
LINE
  8
CSLAYER3
  6
CONTINUOUS
 62
     3
 10
1604.291818
 20
8275.874184
 11
1603.776159
 21
8274.962761
  0
LINE
  8
CSLAYER3
  6
CONTINUOUS
 62
     3
 10
1603.776159
 20
8274.962761
 11
1603.244673
 21
8274.060476
  0
LINE
  8
CSLAYER3
  6
CONTINUOUS
 62
     3
 10
1603.244673
 20
8274.060476
 11
1602.697521
 21
8273.167605
  0
LINE
  8
CSLAYER3
  6
CONTINUOUS
 62
     3
 10
1602.697521
 20
8273.167605
 11
1602.134869
 21
8272.284419
  0
LINE
  8
CSLAYER3
  6
CONTINUOUS
 62
     3
 10
1602.134869
 20
8272.284419
 11
1601.556890
 21
8271.411187
  0
LINE
  8
CSLAYER3
  6
CONTINUOUS
 62
     3
 10
1601.556890
 20
8271.411187
 11
1600.963758
 21
8270.548175
  0
LINE
  8
CSLAYER3
  6
CONTINUOUS
 62
     3
 10
1600.963758
 20
8270.548175
 11
1600.355655
 21
8269.695646
  0
LINE
  8
CSLAYER3
  6
CONTINUOUS
 62
     3
 10
1600.355655
 20
8269.695646
 11
1599.732766
 21
8268.853859
  0
LINE
  8
CSLAYER3
  6
CONTINUOUS
 62
     3
 10
1599.732766
 20
8268.853859
 11
1599.095280
 21
8268.023072
  0
LINE
  8
CSLAYER3
  6
CONTINUOUS
 62
     3
 10
1599.095280
 20
8268.023072
 11
1598.443393
 21
8267.203537
  0
LINE
  8
CSLAYER3
  6
CONTINUOUS
 62
     3
 10
1598.443393
 20
8267.203537
 11
1597.777302
 21
8266.395504
  0
LINE
  8
CSLAYER3
  6
CONTINUOUS
 62
     3
 10
1597.777302
 20
8266.395504
 11
1597.097210
 21
8265.599219
  0
LINE
  8
CSLAYER3
  6
CONTINUOUS
 62
     3
 10
1597.097210
 20
8265.599219
 11
1596.403325
 21
8264.814924
  0
LINE
  8
CSLAYER3
  6
CONTINUOUS
 62
     3
 10
1596.403325
 20
8264.814924
 11
1595.695857
 21
8264.042859
  0
LINE
  8
CSLAYER3
  6
CONTINUOUS
 62
     3
 10
1595.695857
 20
8264.042859
 11
1594.975023
 21
8263.283259
  0
LINE
  8
CSLAYER3
  6
CONTINUOUS
 62
     3
 10
1594.975023
 20
8263.283259
 11
1594.241042
 21
8262.536354
  0
LINE
  8
CSLAYER3
  6
CONTINUOUS
 62
     3
 10
1594.241042
 20
8262.536354
 11
1593.494137
 21
8261.802373
  0
LINE
  8
CSLAYER3
  6
CONTINUOUS
 62
     3
 10
1593.494137
 20
8261.802373
 11
1592.734537
 21
8261.081539
  0
LINE
  8
CSLAYER3
  6
CONTINUOUS
 62
     3
 10
1592.734537
 20
8261.081539
 11
1591.962472
 21
8260.374071
  0
LINE
  8
CSLAYER3
  6
CONTINUOUS
 62
     3
 10
1591.962472
 20
8260.374071
 11
1591.178177
 21
8259.680186
  0
LINE
  8
CSLAYER3
  6
CONTINUOUS
 62
     3
 10
1591.178177
 20
8259.680186
 11
1590.381892
 21
8259.000094
  0
LINE
  8
CSLAYER3
  6
CONTINUOUS
 62
     3
 10
1590.381892
 20
8259.000094
 11
1589.573859
 21
8258.334003
  0
LINE
  8
CSLAYER3
  6
CONTINUOUS
 62
     3
 10
1589.573859
 20
8258.334003
 11
1588.754324
 21
8257.682116
  0
LINE
  8
CSLAYER3
  6
CONTINUOUS
 62
     3
 10
1588.754324
 20
8257.682116
 11
1587.923537
 21
8257.044630
  0
LINE
  8
CSLAYER3
  6
CONTINUOUS
 62
     3
 10
1587.923537
 20
8257.044630
 11
1587.081750
 21
8256.421741
  0
LINE
  8
CSLAYER3
  6
CONTINUOUS
 62
     3
 10
1587.081750
 20
8256.421741
 11
1586.229221
 21
8255.813638
  0
LINE
  8
CSLAYER3
  6
CONTINUOUS
 62
     3
 10
1586.229221
 20
8255.813638
 11
1585.366209
 21
8255.220506
  0
LINE
  8
CSLAYER3
  6
CONTINUOUS
 62
     3
 10
1585.366209
 20
8255.220506
 11
1584.492977
 21
8254.642527
  0
LINE
  8
CSLAYER3
  6
CONTINUOUS
 62
     3
 10
1584.492977
 20
8254.642527
 11
1583.609791
 21
8254.079875
  0
LINE
  8
CSLAYER3
  6
CONTINUOUS
 62
     3
 10
1583.609791
 20
8254.079875
 11
1582.716920
 21
8253.532723
  0
LINE
  8
CSLAYER3
  6
CONTINUOUS
 62
     3
 10
1582.716920
 20
8253.532723
 11
1581.814635
 21
8253.001237
  0
LINE
  8
CSLAYER3
  6
CONTINUOUS
 62
     3
 10
1581.814635
 20
8253.001237
 11
1580.903212
 21
8252.485578
  0
LINE
  8
CSLAYER3
  6
CONTINUOUS
 62
     3
 10
1580.903212
 20
8252.485578
 11
1579.982929
 21
8251.985905
  0
LINE
  8
CSLAYER3
  6
CONTINUOUS
 62
     3
 10
1579.982929
 20
8251.985905
 11
1579.054065
 21
8251.502369
  0
LINE
  8
CSLAYER3
  6
CONTINUOUS
 62
     3
 10
1579.054065
 20
8251.502369
 11
1578.116904
 21
8251.035118
  0
LINE
  8
CSLAYER3
  6
CONTINUOUS
 62
     3
 10
1578.116904
 20
8251.035118
 11
1577.171731
 21
8250.584294
  0
LINE
  8
CSLAYER3
  6
CONTINUOUS
 62
     3
 10
1577.171731
 20
8250.584294
 11
1576.218834
 21
8250.150033
  0
LINE
  8
CSLAYER3
  6
CONTINUOUS
 62
     3
 10
1576.218834
 20
8250.150033
 11
1575.258503
 21
8249.732470
  0
LINE
  8
CSLAYER3
  6
CONTINUOUS
 62
     3
 10
1575.258503
 20
8249.732470
 11
1574.291031
 21
8249.331730
  0
LINE
  8
CSLAYER3
  6
CONTINUOUS
 62
     3
 10
1574.291031
 20
8249.331730
 11
1573.316712
 21
8248.947935
  0
LINE
  8
CSLAYER3
  6
CONTINUOUS
 62
     3
 10
1573.316712
 20
8248.947935
 11
1572.335844
 21
8248.581204
  0
LINE
  8
CSLAYER3
  6
CONTINUOUS
 62
     3
 10
1572.335844
 20
8248.581204
 11
1571.348724
 21
8248.231646
  0
LINE
  8
CSLAYER3
  6
CONTINUOUS
 62
     3
 10
1571.348724
 20
8248.231646
 11
1570.355655
 21
8247.899370
  0
LINE
  8
CSLAYER3
  6
CONTINUOUS
 62
     3
 10
1570.355655
 20
8247.899370
 11
1569.356937
 21
8247.584475
  0
LINE
  8
CSLAYER3
  6
CONTINUOUS
 62
     3
 10
1569.356937
 20
8247.584475
 11
1568.352877
 21
8247.287059
  0
LINE
  8
CSLAYER3
  6
CONTINUOUS
 62
     3
 10
1568.352877
 20
8247.287059
 11
1567.343778
 21
8247.007211
  0
LINE
  8
CSLAYER3
  6
CONTINUOUS
 62
     3
 10
1567.343778
 20
8247.007211
 11
1566.329949
 21
8246.745017
  0
LINE
  8
CSLAYER3
  6
CONTINUOUS
 62
     3
 10
1566.329949
 20
8246.745017
 11
1565.311698
 21
8246.500557
  0
LINE
  8
CSLAYER3
  6
CONTINUOUS
 62
     3
 10
1565.311698
 20
8246.500557
 11
1564.289337
 21
8246.273905
  0
LINE
  8
CSLAYER3
  6
CONTINUOUS
 62
     3
 10
1564.289337
 20
8246.273905
 11
1563.263175
 21
8246.065130
  0
LINE
  8
CSLAYER3
  6
CONTINUOUS
 62
     3
 10
1563.263175
 20
8246.065130
 11
1562.233526
 21
8245.874296
  0
LINE
  8
CSLAYER3
  6
CONTINUOUS
 62
     3
 10
1562.233526
 20
8245.874296
 11
1561.200703
 21
8245.701460
  0
LINE
  8
CSLAYER3
  6
CONTINUOUS
 62
     3
 10
1561.200703
 20
8245.701460
 11
1560.165021
 21
8245.546677
  0
LINE
  8
CSLAYER3
  6
CONTINUOUS
 62
     3
 10
1560.165021
 20
8245.546677
 11
1559.126796
 21
8245.409992
  0
LINE
  8
CSLAYER3
  6
CONTINUOUS
 62
     3
 10
1559.126796
 20
8245.409992
 11
1558.086343
 21
8245.291447
  0
LINE
  8
CSLAYER3
  6
CONTINUOUS
 62
     3
 10
1558.086343
 20
8245.291447
 11
1557.043980
 21
8245.191079
  0
LINE
  8
CSLAYER3
  6
CONTINUOUS
 62
     3
 10
1557.043980
 20
8245.191079
 11
1556.000024
 21
8245.108918
  0
LINE
  8
CSLAYER3
  6
CONTINUOUS
 62
     3
 10
1556.000024
 20
8245.108918
 11
1554.954793
 21
8245.044989
  0
LINE
  8
CSLAYER3
  6
CONTINUOUS
 62
     3
 10
1554.954793
 20
8245.044989
 11
1553.908605
 21
8244.999311
  0
LINE
  8
CSLAYER3
  6
CONTINUOUS
 62
     3
 10
1553.908605
 20
8244.999311
 11
1552.861780
 21
8244.971899
  0
LINE
  8
CSLAYER3
  6
CONTINUOUS
 62
     3
 10
1659.338061
 20
8253.244084
 11
1651.038061
 21
8253.244084
  0
LINE
  8
CSLAYER3
  6
CONTINUOUS
 62
     3
 10
1662.738061
 20
8253.244084
 11
1671.038061
 21
8253.244084
  0
LINE
  8
CSLAYER3
  6
CONTINUOUS
 62
     3
 10
1662.738061
 20
8253.244084
 11
1662.738061
 21
8256.240157
  0
LINE
  8
CSLAYER3
  6
CONTINUOUS
 62
     3
 10
1662.738061
 20
8256.240157
 11
1662.735629
 21
8256.333050
  0
LINE
  8
CSLAYER3
  6
CONTINUOUS
 62
     3
 10
1662.735629
 20
8256.333050
 11
1662.728646
 21
8256.421772
  0
LINE
  8
CSLAYER3
  6
CONTINUOUS
 62
     3
 10
1662.728646
 20
8256.421772
 11
1662.717030
 21
8256.510007
  0
LINE
  8
CSLAYER3
  6
CONTINUOUS
 62
     3
 10
1662.717030
 20
8256.510007
 11
1662.700811
 21
8256.597513
  0
LINE
  8
CSLAYER3
  6
CONTINUOUS
 62
     3
 10
1662.700811
 20
8256.597513
 11
1662.680036
 21
8256.684050
  0
LINE
  8
CSLAYER3
  6
CONTINUOUS
 62
     3
 10
1662.680036
 20
8256.684050
 11
1662.654759
 21
8256.769382
  0
LINE
  8
CSLAYER3
  6
CONTINUOUS
 62
     3
 10
1662.654759
 20
8256.769382
 11
1662.625052
 21
8256.853273
  0
LINE
  8
CSLAYER3
  6
CONTINUOUS
 62
     3
 10
1662.625052
 20
8256.853273
 11
1662.590994
 21
8256.935495
  0
LINE
  8
CSLAYER3
  6
CONTINUOUS
 62
     3
 10
1662.590994
 20
8256.935495
 11
1662.552681
 21
8257.015822
  0
LINE
  8
CSLAYER3
  6
CONTINUOUS
 62
     3
 10
1662.552681
 20
8257.015822
 11
1662.510215
 21
8257.094033
  0
LINE
  8
CSLAYER3
  6
CONTINUOUS
 62
     3
 10
1662.510215
 20
8257.094033
 11
1662.463715
 21
8257.169915
  0
LINE
  8
CSLAYER3
  6
CONTINUOUS
 62
     3
 10
1662.463715
 20
8257.169915
 11
1662.413307
 21
8257.243259
  0
LINE
  8
CSLAYER3
  6
CONTINUOUS
 62
     3
 10
1662.413307
 20
8257.243259
 11
1662.359129
 21
8257.313864
  0
LINE
  8
CSLAYER3
  6
CONTINUOUS
 62
     3
 10
1662.359129
 20
8257.313864
 11
1662.301331
 21
8257.381538
  0
LINE
  8
CSLAYER3
  6
CONTINUOUS
 62
     3
 10
1662.301331
 20
8257.381538
 11
1662.240070
 21
8257.446093
  0
LINE
  8
CSLAYER3
  6
CONTINUOUS
 62
     3
 10
1662.240070
 20
8257.446093
 11
1662.175514
 21
8257.507354
  0
LINE
  8
CSLAYER3
  6
CONTINUOUS
 62
     3
 10
1662.175514
 20
8257.507354
 11
1662.107841
 21
8257.565153
  0
LINE
  8
CSLAYER3
  6
CONTINUOUS
 62
     3
 10
1662.107841
 20
8257.565153
 11
1662.037236
 21
8257.619330
  0
LINE
  8
CSLAYER3
  6
CONTINUOUS
 62
     3
 10
1662.037236
 20
8257.619330
 11
1661.963891
 21
8257.669738
  0
LINE
  8
CSLAYER3
  6
CONTINUOUS
 62
     3
 10
1661.963891
 20
8257.669738
 11
1661.888010
 21
8257.716239
  0
LINE
  8
CSLAYER3
  6
CONTINUOUS
 62
     3
 10
1661.888010
 20
8257.716239
 11
1661.809798
 21
8257.758704
  0
LINE
  8
CSLAYER3
  6
CONTINUOUS
 62
     3
 10
1661.809798
 20
8257.758704
 11
1661.729472
 21
8257.797018
  0
LINE
  8
CSLAYER3
  6
CONTINUOUS
 62
     3
 10
1661.729472
 20
8257.797018
 11
1661.647250
 21
8257.831075
  0
LINE
  8
CSLAYER3
  6
CONTINUOUS
 62
     3
 10
1661.647250
 20
8257.831075
 11
1661.563358
 21
8257.860783
  0
LINE
  8
CSLAYER3
  6
CONTINUOUS
 62
     3
 10
1661.563358
 20
8257.860783
 11
1661.478027
 21
8257.886059
  0
LINE
  8
CSLAYER3
  6
CONTINUOUS
 62
     3
 10
1661.478027
 20
8257.886059
 11
1661.391490
 21
8257.906835
  0
LINE
  8
CSLAYER3
  6
CONTINUOUS
 62
     3
 10
1661.391490
 20
8257.906835
 11
1661.303984
 21
8257.923053
  0
LINE
  8
CSLAYER3
  6
CONTINUOUS
 62
     3
 10
1661.303984
 20
8257.923053
 11
1661.215749
 21
8257.934669
  0
LINE
  8
CSLAYER3
  6
CONTINUOUS
 62
     3
 10
1661.215749
 20
8257.934669
 11
1661.127027
 21
8257.941652
  0
LINE
  8
CSLAYER3
  6
CONTINUOUS
 62
     3
 10
1661.127027
 20
8257.941652
 11
1661.038061
 21
8257.943982
  0
LINE
  8
CSLAYER3
  6
CONTINUOUS
 62
     3
 10
1661.038061
 20
8257.943982
 11
1660.949095
 21
8257.941652
  0
LINE
  8
CSLAYER3
  6
CONTINUOUS
 62
     3
 10
1660.949095
 20
8257.941652
 11
1660.860374
 21
8257.934669
  0
LINE
  8
CSLAYER3
  6
CONTINUOUS
 62
     3
 10
1660.860374
 20
8257.934669
 11
1660.772139
 21
8257.923053
  0
LINE
  8
CSLAYER3
  6
CONTINUOUS
 62
     3
 10
1660.772139
 20
8257.923053
 11
1660.684633
 21
8257.906835
  0
LINE
  8
CSLAYER3
  6
CONTINUOUS
 62
     3
 10
1660.684633
 20
8257.906835
 11
1660.598095
 21
8257.886059
  0
LINE
  8
CSLAYER3
  6
CONTINUOUS
 62
     3
 10
1660.598095
 20
8257.886059
 11
1660.512764
 21
8257.860783
  0
LINE
  8
CSLAYER3
  6
CONTINUOUS
 62
     3
 10
1660.512764
 20
8257.860783
 11
1660.428872
 21
8257.831075
  0
LINE
  8
CSLAYER3
  6
CONTINUOUS
 62
     3
 10
1660.428872
 20
8257.831075
 11
1660.346651
 21
8257.797018
  0
LINE
  8
CSLAYER3
  6
CONTINUOUS
 62
     3
 10
1660.346651
 20
8257.797018
 11
1660.266324
 21
8257.758704
  0
LINE
  8
CSLAYER3
  6
CONTINUOUS
 62
     3
 10
1660.266324
 20
8257.758704
 11
1660.188113
 21
8257.716239
  0
LINE
  8
CSLAYER3
  6
CONTINUOUS
 62
     3
 10
1660.188113
 20
8257.716239
 11
1660.112231
 21
8257.669738
  0
LINE
  8
CSLAYER3
  6
CONTINUOUS
 62
     3
 10
1660.112231
 20
8257.669738
 11
1660.038887
 21
8257.619330
  0
LINE
  8
CSLAYER3
  6
CONTINUOUS
 62
     3
 10
1660.038887
 20
8257.619330
 11
1659.968281
 21
8257.565153
  0
LINE
  8
CSLAYER3
  6
CONTINUOUS
 62
     3
 10
1659.968281
 20
8257.565153
 11
1659.900608
 21
8257.507354
  0
LINE
  8
CSLAYER3
  6
CONTINUOUS
 62
     3
 10
1659.900608
 20
8257.507354
 11
1659.836052
 21
8257.446093
  0
LINE
  8
CSLAYER3
  6
CONTINUOUS
 62
     3
 10
1659.836052
 20
8257.446093
 11
1659.774791
 21
8257.381538
  0
LINE
  8
CSLAYER3
  6
CONTINUOUS
 62
     3
 10
1659.774791
 20
8257.381538
 11
1659.716993
 21
8257.313864
  0
LINE
  8
CSLAYER3
  6
CONTINUOUS
 62
     3
 10
1659.716993
 20
8257.313864
 11
1659.662815
 21
8257.243259
  0
LINE
  8
CSLAYER3
  6
CONTINUOUS
 62
     3
 10
1659.662815
 20
8257.243259
 11
1659.612407
 21
8257.169915
  0
LINE
  8
CSLAYER3
  6
CONTINUOUS
 62
     3
 10
1659.612407
 20
8257.169915
 11
1659.565907
 21
8257.094033
  0
LINE
  8
CSLAYER3
  6
CONTINUOUS
 62
     3
 10
1659.565907
 20
8257.094033
 11
1659.523442
 21
8257.015822
  0
LINE
  8
CSLAYER3
  6
CONTINUOUS
 62
     3
 10
1659.523442
 20
8257.015822
 11
1659.485128
 21
8256.935495
  0
LINE
  8
CSLAYER3
  6
CONTINUOUS
 62
     3
 10
1659.485128
 20
8256.935495
 11
1659.451070
 21
8256.853273
  0
LINE
  8
CSLAYER3
  6
CONTINUOUS
 62
     3
 10
1659.451070
 20
8256.853273
 11
1659.421363
 21
8256.769382
  0
LINE
  8
CSLAYER3
  6
CONTINUOUS
 62
     3
 10
1659.421363
 20
8256.769382
 11
1659.396087
 21
8256.684050
  0
LINE
  8
CSLAYER3
  6
CONTINUOUS
 62
     3
 10
1659.396087
 20
8256.684050
 11
1659.375311
 21
8256.597513
  0
LINE
  8
CSLAYER3
  6
CONTINUOUS
 62
     3
 10
1659.375311
 20
8256.597513
 11
1659.359093
 21
8256.510007
  0
LINE
  8
CSLAYER3
  6
CONTINUOUS
 62
     3
 10
1659.359093
 20
8256.510007
 11
1659.347476
 21
8256.421772
  0
LINE
  8
CSLAYER3
  6
CONTINUOUS
 62
     3
 10
1659.347476
 20
8256.421772
 11
1659.340494
 21
8256.333050
  0
LINE
  8
CSLAYER3
  6
CONTINUOUS
 62
     3
 10
1659.340494
 20
8256.333050
 11
1659.338061
 21
8256.240157
  0
LINE
  8
CSLAYER3
  6
CONTINUOUS
 62
     3
 10
1659.338061
 20
8256.240157
 11
1659.338061
 21
8253.244084
  0
LINE
  8
CSLAYER3
  6
CONTINUOUS
 62
     3
 10
163.114904
 20
9251.979997
 11
545.648095
 21
9251.979997
  0
LINE
  8
CSLAYER3
  6
CONTINUOUS
 62
     3
 10
133.601499
 20
9130.799997
 11
575.161499
 21
9130.799997
  0
LINE
  8
CSLAYER3
  6
CONTINUOUS
 62
     3
 10
133.601499
 20
9047.799997
 11
575.161499
 21
9047.799997
  0
LINE
  8
CSLAYER3
  6
CONTINUOUS
 62
     3
 10
133.601499
 20
9130.799997
 11
133.601499
 21
9047.799997
  0
LINE
  8
CSLAYER3
  6
CONTINUOUS
 62
     3
 10
575.161499
 20
9130.799997
 11
575.161499
 21
9047.799997
  0
LINE
  8
CSLAYER3
  6
CONTINUOUS
 62
     3
 10
575.161499
 20
9130.799997
 11
545.648095
 21
9251.979997
  0
LINE
  8
CSLAYER3
  6
CONTINUOUS
 62
     3
 10
163.114904
 20
9251.979997
 11
133.601499
 21
9130.799997
  0
LINE
  8
CSLAYER3
  6
CONTINUOUS
 62
     3
 10
1001.018090
 20
7158.882242
 11
879.838090
 21
7158.882242
  0
LINE
  8
CSLAYER3
  6
CONTINUOUS
 62
     3
 10
1001.018090
 20
7150.582242
 11
879.838090
 21
7150.582242
  0
LINE
  8
CSLAYER3
  6
CONTINUOUS
 62
     3
 10
879.838090
 20
7158.882242
 11
879.838090
 21
7150.582242
  0
LINE
  8
CSLAYER3
  6
CONTINUOUS
 62
     3
 10
1001.018090
 20
7158.882242
 11
1001.018090
 21
7150.582242
  0
LINE
  8
CSLAYER3
  6
CONTINUOUS
 62
     3
 10
796.838090
 20
7158.882242
 11
796.838090
 21
7150.582242
  0
LINE
  8
CSLAYER3
  6
CONTINUOUS
 62
     3
 10
796.838090
 20
7158.882242
 11
879.838090
 21
7158.882242
  0
LINE
  8
CSLAYER3
  6
CONTINUOUS
 62
     3
 10
879.838090
 20
7158.882242
 11
873.693157
 21
7150.582242
  0
LINE
  8
CSLAYER3
  6
CONTINUOUS
 62
     3
 10
796.838090
 20
7150.582242
 11
873.693157
 21
7150.582242
  0
LINE
  8
CSLAYER3
  6
CONTINUOUS
 62
     3
 10
983.156171
 20
7096.643390
 11
988.770641
 21
7095.950297
  0
LINE
  8
CSLAYER3
  6
CONTINUOUS
 62
     3
 10
988.770641
 20
7095.950297
 11
991.740977
 21
7095.460192
  0
LINE
  8
CSLAYER3
  6
CONTINUOUS
 62
     3
 10
991.740977
 20
7095.460192
 11
995.175428
 21
7094.747311
  0
LINE
  8
CSLAYER3
  6
CONTINUOUS
 62
     3
 10
995.175428
 20
7094.747311
 11
997.681650
 21
7094.034431
  0
LINE
  8
CSLAYER3
  6
CONTINUOUS
 62
     3
 10
997.681650
 20
7094.034431
 11
999.166818
 21
7093.276995
  0
LINE
  8
CSLAYER3
  6
CONTINUOUS
 62
     3
 10
999.166818
 20
7093.276995
 11
999.816579
 21
7092.653224
  0
LINE
  8
CSLAYER3
  6
CONTINUOUS
 62
     3
 10
999.816579
 20
7092.653224
 11
1000.001398
 21
7091.879512
  0
LINE
  8
CSLAYER3
  6
CONTINUOUS
 62
     3
 10
983.156171
 20
7096.643390
 11
976.074541
 21
7097.402587
  0
LINE
  8
CSLAYER3
  6
CONTINUOUS
 62
     3
 10
976.074541
 20
7097.402587
 11
969.158594
 21
7097.971207
  0
LINE
  8
CSLAYER3
  6
CONTINUOUS
 62
     3
 10
969.158594
 20
7097.971207
 11
964.374302
 21
7098.246024
  0
LINE
  8
CSLAYER3
  6
CONTINUOUS
 62
     3
 10
964.374302
 20
7098.246024
 11
948.868666
 21
7098.916055
  0
LINE
  8
CSLAYER3
  6
CONTINUOUS
 62
     3
 10
948.868666
 20
7098.916055
 11
936.249582
 21
7099.106179
  0
LINE
  8
CSLAYER3
  6
CONTINUOUS
 62
     3
 10
936.249582
 20
7099.106179
 11
921.849663
 21
7099.083004
  0
LINE
  8
CSLAYER3
  6
CONTINUOUS
 62
     3
 10
921.849663
 20
7099.083004
 11
911.858008
 21
7098.846535
  0
LINE
  8
CSLAYER3
  6
CONTINUOUS
 62
     3
 10
911.858008
 20
7098.846535
 11
893.514253
 21
7098.221992
  0
LINE
  8
CSLAYER3
  6
CONTINUOUS
 62
     3
 10
893.514253
 20
7098.221992
 11
879.838090
 21
7097.573716
  0
LINE
  8
CSLAYER3
  6
CONTINUOUS
 62
     3
 10
874.899473
 20
7097.313850
 11
796.838090
 21
7092.847658
  0
LINE
  8
CSLAYER3
  6
CONTINUOUS
 62
     3
 10
796.838090
 20
7092.847658
 11
791.838090
 21
7092.847658
  0
LINE
  8
CSLAYER3
  6
CONTINUOUS
 62
     3
 10
791.838090
 20
7092.847658
 11
791.838090
 21
7084.649747
  0
LINE
  8
CSLAYER3
  6
CONTINUOUS
 62
     3
 10
983.156171
 20
7087.113616
 11
976.074541
 21
7086.354420
  0
LINE
  8
CSLAYER3
  6
CONTINUOUS
 62
     3
 10
976.074541
 20
7086.354420
 11
969.158594
 21
7085.785799
  0
LINE
  8
CSLAYER3
  6
CONTINUOUS
 62
     3
 10
969.158594
 20
7085.785799
 11
964.374302
 21
7085.510982
  0
LINE
  8
CSLAYER3
  6
CONTINUOUS
 62
     3
 10
964.374302
 20
7085.510982
 11
948.868666
 21
7084.840951
  0
LINE
  8
CSLAYER3
  6
CONTINUOUS
 62
     3
 10
948.868666
 20
7084.840951
 11
936.249582
 21
7084.650827
  0
LINE
  8
CSLAYER3
  6
CONTINUOUS
 62
     3
 10
936.249582
 20
7084.650827
 11
921.849663
 21
7084.649747
  0
LINE
  8
CSLAYER3
  6
CONTINUOUS
 62
     3
 10
921.849663
 20
7084.649747
 11
911.858008
 21
7084.886216
  0
LINE
  8
CSLAYER3
  6
CONTINUOUS
 62
     3
 10
911.858008
 20
7084.886216
 11
893.514253
 21
7085.510758
  0
LINE
  8
CSLAYER3
  6
CONTINUOUS
 62
     3
 10
893.514253
 20
7085.510758
 11
877.525430
 21
7086.268660
  0
LINE
  8
CSLAYER3
  6
CONTINUOUS
 62
     3
 10
877.525430
 20
7086.268660
 11
796.838090
 21
7090.885093
  0
LINE
  8
CSLAYER3
  6
CONTINUOUS
 62
     3
 10
796.838090
 20
7090.885093
 11
792.303069
 21
7090.885093
  0
LINE
  8
CSLAYER3
  6
CONTINUOUS
 62
     3
 10
983.161350
 20
7087.111416
 11
988.775067
 21
7087.805914
  0
LINE
  8
CSLAYER3
  6
CONTINUOUS
 62
     3
 10
988.775067
 20
7087.805914
 11
991.744870
 21
7088.296763
  0
LINE
  8
CSLAYER3
  6
CONTINUOUS
 62
     3
 10
991.744870
 20
7088.296763
 11
995.178546
 21
7089.010504
  0
LINE
  8
CSLAYER3
  6
CONTINUOUS
 62
     3
 10
995.178546
 20
7089.010504
 11
997.683992
 21
7089.724012
  0
LINE
  8
CSLAYER3
  6
CONTINUOUS
 62
     3
 10
997.683992
 20
7089.724012
 11
999.168336
 21
7090.481819
  0
LINE
  8
CSLAYER3
  6
CONTINUOUS
 62
     3
 10
999.168336
 20
7090.481819
 11
999.817419
 21
7091.105753
  0
LINE
  8
CSLAYER3
  6
CONTINUOUS
 62
     3
 10
999.817419
 20
7091.105753
 11
1000.001398
 21
7091.879512
  0
DIMENSION
  8
CSLAYER3
 62
     7
  2
*D0004
 10
1001.018090
 20
7174.647707
 11
898.928040
 21
7177.647949
 13
796.838090
 23
7158.882242
 14
1001.018090
 24
7158.882242
 70
1
  0
LINE
  8
CSLAYER3
  6
CONTINUOUS
 62
     3
 10
879.838090
 20
7097.573716
 11
879.838090
 21
7088.161281
  0
LINE
  8
CSLAYER3
  6
CONTINUOUS
 62
     3
 10
879.838090
 20
7088.161281
 11
874.899473
 21
7097.313850
  0
LINE
  8
CSLAYER3
  6
CONTINUOUS
 62
     3
 10
791.764730
 20
7032.107402
 11
791.764730
 21
7022.269908
  0
LINE
  8
CSLAYER3
  6
CONTINUOUS
 62
     3
 10
434.949964
 20
7949.409613
 11
434.949964
 21
7792.894230
  0
LINE
  8
CSLAYER3
  6
CONTINUOUS
 62
     3
 10
434.949964
 20
7949.409613
 11
509.649963
 21
7949.424666
  0
LINE
  8
CSLAYER3
  6
CONTINUOUS
 62
     3
 10
509.649963
 20
7949.424666
 11
509.649963
 21
7772.600460
  0
LINE
  8
CSLAYER3
  6
CONTINUOUS
 62
     3
 10
509.649963
 20
7949.424666
 11
616.273775
 21
7932.878587
  0
LINE
  8
CSLAYER3
  6
CONTINUOUS
 62
     3
 10
586.898784
 20
8062.091991
 11
676.241831
 21
7669.093767
  0
LINE
  8
CSLAYER3
  6
CONTINUOUS
 62
     3
 10
509.649963
 20
7772.600460
 11
434.949964
 21
7792.894230
  0
LINE
  8
CSLAYER3
  6
CONTINUOUS
 62
     3
 10
652.710927
 20
7772.600460
 11
509.649963
 21
7772.600460
  0
LINE
  8
CSLAYER3
  6
CONTINUOUS
 62
     3
 10
650.870295
 20
7672.168824
 11
656.484765
 21
7671.337113
  0
LINE
  8
CSLAYER3
  6
CONTINUOUS
 62
     3
 10
656.484765
 20
7671.337113
 11
659.455101
 21
7670.748986
  0
LINE
  8
CSLAYER3
  6
CONTINUOUS
 62
     3
 10
659.455101
 20
7670.748986
 11
662.889553
 21
7669.893530
  0
LINE
  8
CSLAYER3
  6
CONTINUOUS
 62
     3
 10
662.889553
 20
7669.893530
 11
665.395774
 21
7669.038073
  0
LINE
  8
CSLAYER3
  6
CONTINUOUS
 62
     3
 10
665.395774
 20
7669.038073
 11
666.880942
 21
7668.129150
  0
LINE
  8
CSLAYER3
  6
CONTINUOUS
 62
     3
 10
666.880942
 20
7668.129150
 11
667.530703
 21
7667.380625
  0
LINE
  8
CSLAYER3
  6
CONTINUOUS
 62
     3
 10
667.530703
 20
7667.380625
 11
667.715522
 21
7666.452170
  0
LINE
  8
CSLAYER3
  6
CONTINUOUS
 62
     3
 10
650.870295
 20
7672.168824
 11
643.788665
 21
7673.079860
  0
LINE
  8
CSLAYER3
  6
CONTINUOUS
 62
     3
 10
643.788665
 20
7673.079860
 11
636.872719
 21
7673.762204
  0
LINE
  8
CSLAYER3
  6
CONTINUOUS
 62
     3
 10
636.872719
 20
7673.762204
 11
632.088427
 21
7674.091985
  0
LINE
  8
CSLAYER3
  6
CONTINUOUS
 62
     3
 10
632.088427
 20
7674.091985
 11
616.582791
 21
7674.896022
  0
LINE
  8
CSLAYER3
  6
CONTINUOUS
 62
     3
 10
616.582791
 20
7674.896022
 11
591.586875
 21
7674.900402
  0
LINE
  8
CSLAYER3
  6
CONTINUOUS
 62
     3
 10
591.586875
 20
7674.900402
 11
561.586902
 21
7674.860360
  0
LINE
  8
CSLAYER3
  6
CONTINUOUS
 62
     3
 10
561.586902
 20
7674.860360
 11
551.595247
 21
7674.576597
  0
LINE
  8
CSLAYER3
  6
CONTINUOUS
 62
     3
 10
551.595247
 20
7674.576597
 11
531.626128
 21
7674.188668
  0
LINE
  8
CSLAYER3
  6
CONTINUOUS
 62
     3
 10
531.626128
 20
7674.188668
 11
509.649963
 21
7672.938612
  0
LINE
  8
CSLAYER3
  6
CONTINUOUS
 62
     3
 10
507.520890
 20
7672.721941
 11
434.949964
 21
7667.739467
  0
LINE
  8
CSLAYER3
  6
CONTINUOUS
 62
     3
 10
434.949964
 20
7667.739467
 11
429.949964
 21
7667.739467
  0
LINE
  8
CSLAYER3
  6
CONTINUOUS
 62
     3
 10
429.949964
 20
7667.739467
 11
429.949964
 21
7657.901973
  0
LINE
  8
CSLAYER3
  6
CONTINUOUS
 62
     3
 10
650.870295
 20
7660.733096
 11
643.788665
 21
7659.822059
  0
LINE
  8
CSLAYER3
  6
CONTINUOUS
 62
     3
 10
643.788665
 20
7659.822059
 11
636.872719
 21
7659.139715
  0
LINE
  8
CSLAYER3
  6
CONTINUOUS
 62
     3
 10
636.872719
 20
7659.139715
 11
632.088427
 21
7658.809934
  0
LINE
  8
CSLAYER3
  6
CONTINUOUS
 62
     3
 10
632.088427
 20
7658.809934
 11
616.582791
 21
7658.005898
  0
LINE
  8
CSLAYER3
  6
CONTINUOUS
 62
     3
 10
616.582791
 20
7658.005898
 11
591.586875
 21
7657.553978
  0
LINE
  8
CSLAYER3
  6
CONTINUOUS
 62
     3
 10
591.586875
 20
7657.553978
 11
561.586902
 21
7657.540451
  0
LINE
  8
CSLAYER3
  6
CONTINUOUS
 62
     3
 10
561.586902
 20
7657.540451
 11
551.595247
 21
7657.824214
  0
LINE
  8
CSLAYER3
  6
CONTINUOUS
 62
     3
 10
551.595247
 20
7657.824214
 11
531.626128
 21
7658.935187
  0
LINE
  8
CSLAYER3
  6
CONTINUOUS
 62
     3
 10
531.626128
 20
7658.935187
 11
509.649963
 21
7660.185243
  0
LINE
  8
CSLAYER3
  6
CONTINUOUS
 62
     3
 10
507.307078
 20
7660.416594
 11
434.949964
 21
7665.384388
  0
LINE
  8
CSLAYER3
  6
CONTINUOUS
 62
     3
 10
434.949964
 20
7665.384388
 11
430.414944
 21
7665.384388
  0
LINE
  8
CSLAYER3
  6
CONTINUOUS
 62
     3
 10
650.875475
 20
7660.730455
 11
656.489191
 21
7661.563853
  0
LINE
  8
CSLAYER3
  6
CONTINUOUS
 62
     3
 10
656.489191
 20
7661.563853
 11
659.458994
 21
7662.152872
  0
LINE
  8
CSLAYER3
  6
CONTINUOUS
 62
     3
 10
659.458994
 20
7662.152872
 11
662.892670
 21
7663.009361
  0
LINE
  8
CSLAYER3
  6
CONTINUOUS
 62
     3
 10
662.892670
 20
7663.009361
 11
665.398116
 21
7663.865570
  0
LINE
  8
CSLAYER3
  6
CONTINUOUS
 62
     3
 10
665.398116
 20
7663.865570
 11
666.882461
 21
7664.774939
  0
LINE
  8
CSLAYER3
  6
CONTINUOUS
 62
     3
 10
666.882461
 20
7664.774939
 11
667.531544
 21
7665.523659
  0
LINE
  8
CSLAYER3
  6
CONTINUOUS
 62
     3
 10
667.531544
 20
7665.523659
 11
667.715522
 21
7666.452170
  0
LINE
  8
CSLAYER3
  6
CONTINUOUS
 62
     3
 10
509.649963
 20
7672.938612
 11
509.649963
 21
7667.987056
  0
LINE
  8
CSLAYER3
  6
CONTINUOUS
 62
     3
 10
509.649963
 20
7667.987056
 11
507.520890
 21
7672.721941
  0
LINE
  8
CSLAYER3
  6
CONTINUOUS
 62
     3
 10
509.649963
 20
7660.185243
 11
509.649963
 21
7665.626981
  0
LINE
  8
CSLAYER3
  6
CONTINUOUS
 62
     3
 10
509.649963
 20
7665.626981
 11
507.307078
 21
7660.416594
  0
LINE
  8
CSLAYER3
  6
CONTINUOUS
 62
     3
 10
567.601766
 20
8072.018495
 11
572.374066
 21
8071.311541
  0
LINE
  8
CSLAYER3
  6
CONTINUOUS
 62
     3
 10
572.374066
 20
8071.311541
 11
574.898852
 21
8070.811634
  0
LINE
  8
CSLAYER3
  6
CONTINUOUS
 62
     3
 10
574.898852
 20
8070.811634
 11
577.818135
 21
8070.084495
  0
LINE
  8
CSLAYER3
  6
CONTINUOUS
 62
     3
 10
577.818135
 20
8070.084495
 11
579.948423
 21
8069.357357
  0
LINE
  8
CSLAYER3
  6
CONTINUOUS
 62
     3
 10
579.948423
 20
8069.357357
 11
581.210816
 21
8068.584773
  0
LINE
  8
CSLAYER3
  6
CONTINUOUS
 62
     3
 10
581.210816
 20
8068.584773
 11
581.763113
 21
8067.948527
  0
LINE
  8
CSLAYER3
  6
CONTINUOUS
 62
     3
 10
581.763113
 20
8067.948527
 11
581.920209
 21
8067.159340
  0
LINE
  8
CSLAYER3
  6
CONTINUOUS
 62
     3
 10
567.601766
 20
8072.018495
 11
561.582381
 21
8072.792876
  0
LINE
  8
CSLAYER3
  6
CONTINUOUS
 62
     3
 10
561.582381
 20
8072.792876
 11
555.703826
 21
8073.372869
  0
LINE
  8
CSLAYER3
  6
CONTINUOUS
 62
     3
 10
555.703826
 20
8073.372869
 11
551.637178
 21
8073.653182
  0
LINE
  8
CSLAYER3
  6
CONTINUOUS
 62
     3
 10
551.637178
 20
8073.653182
 11
538.457387
 21
8074.336614
  0
LINE
  8
CSLAYER3
  6
CONTINUOUS
 62
     3
 10
538.457387
 20
8074.336614
 11
534.208082
 21
8074.597465
  0
LINE
  8
CSLAYER3
  6
CONTINUOUS
 62
     3
 10
534.208082
 20
8074.597465
 11
529.958082
 21
8074.623940
  0
LINE
  8
CSLAYER3
  6
CONTINUOUS
 62
     3
 10
529.958082
 20
8074.623940
 11
521.465175
 21
8074.382741
  0
LINE
  8
CSLAYER3
  6
CONTINUOUS
 62
     3
 10
521.465175
 20
8074.382741
 11
510.424386
 21
8073.559756
  0
LINE
  8
CSLAYER3
  6
CONTINUOUS
 62
     3
 10
510.424386
 20
8073.559756
 11
497.694963
 21
8072.158741
  0
LINE
  8
CSLAYER3
  6
CONTINUOUS
 62
     3
 10
495.885251
 20
8071.974570
 11
434.199964
 21
8067.739467
  0
LINE
  8
CSLAYER3
  6
CONTINUOUS
 62
     3
 10
434.199964
 20
8067.739467
 11
429.949964
 21
8067.739467
  0
LINE
  8
CSLAYER3
  6
CONTINUOUS
 62
     3
 10
429.949964
 20
8067.739467
 11
429.949964
 21
8059.377597
  0
LINE
  8
CSLAYER3
  6
CONTINUOUS
 62
     3
 10
567.601766
 20
8062.298127
 11
561.582381
 21
8061.523746
  0
LINE
  8
CSLAYER3
  6
CONTINUOUS
 62
     3
 10
561.582381
 20
8061.523746
 11
555.703826
 21
8060.943753
  0
LINE
  8
CSLAYER3
  6
CONTINUOUS
 62
     3
 10
555.703826
 20
8060.943753
 11
551.637178
 21
8060.663440
  0
LINE
  8
CSLAYER3
  6
CONTINUOUS
 62
     3
 10
551.637178
 20
8060.663440
 11
538.457387
 21
8059.980008
  0
LINE
  8
CSLAYER3
  6
CONTINUOUS
 62
     3
 10
538.457387
 20
8059.980008
 11
534.208082
 21
8059.903182
  0
LINE
  8
CSLAYER3
  6
CONTINUOUS
 62
     3
 10
534.208082
 20
8059.903182
 11
529.958082
 21
8059.902017
  0
LINE
  8
CSLAYER3
  6
CONTINUOUS
 62
     3
 10
529.958082
 20
8059.902017
 11
521.465175
 21
8060.143216
  0
LINE
  8
CSLAYER3
  6
CONTINUOUS
 62
     3
 10
521.465175
 20
8060.143216
 11
510.424386
 21
8060.594297
  0
LINE
  8
CSLAYER3
  6
CONTINUOUS
 62
     3
 10
510.424386
 20
8060.594297
 11
497.694963
 21
8061.318376
  0
LINE
  8
CSLAYER3
  6
CONTINUOUS
 62
     3
 10
495.703511
 20
8061.515025
 11
434.199964
 21
8065.737650
  0
LINE
  8
CSLAYER3
  6
CONTINUOUS
 62
     3
 10
434.199964
 20
8065.737650
 11
430.345197
 21
8065.737650
  0
LINE
  8
CSLAYER3
  6
CONTINUOUS
 62
     3
 10
567.606169
 20
8062.295882
 11
572.377828
 21
8063.004270
  0
LINE
  8
CSLAYER3
  6
CONTINUOUS
 62
     3
 10
572.377828
 20
8063.004270
 11
574.902160
 21
8063.504936
  0
LINE
  8
CSLAYER3
  6
CONTINUOUS
 62
     3
 10
574.902160
 20
8063.504936
 11
577.820785
 21
8064.232952
  0
LINE
  8
CSLAYER3
  6
CONTINUOUS
 62
     3
 10
577.820785
 20
8064.232952
 11
579.950414
 21
8064.960730
  0
LINE
  8
CSLAYER3
  6
CONTINUOUS
 62
     3
 10
579.950414
 20
8064.960730
 11
581.212107
 21
8065.733694
  0
LINE
  8
CSLAYER3
  6
CONTINUOUS
 62
     3
 10
581.212107
 20
8065.733694
 11
581.763828
 21
8066.370105
  0
LINE
  8
CSLAYER3
  6
CONTINUOUS
 62
     3
 10
581.763828
 20
8066.370105
 11
581.920209
 21
8067.159340
  0
LINE
  8
CSLAYER3
  6
CONTINUOUS
 62
     3
 10
497.694963
 20
8072.158741
 11
497.694963
 21
8067.949917
  0
LINE
  8
CSLAYER3
  6
CONTINUOUS
 62
     3
 10
497.694963
 20
8067.949917
 11
495.885251
 21
8071.974570
  0
LINE
  8
CSLAYER3
  6
CONTINUOUS
 62
     3
 10
497.694963
 20
8061.318376
 11
497.694963
 21
8065.943854
  0
LINE
  8
CSLAYER3
  6
CONTINUOUS
 62
     3
 10
497.694963
 20
8065.943854
 11
495.703511
 21
8061.515025
  0
DIMENSION
  8
CSLAYER3
 62
     7
  2
*D0005
 10
392.519618
 20
8067.739467
 11
389.519623
 21
7817.666016
 13
429.949964
 23
7667.739467
 14
429.949964
 24
8067.739467
 50
90.000000
 70
1
  0
DIMENSION
  8
CSLAYER3
 62
     7
  2
*D0006
 10
507.520890
 20
7680.323941
 11
468.735443
 21
7683.323730
 13
429.949964
 23
7667.739467
 14
507.520890
 24
7672.721941
  0
DIMENSION
  8
CSLAYER3
 62
     7
  2
*D0007
 10
495.885251
 20
8084.057116
 11
462.917633
 21
8087.056641
 13
429.949964
 23
8067.739467
 14
495.885251
 24
8071.974570
  0
LINE
  8
CSLAYER3
  6
CONTINUOUS
 62
     3
 10
3034.790337
 20
7559.292146
 11
2547.696609
 21
7559.292146
  0
LINE
  8
CSLAYER3
  6
CONTINUOUS
 62
     3
 10
3796.070581
 20
6855.471311
 11
3851.226136
 21
6979.571311
  0
LINE
  8
CSLAYER3
  6
CONTINUOUS
 62
     3
 10
3569.178256
 20
6921.471311
 11
3594.430499
 21
6988.860462
  0
LINE
  8
CSLAYER3
  6
CONTINUOUS
 62
     3
 10
3594.060061
 20
6987.871898
 11
3851.226136
 21
6979.571311
  0
LINE
  8
CSLAYER3
  6
CONTINUOUS
 62
     3
 10
3870.022795
 20
6979.571311
 11
3689.188072
 21
6979.571311
  0
LINE
  8
CSLAYER3
  6
CONTINUOUS
 62
     3
 10
3689.188072
 20
6979.571311
 11
3689.188072
 21
6968.571311
  0
LINE
  8
CSLAYER3
  6
CONTINUOUS
 62
     3
 10
3689.188072
 20
6968.571311
 11
3865.578350
 21
6969.571311
  0
LINE
  8
CSLAYER3
  6
CONTINUOUS
 62
     3
 10
3594.430499
 20
6988.860462
 11
3851.226136
 21
6980.571831
  0
LINE
  8
CSLAYER3
  6
CONTINUOUS
 62
     3
 10
3851.226136
 20
6979.571311
 11
3851.226136
 21
6980.571831
  0
LINE
  8
CSLAYER3
  6
CONTINUOUS
 62
     3
 10
3569.178256
 20
6921.471311
 11
3569.178256
 21
6855.471311
  0
LINE
  8
CSLAYER3
  6
CONTINUOUS
 62
     3
 10
3796.070581
 20
6855.471311
 11
3569.178256
 21
6855.471311
  0
INSERT
  8
CSLAYER1
  2
BLKF0012
 10
0.0
 20
0.0
 30
0.0
  0
INSERT
  8
CSLAYER1
  2
BLKF0013
 10
0.0
 20
0.0
 30
0.0
  0
LINE
  8
CSLAYER3
  6
CONTINUOUS
 62
     3
 10
2847.526438
 20
7801.212598
 11
2841.361953
 21
7713.056356
  0
LINE
  8
CSLAYER3
  6
CONTINUOUS
 62
     3
 10
2897.632376
 20
7776.657570
 11
2794.392093
 21
7783.876834
  0
LINE
  8
CSLAYER3
  6
CONTINUOUS
 62
     3
 10
2845.015205
 20
7765.300292
 11
2822.108759
 21
7766.902067
  0
LINE
  8
CSLAYER3
  6
CONTINUOUS
 62
     3
 10
2834.814106
 20
7703.639875
 11
2822.108759
 21
7724.203207
  0
LINE
  8
CSLAYER3
  6
CONTINUOUS
 62
     3
 10
2822.108759
 20
7724.203207
 11
2822.108759
 21
7760.887416
  0
LINE
  8
CSLAYER3
  6
CONTINUOUS
 62
     3
 10
2847.107899
 20
7795.227214
 11
2884.326787
 21
7792.624616
  0
LINE
  8
CSLAYER3
  6
CONTINUOUS
 62
     3
 10
2913.453364
 20
7774.548817
 11
2845.991796
 21
7779.266189
  0
LINE
  8
CSLAYER3
  6
CONTINUOUS
 62
     3
 10
2909.812542
 20
7776.808292
 11
2846.131309
 21
7781.261317
  0
LINE
  8
CSLAYER3
  6
CONTINUOUS
 62
     3
 10
2615.611419
 20
7795.263753
 11
2615.611419
 21
7646.705668
  0
LINE
  8
CSLAYER3
  6
CONTINUOUS
 62
     3
 10
2630.611419
 20
7780.263753
 11
2600.611419
 21
7780.263753
  0
ARC
  8
CSLAYER3
  6
CONTINUOUS
 62
     3
 10
2615.611419
 20
7780.263753
 40
15.000000
 50
0.000000
 51
180.000000
  0
LINE
  8
CSLAYER3
  6
CONTINUOUS
 62
     3
 10
2651.103425
 20
7725.611476
 11
2580.119412
 21
7725.611476
  0
LINE
  8
CSLAYER3
  6
CONTINUOUS
 62
     3
 10
2873.404321
 20
7799.403040
 11
3028.225195
 21
7703.322028
  0
LINE
  8
CSLAYER3
  6
CONTINUOUS
 62
     3
 10
2630.611419
 20
7780.263753
 11
2640.426591
 21
7725.611476
  0
LINE
  8
CSLAYER3
  6
CONTINUOUS
 62
     3
 10
2600.611419
 20
7780.263753
 11
2590.796246
 21
7725.611476
  0
LINE
  8
CSLAYER3
  6
CONTINUOUS
 62
     3
 10
2597.917522
 20
7765.263753
 11
2633.305315
 21
7765.263753
  0
LINE
  8
CSLAYER3
  6
CONTINUOUS
 62
     3
 10
2868.079048
 20
7722.544458
 11
2844.072751
 21
7715.170979
  0
LINE
  8
CSLAYER3
  6
CONTINUOUS
 62
     3
 10
2566.419205
 20
7221.047499
 11
2633.419205
 21
7221.047499
  0
LINE
  8
CSLAYER3
  6
CONTINUOUS
 62
     3
 10
2566.419205
 20
7221.047499
 11
2566.419205
 21
7263.047499
  0
LINE
  8
CSLAYER3
  6
CONTINUOUS
 62
     3
 10
2633.419205
 20
7221.047499
 11
2633.419205
 21
7263.047499
  0
LINE
  8
CSLAYER3
  6
CONTINUOUS
 62
     3
 10
2566.419205
 20
7263.047499
 11
2633.419205
 21
7263.047499
  0
LINE
  8
CSLAYER3
  6
CONTINUOUS
 62
     3
 10
2747.975062
 20
7325.141315
 11
2747.975062
 21
7307.141315
  0
LINE
  8
CSLAYER3
  6
CONTINUOUS
 62
     3
 10
2747.975062
 20
7325.141315
 11
2785.284835
 21
7325.141315
  0
LINE
  8
CSLAYER3
  6
CONTINUOUS
 62
     3
 10
2811.811799
 20
7307.141315
 11
2747.975062
 21
7307.141315
  0
LINE
  8
CSLAYER3
  6
CONTINUOUS
 62
     3
 10
2785.284835
 20
7325.141315
 11
2811.811799
 21
7307.141315
  0
CIRCLE
  8
CSLAYER3
  6
CONTINUOUS
 62
     3
 10
2669.753789
 20
7209.582447
 40
2.000000
  0
LINE
  8
CSLAYER3
  6
CONTINUOUS
 62
     3
 10
2644.263961
 20
7184.582447
 11
2659.753789
 21
7184.582447
  0
ARC
  8
CSLAYER3
  6
CONTINUOUS
 62
     3
 10
2669.753789
 20
7184.582447
 40
10.000000
 50
0.000000
 51
180.000000
  0
LINE
  8
CSLAYER3
  6
CONTINUOUS
 62
     3
 10
2679.753789
 20
7184.582447
 11
2695.243617
 21
7184.582447
  0
LINE
  8
CSLAYER3
  6
CONTINUOUS
 62
     3
 10
2711.003028
 20
7170.826577
 11
2681.003028
 21
7170.826577
  0
LINE
  8
CSLAYER3
  6
CONTINUOUS
 62
     3
 10
2711.003028
 20
7170.826577
 11
2713.696925
 21
7155.826577
  0
LINE
  8
CSLAYER3
  6
CONTINUOUS
 62
     3
 10
2681.003028
 20
7170.826577
 11
2678.309132
 21
7155.826577
  0
LINE
  8
CSLAYER3
  6
CONTINUOUS
 62
     3
 10
2678.309132
 20
7155.826577
 11
2686.003028
 21
7155.826577
  0
ARC
  8
CSLAYER3
  6
CONTINUOUS
 62
     3
 10
2696.003028
 20
7155.826577
 40
10.000000
 50
0.000000
 51
180.000000
  0
LINE
  8
CSLAYER3
  6
CONTINUOUS
 62
     3
 10
2706.003028
 20
7155.826577
 11
2713.696925
 21
7155.826577
  0
LINE
  8
CSLAYER3
  6
CONTINUOUS
 62
     3
 10
2653.822170
 20
7173.457273
 11
2582.838157
 21
7173.457273
  0
LINE
  8
CSLAYER3
  6
CONTINUOUS
 62
     3
 10
2653.822170
 20
7145.457273
 11
2582.838157
 21
7145.457273
  0
LINE
  8
CSLAYER3
  6
CONTINUOUS
 62
     3
 10
2653.822170
 20
7173.457273
 11
2653.822170
 21
7145.457273
  0
LINE
  8
CSLAYER3
  6
CONTINUOUS
 62
     3
 10
2582.838157
 20
7173.457273
 11
2582.838157
 21
7145.457273
  0
LINE
  8
CSLAYER3
  6
CONTINUOUS
 62
     3
 10
2812.752353
 20
7114.771154
 11
2741.768339
 21
7114.771154
  0
LINE
  8
CSLAYER3
  6
CONTINUOUS
 62
     3
 10
2812.752353
 20
7179.771154
 11
2741.768339
 21
7179.771154
  0
LINE
  8
CSLAYER3
  6
CONTINUOUS
 62
     3
 10
2812.752353
 20
7179.771154
 11
2812.752353
 21
7114.771154
  0
LINE
  8
CSLAYER3
  6
CONTINUOUS
 62
     3
 10
2741.768339
 20
7179.771154
 11
2741.768339
 21
7114.771154
  0
LINE
  8
CSLAYER3
  6
CONTINUOUS
 62
     3
 10
3024.212938
 20
7038.765800
 11
3281.212938
 21
7038.765800
  0
LINE
  8
CSLAYER3
  6
CONTINUOUS
 62
     3
 10
3024.212938
 20
7110.765800
 11
3281.212938
 21
7110.765800
  0
LINE
  8
CSLAYER3
  6
CONTINUOUS
 62
     3
 10
3024.212938
 20
7110.765800
 11
3024.212938
 21
7038.765800
  0
LINE
  8
CSLAYER3
  6
CONTINUOUS
 62
     3
 10
3281.212938
 20
7110.765800
 11
3281.212938
 21
7038.765800
  0
LINE
  8
CSLAYER3
  6
CONTINUOUS
 62
     3
 10
3821.898024
 20
6981.124641
 11
3821.898024
 21
6962.050028
  0
LINE
  8
CSLAYER3
  6
CONTINUOUS
 62
     3
 10
3301.333445
 20
6981.124641
 11
3334.280503
 21
6981.124641
  0
LINE
  8
CSLAYER3
  6
CONTINUOUS
 62
     3
 10
3697.417704
 20
6962.050028
 11
3697.417704
 21
6985.142511
  0
LINE
  8
CSLAYER3
  6
CONTINUOUS
 62
     3
 10
3279.598320
 20
6981.177591
 11
3239.711306
 21
6981.177591
  0
CIRCLE
  8
CSLAYER3
  6
CONTINUOUS
 62
     3
 10
3259.654813
 20
6964.606391
 40
5.500000
  0
ARC
  8
CSLAYER3
  6
CONTINUOUS
 62
     3
 10
2669.753789
 20
7209.582447
 40
21.000000
 50
0.000000
 51
180.000000
  0
LINE
  8
CSLAYER3
  6
CONTINUOUS
 62
     3
 10
2873.404321
 20
7799.403040
 11
2847.526438
 21
7801.212598
  0
LINE
  8
CSLAYER3
  6
CONTINUOUS
 62
     3
 10
2949.861586
 20
7751.954068
 11
2822.108759
 21
7760.887416
  0
LINE
  8
CSLAYER3
  6
CONTINUOUS
 62
     3
 10
2690.753789
 20
7209.582447
 11
2695.243617
 21
7184.582447
  0
LINE
  8
CSLAYER3
  6
CONTINUOUS
 62
     3
 10
2648.753789
 20
7209.582447
 11
2644.263961
 21
7184.582447
  0
CIRCLE
  8
CSLAYER3
  6
CONTINUOUS
 62
     3
 10
2615.611419
 20
7780.263753
 40
2.000000
  0
LINE
  8
CSLAYER3
  6
CONTINUOUS
 62
     3
 10
2592.866216
 20
7755.263753
 11
2605.611419
 21
7755.263753
  0
ARC
  8
CSLAYER3
  6
CONTINUOUS
 62
     3
 10
2615.611419
 20
7755.263753
 40
10.000000
 50
0.000000
 51
180.000000
  0
LINE
  8
CSLAYER3
  6
CONTINUOUS
 62
     3
 10
2625.611419
 20
7755.263753
 11
2638.356622
 21
7755.263753
  0
ARC
  8
CSLAYER3
  6
CONTINUOUS
 62
     3
 10
2615.611419
 20
7780.263753
 40
21.000000
 50
0.000000
 51
180.000000
  0
LINE
  8
CSLAYER3
  6
CONTINUOUS
 62
     3
 10
2636.611419
 20
7780.263753
 11
2640.426591
 21
7725.611476
  0
LINE
  8
CSLAYER3
  6
CONTINUOUS
 62
     3
 10
2594.611419
 20
7780.263753
 11
2590.796246
 21
7725.611476
  0
LINE
  8
CSLAYER3
  6
CONTINUOUS
 62
     3
 10
3060.212938
 20
7069.765800
 11
3125.212938
 21
7069.765800
  0
LINE
  8
CSLAYER3
  6
CONTINUOUS
 62
     3
 10
3060.212938
 20
7079.765800
 11
3125.212938
 21
7079.765800
  0
LINE
  8
CSLAYER3
  6
CONTINUOUS
 62
     3
 10
2856.075899
 20
7728.148154
 11
2856.075899
 21
7685.681630
  0
INSERT
  8
CSLAYER1
  2
BLKF0014
 10
0.0
 20
0.0
 30
0.0
  0
INSERT
  8
CSLAYER1
  2
BLKF0015
 10
0.0
 20
0.0
 30
0.0
  0
LINE
  8
CSLAYER3
  6
CONTINUOUS
 62
     3
 10
3074.109791
 20
7228.329596
 11
3074.109791
 21
7185.863072
  0
LINE
  8
CSLAYER3
  6
CONTINUOUS
 62
     3
 10
3052.847997
 20
7203.821317
 11
3052.591486
 21
7195.874175
  0
LINE
  8
CSLAYER3
  6
CONTINUOUS
 62
     3
 10
3052.591486
 20
7195.874175
 11
3074.109791
 21
7195.179625
  0
LINE
  8
CSLAYER3
  6
CONTINUOUS
 62
     3
 10
3052.847997
 20
7203.821317
 11
3056.101446
 21
7210.667923
  0
LINE
  8
CSLAYER3
  6
CONTINUOUS
 62
     3
 10
3056.101446
 20
7210.667923
 11
3062.106643
 21
7215.352421
  0
LINE
  8
CSLAYER3
  6
CONTINUOUS
 62
     3
 10
3062.106643
 20
7215.352421
 11
3074.195539
 21
7219.596638
  0
LINE
  8
CSLAYER3
  6
CONTINUOUS
 62
     3
 10
3309.757561
 20
7187.573587
 11
3273.413429
 21
7196.493654
  0
LINE
  8
CSLAYER3
  6
CONTINUOUS
 62
     3
 10
3122.696888
 20
7225.975589
 11
3111.785786
 21
7225.474694
  0
LINE
  8
CSLAYER3
  6
CONTINUOUS
 62
     3
 10
3111.785786
 20
7225.474694
 11
3086.112939
 21
7222.725900
  0
LINE
  8
CSLAYER3
  6
CONTINUOUS
 62
     3
 10
3086.112939
 20
7222.725900
 11
3074.195539
 21
7219.596638
  0
LINE
  8
CSLAYER3
  6
CONTINUOUS
 62
     3
 10
3142.847203
 20
7225.384373
 11
3152.086418
 21
7224.292264
  0
LINE
  8
CSLAYER3
  6
CONTINUOUS
 62
     3
 10
3152.086418
 20
7224.292264
 11
3186.575945
 21
7218.910503
  0
LINE
  8
CSLAYER3
  6
CONTINUOUS
 62
     3
 10
3186.575945
 20
7218.910503
 11
3273.413429
 21
7196.493654
  0
LINE
  8
CSLAYER3
  6
CONTINUOUS
 62
     3
 10
3074.109791
 20
7195.179625
 11
3225.257271
 21
7190.301016
  0
LINE
  8
CSLAYER3
  6
CONTINUOUS
 62
     3
 10
3225.257271
 20
7190.301016
 11
3309.757561
 21
7187.573587
  0
LINE
  8
CSLAYER3
  6
CONTINUOUS
 62
     3
 10
3031.944770
 20
7704.553334
 11
3031.694817
 21
7703.565710
  0
LINE
  8
CSLAYER3
  6
CONTINUOUS
 62
     3
 10
3015.149822
 20
7720.667998
 11
3015.149822
 21
7685.681630
  0
LINE
  8
CSLAYER3
  6
CONTINUOUS
 62
     3
 10
3225.257271
 20
7237.990878
 11
3225.257271
 21
7149.500824
  0
LINE
  8
CSLAYER3
  6
CONTINUOUS
 62
     3
 10
3060.212938
 20
7099.765800
 11
3060.212938
 21
7079.765800
  0
LINE
  8
CSLAYER3
  6
CONTINUOUS
 62
     3
 10
3125.212938
 20
7099.765800
 11
3125.212938
 21
7079.765800
  0
LINE
  8
CSLAYER3
  6
CONTINUOUS
 62
     3
 10
3060.212938
 20
7099.765800
 11
3125.212938
 21
7099.765800
  0
LINE
  8
CSLAYER3
  6
CONTINUOUS
 62
     3
 10
3060.212938
 20
7049.765800
 11
3125.212938
 21
7049.765800
  0
LINE
  8
CSLAYER3
  6
CONTINUOUS
 62
     3
 10
3125.212938
 20
7069.765800
 11
3125.212938
 21
7049.765800
  0
LINE
  8
CSLAYER3
  6
CONTINUOUS
 62
     3
 10
3060.212938
 20
7069.765800
 11
3060.212938
 21
7049.765800
  0
CIRCLE
  8
CSLAYER3
  6
CONTINUOUS
 62
     3
 10
3045.212938
 20
7104.765800
 40
2.000000
  0
CIRCLE
  8
CSLAYER3
  6
CONTINUOUS
 62
     3
 10
3045.212938
 20
7044.765800
 40
2.000000
  0
CIRCLE
  8
CSLAYER3
  6
CONTINUOUS
 62
     3
 10
3201.212938
 20
7104.765800
 40
2.000000
  0
CIRCLE
  8
CSLAYER3
  6
CONTINUOUS
 62
     3
 10
3201.212938
 20
7044.765800
 40
2.000000
  0
CIRCLE
  8
CSLAYER3
  6
CONTINUOUS
 62
     3
 10
3317.806974
 20
6968.821311
 40
5.000000
  0
LINE
  8
CSLAYER3
  6
CONTINUOUS
 62
     3
 10
3259.654813
 20
6949.106391
 11
3259.654813
 21
6959.106391
  0
LINE
  8
CSLAYER3
  6
CONTINUOUS
 62
     3
 10
3317.806974
 20
6953.071311
 11
3317.806974
 21
6963.821311
  0
CIRCLE
  8
CSLAYER3
  6
CONTINUOUS
 62
     3
 10
3624.188097
 20
6924.126638
 40
16.226489
  0
CIRCLE
  8
CSLAYER3
  6
CONTINUOUS
 62
     3
 10
3682.438157
 20
6924.126638
 40
16.226489
  0
CIRCLE
  8
CSLAYER3
  6
CONTINUOUS
 62
     3
 10
3740.688218
 20
6924.126638
 40
16.226489
  0
CIRCLE
  8
CSLAYER3
  6
CONTINUOUS
 62
     3
 10
2677.178410
 20
7217.007068
 40
1.500000
  0
CIRCLE
  8
CSLAYER3
  6
CONTINUOUS
 62
     3
 10
2662.329168
 20
7217.007068
 40
1.500000
  0
CIRCLE
  8
CSLAYER3
  6
CONTINUOUS
 62
     3
 10
2662.329168
 20
7202.157825
 40
1.500000
  0
CIRCLE
  8
CSLAYER3
  6
CONTINUOUS
 62
     3
 10
2677.178410
 20
7202.157825
 40
1.500000
  0
CIRCLE
  8
CSLAYER3
  6
CONTINUOUS
 62
     3
 10
2669.753789
 20
7199.082447
 40
2.686849
  0
INSERT
  8
CSLAYER1
  2
BLKF0016
 10
0.0
 20
0.0
 30
0.0
  0
LINE
  8
CSLAYER3
  6
CONTINUOUS
 62
     3
 10
2994.180518
 20
7074.765800
 11
3035.885603
 21
7074.765800
  0
INSERT
  8
CSLAYER1
  2
BLKF0017
 10
0.0
 20
0.0
 30
0.0
  0
LINE
  8
CSLAYER3
  6
CONTINUOUS
 62
     3
 10
2933.721983
 20
7075.095186
 11
2933.721983
 21
7050.095186
  0
LINE
  8
CSLAYER3
  6
CONTINUOUS
 62
     3
 10
2881.879188
 20
7075.095186
 11
2933.721983
 21
7075.095186
  0
LINE
  8
CSLAYER3
  6
CONTINUOUS
 62
     3
 10
2881.879188
 20
7075.095186
 11
2881.879188
 21
7050.095186
  0
LINE
  8
CSLAYER3
  6
CONTINUOUS
 62
     3
 10
2881.879188
 20
7050.095186
 11
2933.721983
 21
7050.095186
  0
LINE
  8
CSLAYER3
  6
CONTINUOUS
 62
     3
 10
2916.594775
 20
7066.122452
 11
2893.594775
 21
7066.122452
  0
LINE
  8
CSLAYER3
  6
CONTINUOUS
 62
     3
 10
2893.594775
 20
7066.122452
 11
2893.594775
 21
7056.122452
  0
LINE
  8
CSLAYER3
  6
CONTINUOUS
 62
     3
 10
2893.594775
 20
7056.122452
 11
2916.594775
 21
7056.122452
  0
LINE
  8
CSLAYER3
  6
CONTINUOUS
 62
     3
 10
2916.594775
 20
7056.122452
 11
2916.594775
 21
7066.122452
  0
CIRCLE
  8
CSLAYER3
  6
CONTINUOUS
 62
     3
 10
2891.094775
 20
7061.122452
 40
1.000000
  0
CIRCLE
  8
CSLAYER3
  6
CONTINUOUS
 62
     3
 10
2919.094775
 20
7061.122452
 40
1.000000
  0
LINE
  8
CSLAYER3
  6
CONTINUOUS
 62
     3
 10
2943.721983
 20
7075.095186
 11
2943.721983
 21
7050.095186
  0
LINE
  8
CSLAYER3
  6
CONTINUOUS
 62
     3
 10
2968.721983
 20
7075.095186
 11
2968.721983
 21
7050.095186
  0
LINE
  8
CSLAYER3
  6
CONTINUOUS
 62
     3
 10
2943.721983
 20
7050.095186
 11
2968.721983
 21
7050.095186
  0
LINE
  8
CSLAYER3
  6
CONTINUOUS
 62
     3
 10
2968.721983
 20
7050.095186
 11
2943.721983
 21
7075.095186
  0
LINE
  8
CSLAYER3
  6
CONTINUOUS
 62
     3
 10
2943.721983
 20
7075.095186
 11
2968.721983
 21
7075.095186
  0
LINE
  8
CSLAYER3
  6
CONTINUOUS
 62
     3
 10
2933.460919
 20
7044.028487
 11
2933.460919
 21
7019.028487
  0
LINE
  8
CSLAYER3
  6
CONTINUOUS
 62
     3
 10
2881.618124
 20
7044.028487
 11
2933.460919
 21
7044.028487
  0
LINE
  8
CSLAYER3
  6
CONTINUOUS
 62
     3
 10
2881.618124
 20
7044.028487
 11
2881.618124
 21
7019.028487
  0
LINE
  8
CSLAYER3
  6
CONTINUOUS
 62
     3
 10
2881.618124
 20
7019.028487
 11
2933.460919
 21
7019.028487
  0
LINE
  8
CSLAYER3
  6
CONTINUOUS
 62
     3
 10
2916.333711
 20
7035.055753
 11
2893.333711
 21
7035.055753
  0
LINE
  8
CSLAYER3
  6
CONTINUOUS
 62
     3
 10
2893.333711
 20
7035.055753
 11
2893.333711
 21
7025.055753
  0
LINE
  8
CSLAYER3
  6
CONTINUOUS
 62
     3
 10
2893.333711
 20
7025.055753
 11
2916.333711
 21
7025.055753
  0
LINE
  8
CSLAYER3
  6
CONTINUOUS
 62
     3
 10
2916.333711
 20
7025.055753
 11
2916.333711
 21
7035.055753
  0
CIRCLE
  8
CSLAYER3
  6
CONTINUOUS
 62
     3
 10
2890.833711
 20
7030.055753
 40
1.000000
  0
CIRCLE
  8
CSLAYER3
  6
CONTINUOUS
 62
     3
 10
2918.833711
 20
7030.055753
 40
1.000000
  0
LINE
  8
CSLAYER3
  6
CONTINUOUS
 62
     3
 10
2943.460919
 20
7044.028487
 11
2943.460919
 21
7019.028487
  0
LINE
  8
CSLAYER3
  6
CONTINUOUS
 62
     3
 10
2968.460919
 20
7044.028487
 11
2968.460919
 21
7019.028487
  0
LINE
  8
CSLAYER3
  6
CONTINUOUS
 62
     3
 10
2943.460919
 20
7019.028487
 11
2968.460919
 21
7019.028487
  0
LINE
  8
CSLAYER3
  6
CONTINUOUS
 62
     3
 10
2968.460919
 20
7019.028487
 11
2943.460919
 21
7044.028487
  0
LINE
  8
CSLAYER3
  6
CONTINUOUS
 62
     3
 10
2943.460919
 20
7044.028487
 11
2968.460919
 21
7044.028487
  0
INSERT
  8
CSLAYER1
  2
BLKF0018
 10
0.0
 20
0.0
 30
0.0
  0
LINE
  8
CSLAYER3
  6
CONTINUOUS
 62
     3
 10
3229.087011
 20
6809.874730
 11
3277.307882
 21
6918.371691
  0
LINE
  8
CSLAYER3
  6
CONTINUOUS
 62
     3
 10
3002.194686
 20
6875.874730
 11
3027.446929
 21
6943.263881
  0
LINE
  8
CSLAYER3
  6
CONTINUOUS
 62
     3
 10
3027.076491
 20
6942.275317
 11
3284.242567
 21
6933.974730
  0
LINE
  8
CSLAYER3
  6
CONTINUOUS
 62
     3
 10
3281.805963
 20
6928.492371
 11
3122.204502
 21
6928.492371
  0
LINE
  8
CSLAYER3
  6
CONTINUOUS
 62
     3
 10
3122.204502
 20
6928.492371
 11
3122.204502
 21
6917.492371
  0
LINE
  8
CSLAYER3
  6
CONTINUOUS
 62
     3
 10
3122.204502
 20
6917.492371
 11
3277.307882
 21
6918.371691
  0
LINE
  8
CSLAYER3
  6
CONTINUOUS
 62
     3
 10
3002.194686
 20
6875.874730
 11
3002.194686
 21
6809.874730
  0
LINE
  8
CSLAYER3
  6
CONTINUOUS
 62
     3
 10
3229.087011
 20
6809.874730
 11
3002.194686
 21
6809.874730
  0
CIRCLE
  8
CSLAYER3
  6
CONTINUOUS
 62
     3
 10
3057.204527
 20
6878.530057
 40
16.226489
  0
CIRCLE
  8
CSLAYER3
  6
CONTINUOUS
 62
     3
 10
3115.454588
 20
6878.530057
 40
16.226489
  0
CIRCLE
  8
CSLAYER3
  6
CONTINUOUS
 62
     3
 10
3173.704648
 20
6878.530057
 40
16.226489
  0
LINE
  8
CSLAYER3
  6
CONTINUOUS
 62
     3
 10
3281.805963
 20
6928.492371
 11
3284.242567
 21
6933.974730
  0
LINE
  8
CSLAYER3
  6
CONTINUOUS
 62
     3
 10
3334.280503
 20
6981.124641
 11
3318.022628
 21
6952.600606
  0
LINE
  8
CSLAYER3
  6
CONTINUOUS
 62
     3
 10
3318.022628
 20
6952.600606
 11
3301.333445
 21
6981.124641
  0
LINE
  8
CSLAYER3
  6
CONTINUOUS
 62
     3
 10
3259.654813
 20
6949.106391
 11
3279.598320
 21
6981.177591
  0
LINE
  8
CSLAYER3
  6
CONTINUOUS
 62
     3
 10
3259.654813
 20
6949.106391
 11
3239.711306
 21
6981.177591
  0
LINE
  8
CSLAYER3
  6
CONTINUOUS
 62
     3
 10
3259.654813
 20
6970.106391
 11
3259.654813
 21
6981.177591
  0
LINE
  8
CSLAYER3
  6
CONTINUOUS
 62
     3
 10
3317.806974
 20
6973.821311
 11
3317.806974
 21
6981.124641
  0
INSERT
  8
CSLAYER1
  2
BLKF0019
 10
0.0
 20
0.0
 30
0.0
  0
INSERT
  8
CSLAYER1
  2
BLKF0020
 10
0.0
 20
0.0
 30
0.0
  0
INSERT
  8
CSLAYER1
  2
BLKF0021
 10
0.0
 20
0.0
 30
0.0
  0
INSERT
  8
CSLAYER1
  2
BLKF0022
 10
0.0
 20
0.0
 30
0.0
  0
INSERT
  8
CSLAYER1
  2
BLKF0023
 10
0.0
 20
0.0
 30
0.0
  0
INSERT
  8
CSLAYER1
  2
BLKF0024
 10
0.0
 20
0.0
 30
0.0
  0
INSERT
  8
CSLAYER1
  2
BLKF0025
 10
0.0
 20
0.0
 30
0.0
  0
INSERT
  8
CSLAYER1
  2
BLKF0026
 10
0.0
 20
0.0
 30
0.0
  0
INSERT
  8
CSLAYER1
  2
BLKF0027
 10
0.0
 20
0.0
 30
0.0
  0
INSERT
  8
CSLAYER1
  2
BLKF0028
 10
0.0
 20
0.0
 30
0.0
  0
INSERT
  8
CSLAYER1
  2
BLKF0029
 10
0.0
 20
0.0
 30
0.0
  0
INSERT
  8
CSLAYER1
  2
BLKF0030
 10
0.0
 20
0.0
 30
0.0
  0
INSERT
  8
CSLAYER1
  2
BLKF0031
 10
0.0
 20
0.0
 30
0.0
  0
INSERT
  8
CSLAYER1
  2
BLKF0032
 10
0.0
 20
0.0
 30
0.0
  0
INSERT
  8
CSLAYER1
  2
BLKF0033
 10
0.0
 20
0.0
 30
0.0
  0
INSERT
  8
CSLAYER1
  2
BLKF0034
 10
0.0
 20
0.0
 30
0.0
  0
INSERT
  8
CSLAYER1
  2
BLKF0035
 10
0.0
 20
0.0
 30
0.0
  0
INSERT
  8
CSLAYER1
  2
BLKF0036
 10
0.0
 20
0.0
 30
0.0
  0
LINE
  8
CSLAYER3
  6
CONTINUOUS
 62
     3
 10
2345.707816
 20
7226.951395
 11
1462.521871
 21
7226.951395
  0
LINE
  8
CSLAYER3
  6
CONTINUOUS
 62
     3
 10
1462.521871
 20
7226.951395
 11
1462.521871
 21
6705.068791
  0
LINE
  8
CSLAYER3
  6
CONTINUOUS
 62
     3
 10
1462.521871
 20
6705.068791
 11
2345.707816
 21
6705.068791
  0
LINE
  8
CSLAYER3
  6
CONTINUOUS
 62
     3
 10
2345.707816
 20
6705.068791
 11
2345.707816
 21
7226.951395
  0
DIMENSION
  8
CSLAYER3
 62
     7
  2
*D0008
 10
2153.684534
 20
7152.895837
 11
2150.684570
 21
7084.268066
 13
2074.420524
 23
7015.639819
 14
1890.995939
 24
7152.895837
 50
90.000000
  0
DIMENSION
  8
CSLAYER3
 62
     7
  2
*D0009
 10
1506.962016
 20
6965.965418
 11
1503.962036
 21
6894.473633
 13
1539.380504
 23
6822.981405
 14
1729.207312
 24
6965.965418
 50
90.000000
  0
DIMENSION
  8
CSLAYER3
 62
     7
  2
*D0010
 10
1951.914157
 20
6956.937623
 11
1948.914185
 21
6890.737305
 13
1961.308887
 23
6824.537035
 14
1986.190693
 24
6956.937623
 50
90.000000
  0
DIMENSION
  8
CSLAYER3
 62
     7
  2
*D0011
 10
1912.447171
 20
6785.854037
 11
1725.913818
 21
6788.854004
 13
1539.380504
 23
6822.981405
 14
1912.447171
 24
6822.981405
 52
270.000000
 70
1
  0
DIMENSION
  8
CSLAYER3
 62
     7
  2
*D0012
 10
2243.356768
 20
6794.664971
 11
2102.332764
 21
6797.665039
 13
1961.308887
 23
6824.537035
 14
2243.356768
 24
6948.637035
 52
270.000000
  0
DIMENSION
  8
CSLAYER3
 62
     7
  2
*D0013
 10
2075.145915
 20
7174.416204
 11
1946.283203
 21
7177.416016
 13
1817.420524
 23
7087.639819
 14
2075.145915
 24
7152.895837
  0
INSERT
  8
CSLAYER1
  2
BLKF0037
 10
0.0
 20
0.0
 30
0.0
  0
DIMENSION
  8
CSLAYER3
 62
     7
  2
*D0014
 10
1867.044049
 20
6991.796030
 11
1741.633667
 21
6994.795898
 13
1616.223299
 23
6959.981405
 14
1867.044049
 24
6920.471232
  0
DIMENSION
  8
CSLAYER3
 62
     7
  2
*D0015
 10
1593.627536
 20
6965.965418
 11
1590.627563
 21
6930.473633
 13
1616.223299
 23
6894.981405
 14
1729.207312
 24
6965.965418
 50
90.000000
  0
INSERT
  8
CSLAYER1
  2
BLKF0038
 10
0.0
 20
0.0
 30
0.0
  0
INSERT
  8
CSLAYER1
  2
BLKF0039
 10
0.0
 20
0.0
 30
0.0
  0
INSERT
  8
CSLAYER1
  2
BLKF0040
 10
0.0
 20
0.0
 30
0.0
  0
INSERT
  8
CSLAYER1
  2
BLKF0041
 10
0.0
 20
0.0
 30
0.0
  0
INSERT
  8
CSLAYER1
  2
BLKF0042
 10
0.0
 20
0.0
 30
0.0
  0
CIRCLE
  8
CSLAYER3
  6
CONTINUOUS
 62
     3
 10
1584.282674
 20
7150.523993
 40
0.700000
  0
CIRCLE
  8
CSLAYER3
  6
CONTINUOUS
 62
     3
 10
1559.632674
 20
7150.523993
 40
0.700000
  0
CIRCLE
  8
CSLAYER3
  6
CONTINUOUS
 62
     3
 10
1584.282674
 20
7129.509993
 40
0.700000
  0
CIRCLE
  8
CSLAYER3
  6
CONTINUOUS
 62
     3
 10
1559.632674
 20
7129.509993
 40
0.700000
  0
INSERT
  8
CSLAYER1
  2
BLKF0043
 10
0.0
 20
0.0
 30
0.0
  0
INSERT
  8
CSLAYER1
  2
BLKF0044
 10
0.0
 20
0.0
 30
0.0
  0
INSERT
  8
CSLAYER1
  2
BLKF0045
 10
0.0
 20
0.0
 30
0.0
  0
INSERT
  8
CSLAYER1
  2
BLKF0046
 10
0.0
 20
0.0
 30
0.0
  0
INSERT
  8
CSLAYER1
  2
BLKF0047
 10
0.0
 20
0.0
 30
0.0
  0
CIRCLE
  8
CSLAYER3
  6
CONTINUOUS
 62
     3
 10
1626.082674
 20
7150.523993
 40
0.700000
  0
CIRCLE
  8
CSLAYER3
  6
CONTINUOUS
 62
     3
 10
1601.432674
 20
7150.523993
 40
0.700000
  0
CIRCLE
  8
CSLAYER3
  6
CONTINUOUS
 62
     3
 10
1626.082674
 20
7129.509993
 40
0.700000
  0
CIRCLE
  8
CSLAYER3
  6
CONTINUOUS
 62
     3
 10
1601.432674
 20
7129.509993
 40
0.700000
  0
INSERT
  8
CSLAYER1
  2
BLKF0048
 10
0.0
 20
0.0
 30
0.0
  0
INSERT
  8
CSLAYER1
  2
BLKF0049
 10
0.0
 20
0.0
 30
0.0
  0
CIRCLE
  8
CSLAYER3
  6
CONTINUOUS
 62
     3
 10
1667.882674
 20
7150.523993
 40
0.700000
  0
CIRCLE
  8
CSLAYER3
  6
CONTINUOUS
 62
     3
 10
1643.232674
 20
7150.523993
 40
0.700000
  0
CIRCLE
  8
CSLAYER3
  6
CONTINUOUS
 62
     3
 10
1667.882674
 20
7129.509993
 40
0.700000
  0
CIRCLE
  8
CSLAYER3
  6
CONTINUOUS
 62
     3
 10
1643.232674
 20
7129.509993
 40
0.700000
  0
INSERT
  8
CSLAYER1
  2
BLKF0050
 10
0.0
 20
0.0
 30
0.0
  0
INSERT
  8
CSLAYER1
  2
BLKF0051
 10
0.0
 20
0.0
 30
0.0
  0
LINE
  8
CSLAYER3
  6
CONTINUOUS
 62
     3
 10
3506.021449
 20
7667.546012
 11
3486.398266
 21
7667.546012
  0
LINE
  8
CSLAYER3
  6
CONTINUOUS
 62
     3
 10
3979.779633
 20
7976.963179
 11
4126.945153
 21
7976.963179
  0
LINE
  8
CSLAYER3
  6
CONTINUOUS
 62
     3
 10
3979.779633
 20
7961.641650
 11
3985.439749
 21
7950.095517
  0
INSERT
  8
CSLAYER1
  2
BLKF0052
 10
0.0
 20
0.0
 30
0.0
  0
LINE
  8
CSLAYER3
  6
CONTINUOUS
 62
     3
 10
4005.062932
 20
7950.095517
 11
3985.439749
 21
7950.095517
  0
LINE
  8
CSLAYER3
  6
CONTINUOUS
 62
     3
 10
3979.779633
 20
7961.641650
 11
3979.779633
 21
7976.963179
  0
LINE
  8
CSLAYER3
  6
CONTINUOUS
 62
     3
 10
3979.779633
 20
7969.941650
 11
4126.945153
 21
7969.941650
  0
LINE
  8
CSLAYER3
  6
CONTINUOUS
 62
     3
 10
3979.779633
 20
7961.641650
 11
4126.945153
 21
7961.641650
  0
LINE
  8
CSLAYER3
  6
CONTINUOUS
 62
     3
 10
4126.826291
 20
7956.831629
 11
4126.826291
 21
7976.963179
  0
LINE
  8
CSLAYER3
  6
CONTINUOUS
 62
     3
 10
3979.171230
 20
8012.598510
 11
3979.171230
 21
8028.151963
  0
LINE
  8
CSLAYER3
  6
CONTINUOUS
 62
     3
 10
3979.171230
 20
8028.151963
 11
3985.207870
 21
8040.466171
  0
LINE
  8
CSLAYER3
  6
CONTINUOUS
 62
     3
 10
3985.207870
 20
8040.466171
 11
4006.275827
 21
8040.466171
  0
LINE
  8
CSLAYER3
  6
CONTINUOUS
 62
     3
 10
4006.275827
 20
8040.466171
 11
4006.567874
 21
8038.992253
  0
LINE
  8
CSLAYER3
  6
CONTINUOUS
 62
     3
 10
4006.567874
 20
8038.992253
 11
4006.941871
 21
8038.560846
  0
LINE
  8
CSLAYER3
  6
CONTINUOUS
 62
     3
 10
4006.941871
 20
8038.560846
 11
4008.199999
 21
8037.790066
  0
LINE
  8
CSLAYER3
  6
CONTINUOUS
 62
     3
 10
4008.199999
 20
8037.790066
 11
4010.560590
 21
8036.983359
  0
LINE
  8
CSLAYER3
  6
CONTINUOUS
 62
     3
 10
4010.560590
 20
8036.983359
 11
4013.929470
 21
8036.143033
  0
LINE
  8
CSLAYER3
  6
CONTINUOUS
 62
     3
 10
4013.929470
 20
8036.143033
 11
4016.851657
 21
8035.563458
  0
LINE
  8
CSLAYER3
  6
CONTINUOUS
 62
     3
 10
4016.851657
 20
8035.563458
 11
4022.264883
 21
8034.759825
  0
LINE
  8
CSLAYER3
  6
CONTINUOUS
 62
     3
 10
4022.264883
 20
8034.759825
 11
4029.494301
 21
8033.829776
  0
LINE
  8
CSLAYER3
  6
CONTINUOUS
 62
     3
 10
4029.494301
 20
8033.829776
 11
4036.380826
 21
8033.150334
  0
LINE
  8
CSLAYER3
  6
CONTINUOUS
 62
     3
 10
4036.380826
 20
8033.150334
 11
4041.141904
 21
8032.822154
  0
LINE
  8
CSLAYER3
  6
CONTINUOUS
 62
     3
 10
4041.141904
 20
8032.822154
 11
4056.622201
 21
8032.019431
  0
LINE
  8
CSLAYER3
  6
CONTINUOUS
 62
     3
 10
4056.622201
 20
8032.019431
 11
4069.215520
 21
8031.791747
  0
LINE
  8
CSLAYER3
  6
CONTINUOUS
 62
     3
 10
4069.215520
 20
8031.791747
 11
4085.192254
 21
8031.787367
  0
LINE
  8
CSLAYER3
  6
CONTINUOUS
 62
     3
 10
4085.192254
 20
8031.787367
 11
4095.163363
 21
8032.070547
  0
LINE
  8
CSLAYER3
  6
CONTINUOUS
 62
     3
 10
4095.163363
 20
8032.070547
 11
4113.492915
 21
8032.819418
  0
LINE
  8
CSLAYER3
  6
CONTINUOUS
 62
     3
 10
4113.492915
 20
8032.819418
 11
4128.217888
 21
8033.657008
  0
LINE
  8
CSLAYER3
  6
CONTINUOUS
 62
     3
 10
3979.171230
 20
8012.598510
 11
4148.217888
 21
8012.598510
  0
LINE
  8
CSLAYER3
  6
CONTINUOUS
 62
     3
 10
4259.966914
 20
7952.095517
 11
4259.966914
 21
7965.169830
  0
LINE
  8
CSLAYER3
  6
CONTINUOUS
 62
     3
 10
4259.966914
 20
7965.169830
 11
4259.982133
 21
7965.518401
  0
LINE
  8
CSLAYER3
  6
CONTINUOUS
 62
     3
 10
4259.982133
 20
7965.518401
 11
4260.024823
 21
7965.842665
  0
LINE
  8
CSLAYER3
  6
CONTINUOUS
 62
     3
 10
4260.024823
 20
7965.842665
 11
4260.095613
 21
7966.161975
  0
LINE
  8
CSLAYER3
  6
CONTINUOUS
 62
     3
 10
4260.095613
 20
7966.161975
 11
4260.193962
 21
7966.473900
  0
LINE
  8
CSLAYER3
  6
CONTINUOUS
 62
     3
 10
4260.193962
 20
7966.473900
 11
4260.319123
 21
7966.776066
  0
LINE
  8
CSLAYER3
  6
CONTINUOUS
 62
     3
 10
4260.319123
 20
7966.776066
 11
4260.470144
 21
7967.066174
  0
LINE
  8
CSLAYER3
  6
CONTINUOUS
 62
     3
 10
4260.470144
 20
7967.066174
 11
4260.645874
 21
7967.342015
  0
LINE
  8
CSLAYER3
  6
CONTINUOUS
 62
     3
 10
4260.645874
 20
7967.342015
 11
4260.844977
 21
7967.601491
  0
LINE
  8
CSLAYER3
  6
CONTINUOUS
 62
     3
 10
4260.844977
 20
7967.601491
 11
4261.065937
 21
7967.842627
  0
LINE
  8
CSLAYER3
  6
CONTINUOUS
 62
     3
 10
4261.065937
 20
7967.842627
 11
4261.307073
 21
7968.063587
  0
LINE
  8
CSLAYER3
  6
CONTINUOUS
 62
     3
 10
4261.307073
 20
7968.063587
 11
4261.566549
 21
7968.262690
  0
LINE
  8
CSLAYER3
  6
CONTINUOUS
 62
     3
 10
4261.566549
 20
7968.262690
 11
4261.842390
 21
7968.438420
  0
LINE
  8
CSLAYER3
  6
CONTINUOUS
 62
     3
 10
4261.842390
 20
7968.438420
 11
4262.132498
 21
7968.589441
  0
LINE
  8
CSLAYER3
  6
CONTINUOUS
 62
     3
 10
4262.132498
 20
7968.589441
 11
4262.434664
 21
7968.714602
  0
LINE
  8
CSLAYER3
  6
CONTINUOUS
 62
     3
 10
4262.434664
 20
7968.714602
 11
4262.746589
 21
7968.812952
  0
LINE
  8
CSLAYER3
  6
CONTINUOUS
 62
     3
 10
4262.746589
 20
7968.812952
 11
4263.065899
 21
7968.883741
  0
LINE
  8
CSLAYER3
  6
CONTINUOUS
 62
     3
 10
4263.065899
 20
7968.883741
 11
4263.390163
 21
7968.926431
  0
LINE
  8
CSLAYER3
  6
CONTINUOUS
 62
     3
 10
4263.390163
 20
7968.926431
 11
4263.716914
 21
7968.940697
  0
LINE
  8
CSLAYER3
  6
CONTINUOUS
 62
     3
 10
4263.716914
 20
7968.940697
 11
4264.043665
 21
7968.926431
  0
LINE
  8
CSLAYER3
  6
CONTINUOUS
 62
     3
 10
4264.043665
 20
7968.926431
 11
4264.367929
 21
7968.883741
  0
LINE
  8
CSLAYER3
  6
CONTINUOUS
 62
     3
 10
4264.367929
 20
7968.883741
 11
4264.687239
 21
7968.812952
  0
LINE
  8
CSLAYER3
  6
CONTINUOUS
 62
     3
 10
4264.687239
 20
7968.812952
 11
4264.999164
 21
7968.714602
  0
LINE
  8
CSLAYER3
  6
CONTINUOUS
 62
     3
 10
4264.999164
 20
7968.714602
 11
4265.301330
 21
7968.589441
  0
LINE
  8
CSLAYER3
  6
CONTINUOUS
 62
     3
 10
4265.301330
 20
7968.589441
 11
4265.591438
 21
7968.438420
  0
LINE
  8
CSLAYER3
  6
CONTINUOUS
 62
     3
 10
4265.591438
 20
7968.438420
 11
4265.867279
 21
7968.262690
  0
LINE
  8
CSLAYER3
  6
CONTINUOUS
 62
     3
 10
4265.867279
 20
7968.262690
 11
4266.126755
 21
7968.063587
  0
LINE
  8
CSLAYER3
  6
CONTINUOUS
 62
     3
 10
4266.126755
 20
7968.063587
 11
4266.367891
 21
7967.842627
  0
LINE
  8
CSLAYER3
  6
CONTINUOUS
 62
     3
 10
4266.367891
 20
7967.842627
 11
4266.588851
 21
7967.601491
  0
LINE
  8
CSLAYER3
  6
CONTINUOUS
 62
     3
 10
4266.588851
 20
7967.601491
 11
4266.787954
 21
7967.342015
  0
LINE
  8
CSLAYER3
  6
CONTINUOUS
 62
     3
 10
4266.787954
 20
7967.342015
 11
4266.963684
 21
7967.066174
  0
LINE
  8
CSLAYER3
  6
CONTINUOUS
 62
     3
 10
4266.963684
 20
7967.066174
 11
4267.114705
 21
7966.776066
  0
LINE
  8
CSLAYER3
  6
CONTINUOUS
 62
     3
 10
4267.114705
 20
7966.776066
 11
4267.239866
 21
7966.473900
  0
LINE
  8
CSLAYER3
  6
CONTINUOUS
 62
     3
 10
4267.239866
 20
7966.473900
 11
4267.338216
 21
7966.161975
  0
LINE
  8
CSLAYER3
  6
CONTINUOUS
 62
     3
 10
4267.338216
 20
7966.161975
 11
4267.409005
 21
7965.842665
  0
LINE
  8
CSLAYER3
  6
CONTINUOUS
 62
     3
 10
4267.409005
 20
7965.842665
 11
4267.451695
 21
7965.518401
  0
LINE
  8
CSLAYER3
  6
CONTINUOUS
 62
     3
 10
4267.451695
 20
7965.518401
 11
4267.466914
 21
7965.169830
  0
LINE
  8
CSLAYER3
  6
CONTINUOUS
 62
     3
 10
4267.466914
 20
7965.169830
 11
4267.466914
 21
7952.095517
  0
LINE
  8
CSLAYER3
  6
CONTINUOUS
 62
     3
 10
4260.105393
 20
7952.095517
 11
4267.466914
 21
7952.095517
  0
LINE
  8
CSLAYER3
  6
CONTINUOUS
 62
     3
 10
4133.190011
 20
8040.466171
 11
4148.217888
 21
8040.466171
  0
LINE
  8
CSLAYER3
  6
CONTINUOUS
 62
     3
 10
4148.217888
 20
8040.466171
 11
4148.217888
 21
8012.598510
  0
LINE
  8
CSLAYER3
  6
CONTINUOUS
 62
     3
 10
4128.217888
 20
8033.657008
 11
4133.190011
 21
8040.466171
  0
LINE
  8
CSLAYER3
  6
CONTINUOUS
 62
     3
 10
2905.901448
 20
7626.292146
 11
2905.901448
 21
7559.292146
  0
INSERT
  8
CSLAYER1
  2
BLKF0053
 10
0.0
 20
0.0
 30
0.0
  0
LINE
  8
CSLAYER3
  6
CONTINUOUS
 62
     3
 10
1821.951659
 20
7728.892146
 11
1821.951659
 21
7877.496352
  0
LINE
  8
CSLAYER3
  6
CONTINUOUS
 62
     3
 10
1827.951659
 20
7728.892146
 11
1827.951659
 21
7877.496352
  0
LINE
  8
CSLAYER3
  6
CONTINUOUS
 62
     3
 10
1815.951659
 20
7728.892146
 11
1815.951659
 21
7877.496352
  0
LINE
  8
CSLAYER3
  6
CONTINUOUS
 62
     3
 10
1827.951659
 20
7877.496352
 11
1815.951659
 21
7877.496352
  0
LINE
  8
CSLAYER3
  6
CONTINUOUS
 62
     3
 10
2041.951659
 20
7667.923356
 11
2041.951659
 21
7655.923356
  0
LINE
  8
CSLAYER3
  6
CONTINUOUS
 62
     3
 10
2041.951659
 20
7655.923356
 11
1855.430386
 21
7655.923356
  0
LINE
  8
CSLAYER3
  6
CONTINUOUS
 62
     3
 10
2041.951659
 20
7667.923356
 11
1855.430386
 21
7667.923356
  0
LINE
  8
CSLAYER3
  6
CONTINUOUS
 62
     3
 10
1601.951659
 20
7667.923356
 11
1601.951659
 21
7655.923356
  0
LINE
  8
CSLAYER3
  6
CONTINUOUS
 62
     3
 10
1601.951659
 20
7655.923356
 11
1788.472933
 21
7655.923356
  0
LINE
  8
CSLAYER3
  6
CONTINUOUS
 62
     3
 10
1601.951659
 20
7667.923356
 11
1788.472933
 21
7667.923356
  0
LINE
  8
CSLAYER3
  6
CONTINUOUS
 62
     3
 10
1822.230386
 20
7537.992146
 11
1822.230386
 21
7575.595837
  0
LINE
  8
CSLAYER3
  6
CONTINUOUS
 62
     3
 10
1922.230386
 20
7537.992146
 11
1922.230386
 21
7575.595837
  0
LINE
  8
CSLAYER3
  6
CONTINUOUS
 62
     3
 10
1722.230386
 20
7537.992146
 11
1722.230386
 21
7575.595837
  0
LINE
  8
CSLAYER3
  6
CONTINUOUS
 62
     3
 10
1837.230386
 20
7780.263753
 11
1807.230386
 21
7780.263753
  0
ARC
  8
CSLAYER3
  6
CONTINUOUS
 62
     3
 10
1822.230386
 20
7780.263753
 40
15.000000
 50
0.000000
 51
180.000000
  0
LINE
  8
CSLAYER3
  6
CONTINUOUS
 62
     3
 10
1857.722393
 20
7725.611476
 11
1786.738379
 21
7725.611476
  0
LINE
  8
CSLAYER3
  6
CONTINUOUS
 62
     3
 10
1837.230386
 20
7780.263753
 11
1847.045558
 21
7719.808474
  0
LINE
  8
CSLAYER3
  6
CONTINUOUS
 62
     3
 10
1807.230386
 20
7780.263753
 11
1797.415214
 21
7719.808474
  0
LINE
  8
CSLAYER3
  6
CONTINUOUS
 62
     3
 10
1804.536489
 20
7765.263753
 11
1839.924283
 21
7765.263753
  0
CIRCLE
  8
CSLAYER3
  6
CONTINUOUS
 62
     3
 10
1822.230386
 20
7780.263753
 40
2.000000
  0
LINE
  8
CSLAYER3
  6
CONTINUOUS
 62
     3
 10
1799.485183
 20
7755.263753
 11
1812.230386
 21
7755.263753
  0
ARC
  8
CSLAYER3
  6
CONTINUOUS
 62
     3
 10
1822.230386
 20
7755.263753
 40
10.000000
 50
0.000000
 51
180.000000
  0
LINE
  8
CSLAYER3
  6
CONTINUOUS
 62
     3
 10
1832.230386
 20
7755.263753
 11
1844.975589
 21
7755.263753
  0
ARC
  8
CSLAYER3
  6
CONTINUOUS
 62
     3
 10
1822.230386
 20
7780.263753
 40
21.000000
 50
0.000000
 51
180.000000
  0
LINE
  8
CSLAYER3
  6
CONTINUOUS
 62
     3
 10
1843.230386
 20
7780.263753
 11
1847.045558
 21
7719.808474
  0
LINE
  8
CSLAYER3
  6
CONTINUOUS
 62
     3
 10
1801.230386
 20
7780.263753
 11
1797.415214
 21
7719.808474
  0
LINE
  8
CSLAYER3
  6
CONTINUOUS
 62
     3
 10
1857.722393
 20
7713.056356
 11
1786.738379
 21
7713.056356
  0
LINE
  8
CSLAYER3
  6
CONTINUOUS
 62
     3
 10
1786.738379
 20
7725.611476
 11
1786.738379
 21
7713.056356
  0
LINE
  8
CSLAYER3
  6
CONTINUOUS
 62
     3
 10
1857.722393
 20
7725.611476
 11
1857.722393
 21
7713.056356
  0
LINE
  8
CSLAYER3
  6
CONTINUOUS
 62
     3
 10
3853.812576
 20
7528.309714
 11
3922.618474
 21
7451.949714
  0
LINE
  8
CSLAYER3
  6
CONTINUOUS
 62
     3
 10
3749.644648
 20
7451.949714
 11
3922.618474
 21
7451.949714
  0
LINE
  8
CSLAYER3
  6
CONTINUOUS
 62
     3
 10
3708.142836
 20
7536.609714
 11
3749.644648
 21
7451.949714
  0
INSERT
  8
CSLAYER1
  2
BLKF0054
 10
0.0
 20
0.0
 30
0.0
  0
LINE
  8
CSLAYER3
  6
CONTINUOUS
 62
     3
 10
3733.426135
 20
7525.063581
 11
3713.802953
 21
7525.063581
  0
LINE
  8
CSLAYER3
  6
CONTINUOUS
 62
     3
 10
4005.450618
 20
8090.982190
 11
4007.450618
 21
8090.982190
  0
LINE
  8
CSLAYER3
  6
CONTINUOUS
 62
     3
 10
4007.450618
 20
8090.982190
 11
4007.742665
 21
8089.508272
  0
LINE
  8
CSLAYER3
  6
CONTINUOUS
 62
     3
 10
4007.742665
 20
8089.508272
 11
4008.116662
 21
8089.076864
  0
LINE
  8
CSLAYER3
  6
CONTINUOUS
 62
     3
 10
4008.116662
 20
8089.076864
 11
4009.374790
 21
8088.306085
  0
LINE
  8
CSLAYER3
  6
CONTINUOUS
 62
     3
 10
4009.374790
 20
8088.306085
 11
4011.735381
 21
8087.499378
  0
LINE
  8
CSLAYER3
  6
CONTINUOUS
 62
     3
 10
4011.735381
 20
8087.499378
 11
4015.104261
 21
8086.659052
  0
LINE
  8
CSLAYER3
  6
CONTINUOUS
 62
     3
 10
4015.104261
 20
8086.659052
 11
4018.026448
 21
8086.079477
  0
LINE
  8
CSLAYER3
  6
CONTINUOUS
 62
     3
 10
4018.026448
 20
8086.079477
 11
4023.439674
 21
8085.275844
  0
LINE
  8
CSLAYER3
  6
CONTINUOUS
 62
     3
 10
4023.439674
 20
8085.275844
 11
4030.669092
 21
8084.345795
  0
LINE
  8
CSLAYER3
  6
CONTINUOUS
 62
     3
 10
4030.669092
 20
8084.345795
 11
4037.555617
 21
8083.666353
  0
LINE
  8
CSLAYER3
  6
CONTINUOUS
 62
     3
 10
4037.555617
 20
8083.666353
 11
4042.316695
 21
8083.338172
  0
LINE
  8
CSLAYER3
  6
CONTINUOUS
 62
     3
 10
4042.316695
 20
8083.338172
 11
4057.796992
 21
8082.535450
  0
LINE
  8
CSLAYER3
  6
CONTINUOUS
 62
     3
 10
4057.796992
 20
8082.535450
 11
4070.390311
 21
8082.307766
  0
LINE
  8
CSLAYER3
  6
CONTINUOUS
 62
     3
 10
4070.390311
 20
8082.307766
 11
4086.367045
 21
8082.303386
  0
LINE
  8
CSLAYER3
  6
CONTINUOUS
 62
     3
 10
4086.367045
 20
8082.303386
 11
4096.338154
 21
8082.586566
  0
LINE
  8
CSLAYER3
  6
CONTINUOUS
 62
     3
 10
4096.338154
 20
8082.586566
 11
4114.667706
 21
8083.335436
  0
LINE
  8
CSLAYER3
  6
CONTINUOUS
 62
     3
 10
4114.667706
 20
8083.335436
 11
4129.392679
 21
8084.173027
  0
LINE
  8
CSLAYER3
  6
CONTINUOUS
 62
     3
 10
4129.392679
 20
8084.173027
 11
4134.364802
 21
8090.982190
  0
LINE
  8
CSLAYER3
  6
CENTER
 62
     3
 10
1426.989737
 20
7687.392146
 11
1131.603192
 21
7687.392146
  0
DIMENSION
  8
CSLAYER3
 62
     7
  2
*D0016
 10
1131.064746
 20
7786.992146
 11
1128.064697
 21
7737.192383
 13
1131.603192
 23
7687.392146
 14
1170.679267
 24
7786.992146
 50
90.000000
  0
DIMENSION
  8
CSLAYER3
 62
     7
  2
*D0017
 10
545.648095
 20
9288.414093
 11
354.381531
 21
9291.415039
 13
163.114904
 23
9251.979997
 14
545.648095
 24
9251.979997
 70
1
  0
DIMENSION
  8
CSLAYER3
 62
     7
  2
*D0018
 10
575.161499
 20
9321.895640
 11
354.381531
 21
9324.896484
 13
133.601499
 23
9130.799997
 14
575.161499
 24
9130.799997
 70
1
  0
DIMENSION
  8
CSLAYER3
 62
     7
  2
*D0019
 10
616.273775
 20
7974.907493
 11
525.611877
 21
7977.907227
 13
434.949964
 23
7949.409613
 14
616.273775
 24
7932.878587
  0
DIMENSION
  8
CSLAYER3
 62
     7
  2
*D0020
 10
652.710927
 20
7728.788751
 11
543.830444
 21
7731.788574
 13
434.949964
 23
7792.894230
 14
652.710927
 24
7772.600460
 52
270.000000
  0
DIMENSION
  8
CSLAYER3
 62
     7
  2
*D0021
 10
418.396745
 20
7949.409613
 11
415.396759
 21
7861.004883
 13
509.649963
 23
7772.600460
 14
434.949964
 24
7949.409613
 50
90.000000
  0
LINE
  8
CSLAYER3
  6
CONTINUOUS
 62
     3
 10
760.408897
 20
9272.720565
 11
760.408897
 21
9116.205182
  0
LINE
  8
CSLAYER3
  6
CONTINUOUS
 62
     3
 10
760.408897
 20
9272.720565
 11
835.108896
 21
9272.735618
  0
LINE
  8
CSLAYER3
  6
CONTINUOUS
 62
     3
 10
835.108896
 20
9272.735618
 11
835.108896
 21
9095.911412
  0
LINE
  8
CSLAYER3
  6
CONTINUOUS
 62
     3
 10
835.108896
 20
9272.735618
 11
941.732707
 21
9256.189539
  0
LINE
  8
CSLAYER3
  6
CONTINUOUS
 62
     3
 10
835.108896
 20
9095.911412
 11
760.408897
 21
9116.205182
  0
LINE
  8
CSLAYER3
  6
CONTINUOUS
 62
     3
 10
978.169860
 20
9095.911412
 11
835.108896
 21
9095.911412
  0
DIMENSION
  8
CSLAYER3
 62
     7
  2
*D0022
 10
941.732707
 20
9298.218444
 11
851.070862
 21
9301.218750
 13
760.408897
 23
9272.720565
 14
941.732707
 24
9256.189539
  0
DIMENSION
  8
CSLAYER3
 62
     7
  2
*D0023
 10
978.169860
 20
9052.099702
 11
869.289429
 21
9055.099609
 13
760.408897
 23
9116.205182
 14
978.169860
 24
9095.911412
 52
270.000000
  0
DIMENSION
  8
CSLAYER3
 62
     7
  2
*D0024
 10
743.855678
 20
9272.720565
 11
740.855713
 21
9184.316406
 13
835.108896
 23
9095.911412
 14
760.408897
 24
9272.720565
 50
90.000000
  0
LINE
  8
CSLAYER3
  6
CONTINUOUS
 62
     3
 10
941.732707
 20
9256.189539
 11
978.169860
 21
9095.911412
  0
DIMENSION
  8
CSLAYER3
 62
     7
  2
*D0025
 10
3627.903670
 20
7886.207630
 11
3359.813721
 21
7889.207520
 13
3091.723670
 23
7687.392146
 14
3627.903670
 24
7877.496352
  0
LINE
  8
CSLAYER3
  6
CONTINUOUS
 62
     3
 10
577.949402
 20
9880.999595
 11
626.170273
 21
9989.496556
  0
LINE
  8
CSLAYER3
  6
CONTINUOUS
 62
     3
 10
351.057077
 20
9946.999595
 11
375.938882
 21
10013.400182
  0
LINE
  8
CSLAYER3
  6
CONTINUOUS
 62
     3
 10
375.938882
 20
10013.400182
 11
633.104957
 21
10005.099595
  0
LINE
  8
CSLAYER3
  6
CONTINUOUS
 62
     3
 10
471.066893
 20
9999.617236
 11
471.066893
 21
9988.617236
  0
LINE
  8
CSLAYER3
  6
CONTINUOUS
 62
     3
 10
351.057077
 20
9946.999595
 11
351.057077
 21
9880.999595
  0
LINE
  8
CSLAYER3
  6
CONTINUOUS
 62
     3
 10
577.949402
 20
9880.999595
 11
204.882735
 21
9880.999595
  0
CIRCLE
  8
CSLAYER3
  6
CONTINUOUS
 62
     3
 10
406.066918
 20
9949.654922
 40
16.226489
  0
CIRCLE
  8
CSLAYER3
  6
CONTINUOUS
 62
     3
 10
464.316978
 20
9949.654922
 40
16.226489
  0
CIRCLE
  8
CSLAYER3
  6
CONTINUOUS
 62
     3
 10
522.567039
 20
9949.654922
 40
16.226489
  0
LINE
  8
CSLAYER3
  6
CONTINUOUS
 62
     3
 10
630.668354
 20
9999.617236
 11
633.104957
 21
10005.099595
  0
LINE
  8
CSLAYER3
  6
CONTINUOUS
 62
     3
 10
375.971142
 20
10014.399662
 11
633.137218
 21
10006.099075
  0
LINE
  8
CSLAYER3
  6
CONTINUOUS
 62
     3
 10
375.971142
 20
10014.399662
 11
375.938882
 21
10013.400182
  0
LINE
  8
CSLAYER3
  6
CONTINUOUS
 62
     3
 10
633.104957
 20
10005.099595
 11
633.137218
 21
10006.099075
  0
LINE
  8
CSLAYER3
  6
CONTINUOUS
 62
     3
 10
577.949402
 20
9879.999595
 11
204.882735
 21
9879.999595
  0
LINE
  8
CSLAYER3
  6
CONTINUOUS
 62
     3
 10
204.882735
 20
9879.999595
 11
204.882735
 21
9880.999595
  0
LINE
  8
CSLAYER3
  6
CONTINUOUS
 62
     3
 10
614.538070
 20
10078.832895
 11
647.485128
 21
10078.832895
  0
CIRCLE
  8
CSLAYER3
  6
CONTINUOUS
 62
     3
 10
631.011599
 20
10066.529564
 40
5.000000
  0
LINE
  8
CSLAYER3
  6
CONTINUOUS
 62
     3
 10
631.011599
 20
10050.779564
 11
631.011599
 21
10061.529564
  0
LINE
  8
CSLAYER3
  6
CONTINUOUS
 62
     3
 10
647.485128
 20
10078.832895
 11
631.227253
 21
10050.308859
  0
LINE
  8
CSLAYER3
  6
CONTINUOUS
 62
     3
 10
631.227253
 20
10050.308859
 11
614.538070
 21
10078.832895
  0
LINE
  8
CSLAYER3
  6
CONTINUOUS
 62
     3
 10
631.011599
 20
10071.529564
 11
631.011599
 21
10078.832895
  0
LINE
  8
CSLAYER3
  6
CONTINUOUS
 62
     3
 10
553.248924
 20
10087.491940
 11
513.361909
 21
10087.491940
  0
CIRCLE
  8
CSLAYER3
  6
CONTINUOUS
 62
     3
 10
533.305417
 20
10070.920740
 40
5.500000
  0
LINE
  8
CSLAYER3
  6
CONTINUOUS
 62
     3
 10
533.305417
 20
10055.420740
 11
533.305417
 21
10065.420740
  0
LINE
  8
CSLAYER3
  6
CONTINUOUS
 62
     3
 10
533.305417
 20
10055.420740
 11
553.248924
 21
10087.491940
  0
LINE
  8
CSLAYER3
  6
CONTINUOUS
 62
     3
 10
533.305417
 20
10055.420740
 11
513.361909
 21
10087.491940
  0
LINE
  8
CSLAYER3
  6
CONTINUOUS
 62
     3
 10
533.305417
 20
10076.420740
 11
533.305417
 21
10087.491940
  0
LINE
  8
CSLAYER3
  6
CONTINUOUS
 62
     3
 10
494.537309
 20
10009.572163
 11
494.537309
 21
9975.238727
  0
LINE
  8
CSLAYER3
  6
CONTINUOUS
 62
     3
 10
592.459146
 20
10006.411526
 11
592.459146
 21
9976.805115
  0
LINE
  8
CSLAYER3
  6
CONTINUOUS
 62
     3
 10
591.459146
 20
10006.411526
 11
591.459146
 21
9976.805115
  0
LINE
  8
CSLAYER3
  6
CONTINUOUS
 62
     3
 10
495.537309
 20
10009.572163
 11
495.537309
 21
9975.238727
  0
LINE
  8
CSLAYER3
  6
CONTINUOUS
 62
     3
 10
494.537309
 20
9975.238727
 11
495.537309
 21
9975.238727
  0
LINE
  8
CSLAYER3
  6
CONTINUOUS
 62
     3
 10
591.459146
 20
9976.805115
 11
592.459146
 21
9976.805115
  0
INSERT
  8
CSLAYER1
  2
BLKF0055
 10
0.0
 20
0.0
 30
0.0
  0
INSERT
  8
CSLAYER1
  2
BLKF0056
 10
0.0
 20
0.0
 30
0.0
  0
TEXT
  8
CSLAYER3
 62
     3
 10
540.185211
 20
10023.151039
 40
40.514328
 41
0.800000
  1
補強
 50
0.000000
 51
0.000000
  7
FX_FONT
 72
     5
 11
594.204315
 21
10023.151039
  0
LINE
  8
CSLAYER3
  6
CONTINUOUS
 62
     3
 10
184.882735
 20
9879.999595
 11
184.882735
 21
9880.999595
  0
LINE
  8
CSLAYER3
  6
CONTINUOUS
 62
     3
 10
112.882735
 20
9879.999595
 11
112.882735
 21
9880.999595
  0
LINE
  8
CSLAYER3
  6
CONTINUOUS
 62
     3
 10
184.882735
 20
9879.999595
 11
112.882735
 21
9879.999595
  0
LINE
  8
CSLAYER3
  6
CONTINUOUS
 62
     3
 10
112.882735
 20
9880.999595
 11
184.882735
 21
9880.999595
  0
LINE
  8
CSLAYER3
  6
CONTINUOUS
 62
     3
 10
184.882735
 20
10013.400182
 11
112.882735
 21
10013.400182
  0
LINE
  8
CSLAYER3
  6
CONTINUOUS
 62
     3
 10
184.882735
 20
10014.400182
 11
112.882735
 21
10014.400182
  0
LINE
  8
CSLAYER3
  6
CONTINUOUS
 62
     3
 10
184.882735
 20
10013.400182
 11
184.882735
 21
10014.400182
  0
LINE
  8
CSLAYER3
  6
CONTINUOUS
 62
     3
 10
112.882735
 20
10014.400182
 11
112.882735
 21
10013.400182
  0
LINE
  8
CSLAYER3
  6
CONTINUOUS
 62
     3
 10
149.382735
 20
9880.999595
 11
149.382735
 21
10013.400182
  0
LINE
  8
CSLAYER3
  6
CONTINUOUS
 62
     3
 10
148.382735
 20
9880.999595
 11
148.382735
 21
10013.400182
  0
LINE
  8
CSLAYER3
  6
CONTINUOUS
 62
     3
 10
168.826243
 20
10009.572163
 11
149.382735
 21
10009.572163
  0
ARC
  8
CSLAYER3
  6
CONTINUOUS
 62
     3
 10
148.882735
 20
9993.000963
 40
5.500000
 50
-84.784091
 51
84.784091
  0
LINE
  8
CSLAYER3
  6
CONTINUOUS
 62
     3
 10
149.382735
 20
9978.305015
 11
168.826243
 21
10009.572163
  0
LINE
  8
CSLAYER3
  6
CONTINUOUS
 62
     3
 10
148.382735
 20
9978.305015
 11
128.939228
 21
10009.572163
  0
LINE
  8
CSLAYER3
  6
CONTINUOUS
 62
     3
 10
184.882735
 20
10005.099595
 11
166.044971
 21
10005.099595
  0
LINE
  8
CSLAYER3
  6
CONTINUOUS
 62
     3
 10
112.882735
 20
10005.099595
 11
112.882735
 21
10013.400182
  0
LINE
  8
CSLAYER3
  6
CONTINUOUS
 62
     3
 10
184.882735
 20
10013.400182
 11
184.882735
 21
10005.099595
  0
LINE
  8
CSLAYER3
  6
CONTINUOUS
 62
     3
 10
131.720499
 20
10005.099595
 11
112.882735
 21
10005.099595
  0
ARC
  8
CSLAYER3
  6
CONTINUOUS
 62
     3
 10
148.882735
 20
9993.000963
 40
5.500000
 50
95.215909
 51
264.784091
  0
LINE
  8
CSLAYER3
  6
CONTINUOUS
 62
     3
 10
148.382735
 20
10009.572163
 11
128.939228
 21
10009.572163
  0
INSERT
  8
CSLAYER1
  2
BLKF0057
 10
0.0
 20
0.0
 30
0.0
  0
INSERT
  8
CSLAYER1
  2
BLKF0058
 10
0.0
 20
0.0
 30
0.0
  0
LINE
  8
CSLAYER3
  6
CONTINUOUS
 62
     3
 10
377.535864
 20
10110.634087
 11
634.535864
 21
10110.634087
  0
LINE
  8
CSLAYER3
  6
CONTINUOUS
 62
     3
 10
377.535864
 20
10182.634087
 11
634.535864
 21
10182.634087
  0
LINE
  8
CSLAYER3
  6
CONTINUOUS
 62
     3
 10
377.535864
 20
10182.634087
 11
377.535864
 21
10110.634087
  0
LINE
  8
CSLAYER3
  6
CONTINUOUS
 62
     3
 10
634.535864
 20
10182.634087
 11
634.535864
 21
10110.634087
  0
LINE
  8
CSLAYER3
  6
CONTINUOUS
 62
     3
 10
413.535864
 20
10141.634087
 11
478.535864
 21
10141.634087
  0
LINE
  8
CSLAYER3
  6
CONTINUOUS
 62
     3
 10
413.535864
 20
10151.634087
 11
478.535864
 21
10151.634087
  0
LINE
  8
CSLAYER3
  6
CONTINUOUS
 62
     3
 10
413.535864
 20
10171.634087
 11
413.535864
 21
10151.634087
  0
LINE
  8
CSLAYER3
  6
CONTINUOUS
 62
     3
 10
478.535864
 20
10171.634087
 11
478.535864
 21
10151.634087
  0
LINE
  8
CSLAYER3
  6
CONTINUOUS
 62
     3
 10
413.535864
 20
10171.634087
 11
478.535864
 21
10171.634087
  0
LINE
  8
CSLAYER3
  6
CONTINUOUS
 62
     3
 10
413.535864
 20
10121.634087
 11
478.535864
 21
10121.634087
  0
LINE
  8
CSLAYER3
  6
CONTINUOUS
 62
     3
 10
478.535864
 20
10141.634087
 11
478.535864
 21
10121.634087
  0
LINE
  8
CSLAYER3
  6
CONTINUOUS
 62
     3
 10
413.535864
 20
10141.634087
 11
413.535864
 21
10121.634087
  0
CIRCLE
  8
CSLAYER3
  6
CONTINUOUS
 62
     3
 10
398.535864
 20
10176.634087
 40
2.000000
  0
CIRCLE
  8
CSLAYER3
  6
CONTINUOUS
 62
     3
 10
398.535864
 20
10116.634087
 40
2.000000
  0
CIRCLE
  8
CSLAYER3
  6
CONTINUOUS
 62
     3
 10
554.535864
 20
10176.634087
 40
2.000000
  0
CIRCLE
  8
CSLAYER3
  6
CONTINUOUS
 62
     3
 10
554.535864
 20
10116.634087
 40
2.000000
  0
INSERT
  8
CSLAYER1
  2
BLKF0059
 10
0.0
 20
0.0
 30
0.0
  0
INSERT
  8
CSLAYER1
  2
BLKF0060
 10
0.0
 20
0.0
 30
0.0
  0
INSERT
  8
CSLAYER1
  2
BLKF0061
 10
0.0
 20
0.0
 30
0.0
  0
INSERT
  8
CSLAYER1
  2
BLKF0062
 10
0.0
 20
0.0
 30
0.0
  0
CIRCLE
  8
CSLAYER3
  6
CONTINUOUS
 62
     3
 10
404.600179
 20
10345.088832
 40
2.000000
  0
LINE
  8
CSLAYER3
  6
CONTINUOUS
 62
     3
 10
379.110351
 20
10320.088832
 11
394.600179
 21
10320.088832
  0
ARC
  8
CSLAYER3
  6
CONTINUOUS
 62
     3
 10
404.600179
 20
10320.088832
 40
10.000000
 50
0.000000
 51
180.000000
  0
LINE
  8
CSLAYER3
  6
CONTINUOUS
 62
     3
 10
414.600179
 20
10320.088832
 11
430.090006
 21
10320.088832
  0
ARC
  8
CSLAYER3
  6
CONTINUOUS
 62
     3
 10
404.600179
 20
10345.088832
 40
21.000000
 50
0.000000
 51
180.000000
  0
LINE
  8
CSLAYER3
  6
CONTINUOUS
 62
     3
 10
425.600179
 20
10345.088832
 11
430.090006
 21
10320.088832
  0
LINE
  8
CSLAYER3
  6
CONTINUOUS
 62
     3
 10
383.600179
 20
10345.088832
 11
379.110351
 21
10320.088832
  0
CIRCLE
  8
CSLAYER3
  6
CONTINUOUS
 62
     3
 10
412.024800
 20
10352.513453
 40
1.500000
  0
CIRCLE
  8
CSLAYER3
  6
CONTINUOUS
 62
     3
 10
397.175557
 20
10352.513453
 40
1.500000
  0
CIRCLE
  8
CSLAYER3
  6
CONTINUOUS
 62
     3
 10
397.175557
 20
10337.664211
 40
1.500000
  0
CIRCLE
  8
CSLAYER3
  6
CONTINUOUS
 62
     3
 10
412.024800
 20
10337.664211
 40
1.500000
  0
CIRCLE
  8
CSLAYER3
  6
CONTINUOUS
 62
     3
 10
404.600179
 20
10334.588832
 40
2.686849
  0
INSERT
  8
CSLAYER1
  2
BLKF0063
 10
0.0
 20
0.0
 30
0.0
  0
LINE
  8
CSLAYER3
  6
CONTINUOUS
 62
     3
 10
425.600179
 20
10345.088832
 11
437.335357
 21
10279.745687
  0
LINE
  8
CSLAYER3
  6
CONTINUOUS
 62
     3
 10
426.584432
 20
10345.265597
 11
438.351356
 21
10279.745687
  0
LINE
  8
CSLAYER3
  6
CONTINUOUS
 62
     3
 10
426.584432
 20
10345.265597
 11
425.600179
 21
10345.088832
  0
LINE
  8
CSLAYER3
  6
CONTINUOUS
 62
     3
 10
473.925053
 20
10365.318211
 11
473.709458
 21
10345.923399
  0
LINE
  8
CSLAYER3
  6
CONTINUOUS
 62
     3
 10
473.925053
 20
10365.318211
 11
472.925114
 21
10365.329326
  0
LINE
  8
CSLAYER3
  6
CONTINUOUS
 62
     3
 10
473.959143
 20
10363.921667
 11
473.709458
 21
10345.923399
  0
LINE
  8
CSLAYER3
  6
CONTINUOUS
 62
     3
 10
473.959143
 20
10363.921667
 11
511.265326
 21
10363.404131
  0
LINE
  8
CSLAYER3
  6
CONTINUOUS
 62
     3
 10
537.540053
 20
10345.037897
 11
473.709458
 21
10345.923399
  0
LINE
  8
CSLAYER3
  6
CONTINUOUS
 62
     3
 10
511.265326
 20
10363.404131
 11
537.540053
 21
10345.037897
  0
LINE
  8
CSLAYER3
  6
CONTINUOUS
 62
     3
 10
383.600179
 20
10345.088832
 11
379.110351
 21
10320.088832
  0
LINE
  8
CSLAYER3
  6
CONTINUOUS
 62
     3
 10
383.600179
 20
10345.088832
 11
371.865000
 21
10279.745687
  0
LINE
  8
CSLAYER3
  6
CONTINUOUS
 62
     3
 10
382.615925
 20
10345.265597
 11
370.849001
 21
10279.745687
  0
LINE
  8
CSLAYER3
  6
CONTINUOUS
 62
     3
 10
382.615925
 20
10345.265597
 11
383.600179
 21
10345.088832
  0
LINE
  8
CSLAYER3
  6
CONTINUOUS
 62
     3
 10
498.079913
 20
10289.462853
 11
472.337311
 21
10279.745687
  0
LINE
  8
CSLAYER3
  6
CONTINUOUS
 62
     3
 10
598.590848
 20
10291.333461
 11
655.935336
 21
10279.701213
  0
LINE
  8
CSLAYER3
  6
CONTINUOUS
 62
     3
 10
471.984159
 20
10280.681253
 11
472.337311
 21
10279.745687
  0
LINE
  8
CSLAYER3
  6
CONTINUOUS
 62
     3
 10
440.600179
 20
10279.745687
 11
368.600179
 21
10279.745687
  0
LINE
  8
CSLAYER3
  6
CONTINUOUS
 62
     3
 10
440.600179
 20
10279.745687
 11
440.600179
 21
10290.398419
  0
LINE
  8
CSLAYER3
  6
CONTINUOUS
 62
     3
 10
368.600179
 20
10279.745687
 11
368.600179
 21
10290.398419
  0
LINE
  8
CSLAYER3
  6
CONTINUOUS
 62
     3
 10
440.600179
 20
10290.398419
 11
436.438199
 21
10290.398419
  0
LINE
  8
CSLAYER3
  6
CONTINUOUS
 62
     3
 10
372.762158
 20
10290.398419
 11
368.600179
 21
10290.398419
  0
LINE
  8
CSLAYER3
  6
CONTINUOUS
 62
     3
 10
435.422200
 20
10290.398419
 11
373.778157
 21
10290.398419
  0
LINE
  8
CSLAYER3
  6
CONTINUOUS
 62
     3
 10
468.731184
 20
9625.112091
 11
448.580869
 21
9625.703307
  0
LINE
  8
CSLAYER3
  6
CONTINUOUS
 62
     3
 10
1246.521541
 20
9777.390459
 11
1246.521541
 21
9607.595076
  0
LINE
  8
CSLAYER3
  6
CONTINUOUS
 62
     3
 10
1246.521541
 20
9777.390459
 11
1171.821543
 21
9777.405512
  0
INSERT
  8
CSLAYER1
  2
BLKF0064
 10
0.0
 20
0.0
 30
0.0
  0
LINE
  8
CSLAYER3
  6
CONTINUOUS
 62
     3
 10
635.641543
 20
9587.301305
 11
1171.821543
 21
9587.301305
  0
LINE
  8
CSLAYER3
  6
CONTINUOUS
 62
     3
 10
631.860267
 20
9579.001305
 11
1171.821543
 21
9579.001305
  0
INSERT
  8
CSLAYER1
  2
BLKF0065
 10
0.0
 20
0.0
 30
0.0
  0
INSERT
  8
CSLAYER1
  2
BLKF0066
 10
0.0
 20
0.0
 30
0.0
  0
LINE
  8
CSLAYER3
  6
CONTINUOUS
 62
     3
 10
160.740873
 20
9437.901305
 11
569.241543
 21
9437.901305
  0
LINE
  8
CSLAYER3
  6
CONTINUOUS
 62
     3
 10
79.693662
 20
9496.001305
 11
79.693662
 21
9484.685349
  0
LINE
  8
CSLAYER3
  6
CONTINUOUS
 62
     3
 10
609.819320
 20
9529.201305
 11
112.893662
 21
9529.201305
  0
LINE
  8
CSLAYER3
  6
CONTINUOUS
 62
     3
 10
569.241543
 20
9437.901305
 11
635.641543
 21
9587.301305
  0
LINE
  8
CSLAYER3
  6
CONTINUOUS
 62
     3
 10
353.593662
 20
9529.201305
 11
378.475467
 21
9595.601893
  0
ARC
  8
CSLAYER3
  6
CONTINUOUS
 62
     3
 10
112.893662
 20
9496.001305
 40
33.200000
 50
90.000000
 51
180.000000
  0
LINE
  8
CSLAYER3
  6
CONTINUOUS
 62
     3
 10
1171.821543
 20
9777.405512
 11
1171.821543
 21
9577.341305
  0
LINE
  8
CSLAYER3
  6
CONTINUOUS
 62
     3
 10
1171.821543
 20
9777.405512
 11
1065.197731
 21
9760.859433
  0
LINE
  8
CSLAYER3
  6
CONTINUOUS
 62
     3
 10
1065.197731
 20
9760.859433
 11
1041.992105
 21
9658.783557
  0
LINE
  8
CSLAYER3
  6
CONTINUOUS
 62
     3
 10
1171.821543
 20
9587.301305
 11
1246.521541
 21
9607.595076
  0
LINE
  8
CSLAYER3
  6
CONTINUOUS
 62
     3
 10
1170.325762
 20
9570.701305
 11
1239.131660
 21
9494.341305
  0
LINE
  8
CSLAYER3
  6
CONTINUOUS
 62
     3
 10
1066.157834
 20
9494.341305
 11
1239.131660
 21
9494.341305
  0
LINE
  8
CSLAYER3
  6
CONTINUOUS
 62
     3
 10
1028.760578
 20
9600.581305
 11
1171.821543
 21
9600.581305
  0
LINE
  8
CSLAYER3
  6
CONTINUOUS
 62
     3
 10
1028.760578
 20
9600.581305
 11
1028.760578
 21
9579.001305
  0
LINE
  8
CSLAYER3
  6
CONTINUOUS
 62
     3
 10
1024.656023
 20
9579.001305
 11
1066.157834
 21
9494.341305
  0
CIRCLE
  8
CSLAYER3
  6
DOT
 62
     7
 10
320.393662
 20
9437.659589
 40
24.900000
  0
CIRCLE
  8
CSLAYER3
  6
DOT
 62
     7
 10
320.393662
 20
9437.659589
 40
1.660000
  0
CIRCLE
  8
CSLAYER3
  6
DOT
 62
     7
 10
320.393662
 20
9437.659589
 40
15.432268
  0
LINE
  8
CSLAYER3
  6
CONTINUOUS
 62
     3
 10
102.827301
 20
9453.048213
 11
140.608150
 21
9441.027034
  0
ARC
  8
CSLAYER3
  6
CONTINUOUS
 62
     3
 10
112.893662
 20
9484.685349
 40
33.200000
 50
180.000000
 51
252.349876
  0
ARC
  8
CSLAYER3
  6
CONTINUOUS
 62
     3
 10
160.740873
 20
9504.301305
 40
66.400000
 50
252.349876
 51
270.000000
  0
LINE
  8
CSLAYER3
  6
CONTINUOUS
 62
     3
 10
318.131000
 20
9515.443083
 11
213.241885
 21
9515.443083
  0
LINE
  8
CSLAYER3
  6
CONTINUOUS
 62
     3
 10
213.241885
 20
9515.443083
 11
213.241885
 21
9487.840684
  0
LINE
  8
CSLAYER3
  6
CONTINUOUS
 62
     3
 10
213.241885
 20
9487.840684
 11
318.131000
 21
9487.840684
  0
LINE
  8
CSLAYER3
  6
CONTINUOUS
 62
     3
 10
318.131000
 20
9487.840684
 11
318.131000
 21
9515.443083
  0
TEXT
  8
CSLAYER3
 62
     3
 10
210.472809
 20
9486.334961
 40
30.000000
 41
0.714286
  1
バッテリー
 50
0.000000
 51
0.000000
  7
FX_FONT
 72
     5
 11
310.472809
 21
9486.334961
  0
LINE
  8
CSLAYER3
  6
CONTINUOUS
 62
     3
 10
454.806820
 20
9625.520636
 11
454.806820
 21
9593.138134
  0
LINE
  8
CSLAYER3
  6
CONTINUOUS
 62
     3
 10
578.708209
 20
9459.201305
 11
91.614482
 21
9459.201305
  0
INSERT
  8
CSLAYER1
  2
BLKF0067
 10
0.0
 20
0.0
 30
0.0
  0
INSERT
  8
CSLAYER1
  2
BLKF0068
 10
0.0
 20
0.0
 30
0.0
  0
LINE
  8
CSLAYER3
  6
CONTINUOUS
 62
     3
 10
391.444311
 20
9701.121758
 11
385.279826
 21
9612.965516
  0
LINE
  8
CSLAYER3
  6
CONTINUOUS
 62
     3
 10
441.550249
 20
9676.566730
 11
338.309965
 21
9683.785993
  0
LINE
  8
CSLAYER3
  6
CONTINUOUS
 62
     3
 10
388.933078
 20
9665.209452
 11
366.026631
 21
9666.811227
  0
LINE
  8
CSLAYER3
  6
CONTINUOUS
 62
     3
 10
378.731978
 20
9603.549035
 11
366.026631
 21
9624.112366
  0
LINE
  8
CSLAYER3
  6
CONTINUOUS
 62
     3
 10
366.026631
 20
9624.112366
 11
366.026631
 21
9660.796576
  0
LINE
  8
CSLAYER3
  6
CONTINUOUS
 62
     3
 10
391.025772
 20
9695.136374
 11
428.244660
 21
9692.533775
  0
LINE
  8
CSLAYER3
  6
CONTINUOUS
 62
     3
 10
457.371237
 20
9674.457976
 11
389.909668
 21
9679.175349
  0
LINE
  8
CSLAYER3
  6
CONTINUOUS
 62
     3
 10
453.730415
 20
9676.717451
 11
390.049181
 21
9681.170477
  0
LINE
  8
CSLAYER3
  6
CONTINUOUS
 62
     3
 10
417.322194
 20
9699.312200
 11
572.143067
 21
9603.231188
  0
LINE
  8
CSLAYER3
  6
CONTINUOUS
 62
     3
 10
411.996920
 20
9622.453618
 11
387.990624
 21
9615.080139
  0
LINE
  8
CSLAYER3
  6
CONTINUOUS
 62
     3
 10
417.322194
 20
9699.312200
 11
391.444311
 21
9701.121758
  0
LINE
  8
CSLAYER3
  6
CONTINUOUS
 62
     3
 10
493.779459
 20
9651.863228
 11
366.026631
 21
9660.796576
  0
LINE
  8
CSLAYER3
  6
CONTINUOUS
 62
     3
 10
399.993772
 20
9628.057314
 11
399.993772
 21
9585.590790
  0
INSERT
  8
CSLAYER1
  2
BLKF0069
 10
0.0
 20
0.0
 30
0.0
  0
LINE
  8
CSLAYER3
  6
CONTINUOUS
 62
     3
 10
575.862643
 20
9604.462493
 11
575.612690
 21
9603.474870
  0
LINE
  8
CSLAYER3
  6
CONTINUOUS
 62
     3
 10
559.067695
 20
9620.577158
 11
559.067695
 21
9585.590790
  0
INSERT
  8
CSLAYER1
  2
BLKF0070
 10
0.0
 20
0.0
 30
0.0
  0
LINE
  8
CSLAYER3
  6
CONTINUOUS
 62
     3
 10
1049.939322
 20
9567.455172
 11
1030.316139
 21
9567.455172
  0
LINE
  8
CSLAYER3
  6
CONTINUOUS
 62
     3
 10
449.819320
 20
9526.201305
 11
449.819320
 21
9459.201305
  0
DIMENSION
  8
CSLAYER3
 62
     7
  2
*D0026
 10
1171.821543
 20
9786.116789
 11
903.731567
 21
9789.116211
 13
635.641543
 23
9587.301305
 14
1171.821543
 24
9777.405512
  0
INSERT
  8
CSLAYER1
  2
BLKF0071
 10
0.0
 20
0.0
 30
0.0
  0
DIMENSION
  8
CSLAYER3
 62
     7
  2
*D0027
 10
378.475467
 20
9787.961651
 11
229.084564
 21
9790.961914
 13
79.693662
 23
9496.001305
 14
378.475467
 24
9595.601893
  0
DIMENSION
  8
CSLAYER3
 62
     7
  2
*D0028
 10
43.912368
 20
9595.601893
 11
40.912369
 21
9516.751953
 13
160.740873
 23
9437.901305
 14
378.475467
 24
9595.601893
 50
90.000000
  0
INSERT
  8
CSLAYER1
  2
BLKF0072
 10
0.0
 20
0.0
 30
0.0
  0
LINE
  8
CSLAYER3
  6
CONTINUOUS
 62
     3
 10
677.824412
 20
8849.169892
 11
677.824412
 21
8849.173777
  0
LINE
  8
CSLAYER3
  6
CONTINUOUS
 62
     3
 10
683.824412
 20
8884.379396
 11
683.824412
 21
8961.406376
  0
LINE
  8
CSLAYER3
  6
CONTINUOUS
 62
     3
 10
671.824412
 20
8884.213178
 11
671.824412
 21
8961.406376
  0
LINE
  8
CSLAYER3
  6
CONTINUOUS
 62
     3
 10
683.824412
 20
8961.406376
 11
671.824412
 21
8961.406376
  0
LINE
  8
CSLAYER3
  6
CONTINUOUS
 62
     3
 10
897.824412
 20
8751.833380
 11
897.824412
 21
8739.833380
  0
LINE
  8
CSLAYER3
  6
CONTINUOUS
 62
     3
 10
897.824412
 20
8739.833380
 11
714.047393
 21
8739.833380
  0
LINE
  8
CSLAYER3
  6
CONTINUOUS
 62
     3
 10
897.824412
 20
8751.833380
 11
714.047393
 21
8751.833380
  0
LINE
  8
CSLAYER3
  6
CONTINUOUS
 62
     3
 10
457.824412
 20
8751.833380
 11
457.824412
 21
8739.833380
  0
LINE
  8
CSLAYER3
  6
CONTINUOUS
 62
     3
 10
457.824412
 20
8739.833380
 11
642.047393
 21
8739.833380
  0
LINE
  8
CSLAYER3
  6
CONTINUOUS
 62
     3
 10
457.824412
 20
8751.833380
 11
642.047393
 21
8751.833380
  0
LINE
  8
CSLAYER3
  6
CONTINUOUS
 62
     3
 10
693.103138
 20
8864.173777
 11
663.103138
 21
8864.173777
  0
ARC
  8
CSLAYER3
  6
CONTINUOUS
 62
     3
 10
678.103138
 20
8864.173777
 40
15.000000
 50
0.000000
 51
180.000000
  0
LINE
  8
CSLAYER3
  6
CONTINUOUS
 62
     3
 10
713.595145
 20
8809.521500
 11
642.611132
 21
8809.521500
  0
LINE
  8
CSLAYER3
  6
CONTINUOUS
 62
     3
 10
693.103138
 20
8864.173777
 11
702.918311
 21
8803.718498
  0
LINE
  8
CSLAYER3
  6
CONTINUOUS
 62
     3
 10
663.103138
 20
8864.173777
 11
653.287966
 21
8803.718498
  0
LINE
  8
CSLAYER3
  6
CONTINUOUS
 62
     3
 10
660.409242
 20
8849.173777
 11
695.797035
 21
8849.173777
  0
CIRCLE
  8
CSLAYER3
  6
CONTINUOUS
 62
     3
 10
678.103138
 20
8864.173777
 40
2.000000
  0
LINE
  8
CSLAYER3
  6
CONTINUOUS
 62
     3
 10
655.357936
 20
8839.173777
 11
668.103138
 21
8839.173777
  0
ARC
  8
CSLAYER3
  6
CONTINUOUS
 62
     3
 10
678.103138
 20
8839.173777
 40
10.000000
 50
0.000000
 51
180.000000
  0
LINE
  8
CSLAYER3
  6
CONTINUOUS
 62
     3
 10
688.103138
 20
8839.173777
 11
700.848341
 21
8839.173777
  0
ARC
  8
CSLAYER3
  6
CONTINUOUS
 62
     3
 10
678.103138
 20
8864.173777
 40
21.000000
 50
0.000000
 51
180.000000
  0
LINE
  8
CSLAYER3
  6
CONTINUOUS
 62
     3
 10
699.103138
 20
8864.173777
 11
702.918311
 21
8803.718498
  0
LINE
  8
CSLAYER3
  6
CONTINUOUS
 62
     3
 10
657.103138
 20
8864.173777
 11
653.287966
 21
8803.718498
  0
LINE
  8
CSLAYER3
  6
CONTINUOUS
 62
     3
 10
713.595145
 20
8796.966380
 11
642.611132
 21
8796.966380
  0
LINE
  8
CSLAYER3
  6
CONTINUOUS
 62
     3
 10
642.611132
 20
8809.521500
 11
642.611132
 21
8796.966380
  0
LINE
  8
CSLAYER3
  6
CONTINUOUS
 62
     3
 10
713.595145
 20
8809.521500
 11
713.595145
 21
8796.966380
  0
LINE
  8
CSLAYER3
  6
CENTER
 62
     3
 10
282.862490
 20
8771.302170
 11
-12.524056
 21
8771.302170
  0
DIMENSION
  8
CSLAYER3
 62
     7
  2
*D0029
 10
-13.062502
 20
8870.902170
 11
-16.062550
 21
8821.102539
 13
-12.524056
 23
8771.302170
 14
26.552020
 24
8870.902170
 50
90.000000
  0
DIMENSION
  8
CSLAYER3
 62
     7
  2
*D0030
 10
635.641543
 20
9436.084200
 11
602.441528
 21
9439.083984
 13
569.241543
 23
9437.901305
 14
635.641543
 24
9587.301305
 52
270.000000
  0
LINE
  8
CSLAYER3
  6
CONTINUOUS
 62
     3
 10
678.047393
 20
8779.602170
 11
678.047393
 21
8621.902170
  0
LINE
  8
CSLAYER3
  6
CONTINUOUS
 62
     3
 10
714.047393
 20
8779.602170
 11
714.047393
 21
8621.902170
  0
LINE
  8
CSLAYER3
  6
CONTINUOUS
 62
     3
 10
642.047393
 20
8779.602170
 11
642.047393
 21
8621.902170
  0
DIMENSION
  8
CSLAYER3
 62
     7
  2
*D0031
 10
714.047393
 20
8594.648416
 11
678.048767
 21
8556.116211
 13
642.047393
 23
8621.902170
 14
714.047393
 24
8621.902170
 52
270.000000
 70
1
  0
TEXT
  8
CSLAYER3
 62
     3
 10
392.300122
 20
10199.783346
 40
58.523151
 41
0.525000
  1
ベニアの構造図
 50
0.000000
 51
0.000000
  7
FX_FONT
 72
     5
 11
597.131152
 21
10199.783346
  0
TEXT
  8
CSLAYER3
 62
     3
 10
643.093134
 20
9621.743069
 40
34.943550
 41
0.506250
  1
カーボンパイプはつり竿製、φ11.5～φ10のテーパー
 50
0.000000
 51
0.000000
  7
FX_FONT
 72
     5
 11
1114.831060
 21
9621.743069
  0
LINE
  8
CSLAYER3
  6
CONTINUOUS
 62
     3
 10
1032.156277
 20
9615.518153
 11
1025.741543
 21
9587.301305
  0
INSERT
  8
CSLAYER1
  2
FXDIM0000
 10
0.0
 20
0.0
 30
0.0
  0
LINE
  8
CSLAYER3
  6
CONTINUOUS
 62
     3
 10
677.824412
 20
8862.193294
 11
677.824412
 21
8866.154260
  0
LINE
  8
CSLAYER3
  6
CONTINUOUS
 62
     3
 10
677.824412
 20
8885.171927
 11
677.824412
 21
8961.406376
  0
INSERT
  8
CSLAYER1
  2
FXDIM0001
 10
0.0
 20
0.0
 30
0.0
  0
LINE
  8
CSLAYER3
  6
CONTINUOUS
 62
     3
 10
635.641543
 20
9587.301305
 11
228.205744
 21
9587.301305
  0
DIMENSION
  8
CSLAYER3
 62
     7
  2
*D0032
 10
378.475467
 20
9595.601893
 11
287.877350
 21
9619.310547
 13
228.205744
 23
9587.301305
 14
635.641543
 24
9587.301305
 15
635.641543
 25
9587.301305
 16
289.452396
 26
9592.886850
 70
2
  0
ENDSEC
  0
EOF
