  0
SECTION
  2
HEADER
  9
$ACADVER
  1
AC1006
  9
$INSBASE
 10
2695.660563
 20
1702.335672
 30
0.0
  9
$EXTMIN
 10
2695.660563
 20
1702.335672
  9
$EXTMAX
 10
5642.132750
 20
3785.912433
  9
$LIMMIN
 10
2695.660563
 20
1702.335672
  9
$LIMMAX
 10
5642.132750
 20
3785.912433
  9
$VIEWCTR
 10
4168.896657
 20
2744.124053
  9
$VIEWSIZE
 40
2083.576761
  9
$SNAPMODE
 70
     0
  9
$SNAPUNIT
 10
1.0
 20
1.0
  9
$SNAPBASE
 10
0.0
 20
0.0
  9
$SNAPANG
 50
0.0
  9
$SNAPSTYLE
 70
     0
  9
$SNAPISOPAIR
 70
     0
  9
$GRIDMODE
 70
     0
  9
$GRIDUNIT
 10
0.0
 20
0.0
  9
$ORTHOMODE
 70
     0
  9
$REGENMODE
 70
     1
  9
$FILLMODE
 70
     1
  9
$QTEXTMODE
 70
     0
  9
$DRAGMODE
 70
     2
  9
$LTSCALE
 40
15.000000
  9
$OSMODE
 70
     0
  9
$ATTMODE
 70
     1
  9
$TEXTSIZE
 40
0.2
  9
$TRACEWID
 40
0.05
  9
$TEXTSTYLE
  7
STANDARD
  9
$CLAYER
  8
CSLAYER3
  9
$CELTYPE
  6
BYLAYER
  9
$CECOLOR
 62
   256
  9
$DIMSCALE
 40
1.0
  9
$DIMASZ
 40
0.18
  9
$DIMEXO
 40
0.0625
  9
$DIMDLI
 40
0.38
  9
$DIMRND
 40
0.0
  9
$DIMDLE
 40
0.0
  9
$DIMEXE
 40
0.18
  9
$DIMTP
 40
0.0
  9
$DIMTM
 40
0.0
  9
$DIMTXT
 40
0.18
  9
$DIMCEN
 40
0.09
  9
$DIMTSZ
 40
0.0
  9
$DIMTOL
 70
     0
  9
$DIMLIM
 70
     0
  9
$DIMTIH
 70
     1
  9
$DIMTOH
 70
     1
  9
$DIMSE1
 70
     0
  9
$DIMSE2
 70
     0
  9
$DIMTAD
 70
     0
  9
$DIMZIN
 70
     0
  9
$DIMBLK
  1

  9
$LUNITS
 70
     2
  9
$LUPREC
 70
     4
  9
$AXISMODE
 70
     0
  9
$AXISUNIT
 10
0.0
 20
0.0
  9
$SKETCHINC
 40
0.1
  9
$FILLETRAD
 40
0.0
  9
$AUNITS
 70
     0
  9
$AUPREC
 70
     0
  9
$MENU
  1
ACAD
  9
$ELEVATION
 40
0.0
  9
$THICKNESS
 40
0.0
  9
$VIEWDIR
 10
0.0
 20
0.0
 30
1.0
  9
$LIMCHECK
 70
     0
  9
$BLIPMODE
 70
     1
  9
$CHAMFERA
 40
0.0
  9
$CHAMFERB
 40
0.0
  9
$FASTZOOM
 70
     1
  9
$SKPOLY
 70
     0
  9
$TDCREATE
 40
2453121.000000
  9
$TDUPDATE
 40
2453121.000000
  9
$TDINDWG
 40
0.0
  9
$TDUSRTIMER
 40
0.0
  9
$USRTIMER
 70
     1
  9
$ANGBASE
 50
0.0
  9
$ANGDIR
 70
     0
  9
$PDMODE
 70
     0
  9
$PDSIZE
 40
0.0
  9
$PLINEWID
 40
0.0
  9
$COORDS
 70
     0
  9
$USERI1
 70
     0
  9
$USERI2
 70
     0
  9
$USERI3
 70
     0
  9
$USERI4
 70
     0
  9
$USERI5
 70
     0
  9
$USERR1
 40
0.0
  9
$USERR2
 40
0.0
  9
$USERR3
 40
0.0
  9
$USERR4
 40
0.0
  9
$USERR5
 40
0.0
  0
ENDSEC
  0
SECTION
  2
TABLES
  0
TABLE
  2
LTYPE
 70
     9
  0
LTYPE
  2
CONTINUOUS
 70
    64
  3
Solid line
 72
    65
 73
     0
 40
0.0
  0
LTYPE
  2
DASHED
 70
    64
  3
__ __ __ __ __ __ __ __ __ __ __ __ __ __ __
 72
    65
 73
     2
 40
0.75
 49
0.5
 49
-0.25
  0
LTYPE
  2
HIDDEN
 70
    64
  3
_ _ _ _ _ _ _ _ _ _ _ _ _ _ _ _ _ _ _ _ _ _ _
 72
    65
 73
     2
 40
0.375
 49
0.25
 49
-0.125
  0
LTYPE
  2
DOT
 70
    64
  3
...............................................
 72
    65
 73
     2
 40
0.25
 49
0.0
 49
-0.25
  0
LTYPE
  2
DASHDOT
 70
    64
  3
__ . __ . __ . __ . __ . __ . __ . __ . __ . __
 72
    65
 73
     4
 40
1.0
 49
0.5
 49
-0.25
 49
0.0
 49
-0.25
  0
LTYPE
  2
DIVIDE
 70
    64
  3
__ . . __ . . __ . . __ . . __ . . __ . . __
 72
    65
 73
     6
 40
1.25
 49
0.5
 49
-0.25
 49
0.0
 49
-0.25
 49
0.0
 49
-0.25
  0
LTYPE
  2
CENTER
 70
    64
  3
____ _ ____ _ ____ _ ____ _ ____ _ ____ _ ____ 
 72
    65
 73
     4
 40
2.0
 49
1.25
 49
-0.25
 49
0.25
 49
-0.25
  0
LTYPE
  2
PHANTOM
 70
    64
  3
______  __  __  ______  __  __  ______  __  __ 
 72
    65
 73
     6
 40
2.5
 49
1.25
 49
-0.25
 49
0.25
 49
-0.25
 49
0.25
 49
-0.25
  0
LTYPE
  2
BORDER
 70
    64
  3
__ __ . __ __ . __ __ . __ __ . __ __ . __ __ .
 72
    65
 73
     6
 40
1.75
 49
0.5
 49
-0.25
 49
0.5
 49
-0.25
 49
0.0
 49
-0.25
  0
ENDTAB
  0
TABLE
  2
LAYER
 70
    16
  0
LAYER
  2
CSLAYER1
 70
    64
 62
     7
  6
CONTINUOUS
  0
LAYER
  2
CSLAYER2
 70
    64
 62
     7
  6
CONTINUOUS
  0
LAYER
  2
CSLAYER3
 70
    64
 62
     7
  6
CONTINUOUS
  0
LAYER
  2
CSLAYER4
 70
    64
 62
     7
  6
CONTINUOUS
  0
LAYER
  2
CSLAYER5
 70
    64
 62
     7
  6
CONTINUOUS
  0
LAYER
  2
CSLAYER6
 70
    64
 62
     7
  6
CONTINUOUS
  0
LAYER
  2
CSLAYER7
 70
    64
 62
     7
  6
CONTINUOUS
  0
LAYER
  2
CSLAYER8
 70
    64
 62
     7
  6
CONTINUOUS
  0
LAYER
  2
CSLAYER9
 70
    64
 62
     7
  6
CONTINUOUS
  0
LAYER
  2
CSLAYER10
 70
    64
 62
     7
  6
CONTINUOUS
  0
LAYER
  2
CSLAYER11
 70
    64
 62
     7
  6
CONTINUOUS
  0
LAYER
  2
CSLAYER12
 70
    64
 62
     7
  6
CONTINUOUS
  0
LAYER
  2
CSLAYER13
 70
    64
 62
     7
  6
CONTINUOUS
  0
LAYER
  2
CSLAYER14
 70
    64
 62
     7
  6
CONTINUOUS
  0
LAYER
  2
CSLAYER15
 70
    64
 62
     7
  6
CONTINUOUS
  0
LAYER
  2
CSLAYER16
 70
    64
 62
     7
  6
CONTINUOUS
  0
ENDTAB
  0
TABLE
  2
STYLE
 70
     1
  0
STYLE
  2
FX_FONT
 70
     0
 40
1.0
 41
1.0
 50
0.0
 71
     0
 42
1.0
  3
monotxt
  4
bigfont
  0
ENDTAB
  0
TABLE
  2
VIEW
 70
     0
  0
ENDTAB
  0
ENDSEC
  0
SECTION
  2
BLOCKS
  0
BLOCK
  8
CSLAYER3
  2
*D0000
 70
    65
 10
0.0
 20
0.0
 30
0.0
  0
TEXT
  8
CSLAYER3
 62
     3
 10
3442.777100
 20
3016.749023
 40
30.000000
 41
0.562500
  1
760
 50
90.000000
 51
0.000000
  7
FX_FONT
 72
     5
 11
3442.777100
 21
3061.749023
  0
LINE
  8
CSLAYER3
  6
CONTINUOUS
 62
     8
 10
3667.138078
 20
2656.204131
 11
3444.916119
 21
2656.204131
  0
LINE
  8
CSLAYER3
  6
CONTINUOUS
 62
     8
 10
3667.138078
 20
3416.204131
 11
3444.916119
 21
3416.204131
  0
LINE
  8
CSLAYER3
  6
CONTINUOUS
 62
     8
 10
3446.916119
 20
2656.204131
 11
3446.916119
 21
3416.204131
  0
ENDBLK
  8
0
  0
BLOCK
  8
CSLAYER3
  2
*D0001
 70
    65
 10
0.0
 20
0.0
 30
0.0
  0
TEXT
  8
CSLAYER3
 62
     3
 10
3885.560303
 20
3310.620117
 40
30.000000
 41
0.529412
  1
776.26
 50
0.000000
 51
0.000000
  7
FX_FONT
 72
     5
 11
3975.560303
 21
3310.620117
  0
LINE
  8
CSLAYER3
  6
CONTINUOUS
 62
     8
 10
3521.664025
 20
3059.918417
 11
3521.664025
 21
3308.471533
  0
LINE
  8
CSLAYER3
  6
CONTINUOUS
 62
     8
 10
4297.923727
 20
3041.461274
 11
4297.923727
 21
3308.471533
  0
LINE
  8
CSLAYER3
  6
CONTINUOUS
 62
     8
 10
3521.664025
 20
3306.471533
 11
4297.923727
 21
3306.471533
  0
ENDBLK
  8
0
  0
BLOCK
  8
CSLAYER1
  2
FXDIM0000
 70
   64
 10
0.0
 20
0.0
 30
0.0
  0
TEXT
  8
CSLAYER3
 62
     7
 10
3588.683350
 20
3028.704102
 40
15.000000
 41
0.750000
  1
0
 50
0.000000
 51
0.000000
  7
FX_FONT
 72
     5
 11
3596.183350
 21
3028.704102
  0
LINE
  8
CSLAYER3
  6
CONTINUOUS
 62
     7
 10
3625.338078
 20
3036.204131
 11
3603.683792
 21
3036.204131
  0
ENDBLK
  8
0
  0
BLOCK
  8
CSLAYER1
  2
FXDIM0001
 70
   64
 10
0.0
 20
0.0
 30
0.0
  0
TEXT
  8
CSLAYER3
 62
     3
 10
3535.848389
 20
2981.137207
 40
30.000000
 41
0.535714
  1
27.14
 50
0.000000
 51
0.000000
  7
FX_FONT
 72
     5
 11
3610.848389
 21
2981.137207
  0
LINE
  8
CSLAYER3
  6
CONTINUOUS
 62
     8
 10
3625.338078
 20
3009.061274
 11
3603.683792
 21
3009.061274
  0
LINE
  8
CSLAYER3
  6
CONTINUOUS
 62
     8
 10
3605.683792
 20
3036.204131
 11
3605.683792
 21
3009.061274
  0
ENDBLK
  8
0
  0
BLOCK
  8
CSLAYER1
  2
FXDIM0002
 70
   64
 10
0.0
 20
0.0
 30
0.0
  0
TEXT
  8
CSLAYER3
 62
     3
 10
3553.088623
 20
2913.950195
 40
30.000000
 41
0.562500
  1
108
 50
0.000000
 51
0.000000
  7
FX_FONT
 72
     5
 11
3598.088623
 21
2913.950195
  0
LINE
  8
CSLAYER3
  6
CONTINUOUS
 62
     8
 10
3625.338078
 20
2928.718417
 11
3603.683792
 21
2928.718417
  0
LINE
  8
CSLAYER3
  6
CONTINUOUS
 62
     8
 10
3605.683792
 20
3009.061274
 11
3605.683792
 21
2928.718417
  0
ENDBLK
  8
0
  0
BLOCK
  8
CSLAYER1
  2
FXDIM0003
 70
   64
 10
0.0
 20
0.0
 30
0.0
  0
TEXT
  8
CSLAYER3
 62
     3
 10
3558.687256
 20
2834.445801
 40
30.000000
 41
0.562500
  1
188
 50
0.000000
 51
0.000000
  7
FX_FONT
 72
     5
 11
3603.687256
 21
2834.445801
  0
LINE
  8
CSLAYER3
  6
CONTINUOUS
 62
     8
 10
3625.338078
 20
2848.375560
 11
3603.683792
 21
2848.375560
  0
LINE
  8
CSLAYER3
  6
CONTINUOUS
 62
     8
 10
3605.683792
 20
2928.718417
 11
3605.683792
 21
2848.375560
  0
ENDBLK
  8
0
  0
BLOCK
  8
CSLAYER1
  2
FXDIM0004
 70
   64
 10
0.0
 20
0.0
 30
0.0
  0
TEXT
  8
CSLAYER3
 62
     3
 10
3559.036865
 20
2754.171387
 40
30.000000
 41
0.562500
  1
268
 50
0.000000
 51
0.000000
  7
FX_FONT
 72
     5
 11
3604.036865
 21
2754.171387
  0
LINE
  8
CSLAYER3
  6
CONTINUOUS
 62
     8
 10
3625.338078
 20
2768.032703
 11
3603.683792
 21
2768.032703
  0
LINE
  8
CSLAYER3
  6
CONTINUOUS
 62
     8
 10
3605.683792
 20
2848.375560
 11
3605.683792
 21
2768.032703
  0
ENDBLK
  8
0
  0
BLOCK
  8
CSLAYER1
  2
FXDIM0005
 70
   64
 10
0.0
 20
0.0
 30
0.0
  0
TEXT
  8
CSLAYER3
 62
     3
 10
3560.156982
 20
2674.666504
 40
30.000000
 41
0.562500
  1
348
 50
0.000000
 51
0.000000
  7
FX_FONT
 72
     5
 11
3605.156982
 21
2674.666504
  0
LINE
  8
CSLAYER3
  6
CONTINUOUS
 62
     8
 10
3625.338078
 20
2687.689845
 11
3603.683792
 21
2687.689845
  0
LINE
  8
CSLAYER3
  6
CONTINUOUS
 62
     8
 10
3605.683792
 20
2768.032703
 11
3605.683792
 21
2687.689845
  0
ENDBLK
  8
0
  0
BLOCK
  8
CSLAYER3
  2
*D0002
 70
    65
 10
0.0
 20
0.0
 30
0.0
  0
TEXT
  8
CSLAYER3
 62
     7
 10
3308.825687
 20
2212.328338
 40
15.000000
 41
0.600000
  1
60
 50
59.514267
 51
0.000000
  7
FX_FONT
 72
     5
 11
3316.435544
 21
2225.254670
  0
LINE
  8
CSLAYER3
  6
CONTINUOUS
 62
     7
 10
3310.211663
 20
2185.403309
 11
3297.411670
 21
2192.938789
  0
LINE
  8
CSLAYER3
  6
CONTINUOUS
 62
     7
 10
3340.651092
 20
2237.108640
 11
3327.851098
 21
2244.644120
  0
LINE
  8
CSLAYER3
  6
CONTINUOUS
 62
     7
 10
3299.135181
 20
2191.924142
 11
3329.574609
 21
2243.629472
  0
LINE
  8
CSLAYER3
  6
CONTINUOUS
 62
     7
 10
3299.135181
 20
2191.924142
 11
3299.669178
 21
2193.851535
  0
LINE
  8
CSLAYER3
  6
CONTINUOUS
 62
     7
 10
3299.135181
 20
2191.924142
 11
3300.561333
 21
2193.326315
  0
LINE
  8
CSLAYER3
  6
CONTINUOUS
 62
     7
 10
3329.574609
 20
2243.629472
 11
3329.040613
 21
2241.702078
  0
LINE
  8
CSLAYER3
  6
CONTINUOUS
 62
     7
 10
3329.574609
 20
2243.629472
 11
3328.148458
 21
2242.227298
  0
ENDBLK
  8
0
  0
BLOCK
  8
CSLAYER3
  2
*D0003
 70
    65
 10
0.0
 20
0.0
 30
0.0
  0
TEXT
  8
CSLAYER3
 62
     7
 10
3385.663700
 20
2193.525187
 40
15.000000
 41
0.562500
  1
135
 50
287.771332
 51
0.000000
  7
FX_FONT
 72
     5
 11
3392.531124
 21
2172.098837
  0
LINE
  8
CSLAYER3
  6
CONTINUOUS
 62
     7
 10
3344.279167
 20
2236.704430
 11
3369.258319
 21
2244.710568
  0
LINE
  8
CSLAYER3
  6
CONTINUOUS
 62
     7
 10
3385.483689
 20
2108.146321
 11
3410.462841
 21
2116.152459
  0
LINE
  8
CSLAYER3
  6
CONTINUOUS
 62
     7
 10
3367.353754
 20
2244.100131
 11
3408.558276
 21
2115.542022
  0
LINE
  8
CSLAYER3
  6
CONTINUOUS
 62
     7
 10
3367.353754
 20
2244.100131
 11
3368.436329
 21
2242.418455
  0
LINE
  8
CSLAYER3
  6
CONTINUOUS
 62
     7
 10
3367.353754
 20
2244.100131
 11
3367.450454
 21
2242.102470
  0
LINE
  8
CSLAYER3
  6
CONTINUOUS
 62
     7
 10
3408.558276
 20
2115.542022
 11
3407.475702
 21
2117.223697
  0
LINE
  8
CSLAYER3
  6
CONTINUOUS
 62
     7
 10
3408.558276
 20
2115.542022
 11
3408.461577
 21
2117.539683
  0
ENDBLK
  8
0
  0
BLOCK
  8
CSLAYER3
  2
*D0004
 70
    65
 10
0.0
 20
0.0
 30
0.0
  0
TEXT
  8
CSLAYER3
 62
     7
 10
3407.562256
 20
2090.290527
 40
15.000000
 41
0.600000
  1
18
 50
0.000000
 51
0.000000
  7
FX_FONT
 72
     5
 11
3422.562256
 21
2090.290527
  0
LINE
  8
CSLAYER3
  6
CONTINUOUS
 62
     7
 10
3383.579125
 20
2105.535883
 11
3383.579125
 21
2086.290106
  0
LINE
  8
CSLAYER3
  6
CONTINUOUS
 62
     7
 10
3401.579125
 20
2105.535883
 11
3401.579125
 21
2086.290106
  0
LINE
  8
CSLAYER3
  6
CONTINUOUS
 62
     7
 10
3383.579125
 20
2088.290106
 11
3401.579125
 21
2088.290106
  0
LINE
  8
CSLAYER3
  6
CONTINUOUS
 62
     7
 10
3381.579125
 20
2088.290106
 11
3383.579125
 21
2088.290106
  0
LINE
  8
CSLAYER3
  6
CONTINUOUS
 62
     7
 10
3383.579125
 20
2088.290106
 11
3381.647273
 21
2088.807744
  0
LINE
  8
CSLAYER3
  6
CONTINUOUS
 62
     7
 10
3383.579125
 20
2088.290106
 11
3381.647273
 21
2087.772468
  0
LINE
  8
CSLAYER3
  6
CONTINUOUS
 62
     7
 10
3401.579125
 20
2088.290106
 11
3428.546069
 21
2088.290106
  0
LINE
  8
CSLAYER3
  6
CONTINUOUS
 62
     7
 10
3401.579125
 20
2088.290106
 11
3403.510976
 21
2088.807744
  0
LINE
  8
CSLAYER3
  6
CONTINUOUS
 62
     7
 10
3401.579125
 20
2088.290106
 11
3403.510976
 21
2087.772468
  0
ENDBLK
  8
0
  0
BLOCK
  8
CSLAYER3
  2
*D0005
 70
    65
 10
0.0
 20
0.0
 30
0.0
  0
TEXT
  8
CSLAYER3
 62
     7
 10
3300.684326
 20
2130.672852
 40
15.000000
 41
0.562500
  1
110
 50
0.000000
 51
0.000000
  7
FX_FONT
 72
     5
 11
3323.184326
 21
2130.672852
  0
LINE
  8
CSLAYER3
  6
CONTINUOUS
 62
     7
 10
3260.326091
 20
2168.044669
 11
3260.326091
 21
2126.673004
  0
LINE
  8
CSLAYER3
  6
CONTINUOUS
 62
     7
 10
3363.544257
 20
2168.044669
 11
3363.544257
 21
2126.673004
  0
LINE
  8
CSLAYER3
  6
CONTINUOUS
 62
     7
 10
3260.326091
 20
2128.673004
 11
3363.544257
 21
2128.673004
  0
LINE
  8
CSLAYER3
  6
CONTINUOUS
 62
     7
 10
3260.326091
 20
2128.673004
 11
3262.257943
 21
2129.190642
  0
LINE
  8
CSLAYER3
  6
CONTINUOUS
 62
     7
 10
3260.326091
 20
2128.673004
 11
3262.257943
 21
2128.155366
  0
LINE
  8
CSLAYER3
  6
CONTINUOUS
 62
     7
 10
3363.544257
 20
2128.673004
 11
3361.612406
 21
2129.190642
  0
LINE
  8
CSLAYER3
  6
CONTINUOUS
 62
     7
 10
3363.544257
 20
2128.673004
 11
3361.612406
 21
2128.155366
  0
ENDBLK
  8
0
  0
BLOCK
  8
CSLAYER1
  2
FXDIM0006
 70
   64
 10
0.0
 20
0.0
 30
0.0
  0
TEXT
  8
CSLAYER3
 62
     7
 10
4142.741699
 20
2505.927246
 40
15.000000
 41
0.600000
  1
12
 50
90.000000
 51
0.000000
  7
FX_FONT
 72
     5
 11
4142.741699
 21
2520.927246
  0
LINE
  8
CSLAYER3
  6
CONTINUOUS
 62
     7
 10
4144.742201
 20
2491.346988
 11
4144.742201
 21
2493.346988
  0
LINE
  8
CSLAYER3
  6
CONTINUOUS
 62
     7
 10
4144.742201
 20
2493.346988
 11
4144.224563
 21
2491.415137
  0
LINE
  8
CSLAYER3
  6
CONTINUOUS
 62
     7
 10
4144.742201
 20
2493.346988
 11
4145.259839
 21
2491.415137
  0
ENDBLK
  8
0
  0
BLOCK
  8
CSLAYER3
  2
*D0006
 70
    65
 10
0.0
 20
0.0
 30
0.0
  0
TEXT
  8
CSLAYER3
 62
     7
 10
4962.499258
 20
3101.127930
 40
23.674812
 41
0.535714
  1
669mm
 50
0.000000
 51
0.000000
  7
FX_FONT
 72
     5
 11
5021.686289
 21
3101.127930
  0
LINE
  8
CSLAYER3
  6
CONTINUOUS
 62
     3
 10
4657.722387
 20
3100.128031
 11
5326.463084
 21
3100.128031
  0
LINE
  8
CSLAYER3
  6
CONTINUOUS
 62
     3
 10
4657.722387
 20
3100.128031
 11
4659.654239
 21
3100.645669
  0
LINE
  8
CSLAYER3
  6
CONTINUOUS
 62
     3
 10
4657.722387
 20
3100.128031
 11
4659.654239
 21
3099.610393
  0
LINE
  8
CSLAYER3
  6
CONTINUOUS
 62
     3
 10
5326.463084
 20
3100.128031
 11
5324.531233
 21
3100.645669
  0
LINE
  8
CSLAYER3
  6
CONTINUOUS
 62
     3
 10
5326.463084
 20
3100.128031
 11
5324.531233
 21
3099.610393
  0
LINE
  8
CSLAYER3
  6
CONTINUOUS
 62
     7
 10
4657.722387
 20
2989.670229
 11
4657.722387
 21
3101.128031
  0
LINE
  8
CSLAYER3
  6
CONTINUOUS
 62
     7
 10
5326.463084
 20
3057.575617
 11
5326.463084
 21
3101.128031
  0
ENDBLK
  8
0
  0
BLOCK
  8
CSLAYER1
  2
BLKF0000
 70
   64
 10
0.0
 20
0.0
 30
0.0
  0
LINE
  8
CSLAYER3
  6
CONTINUOUS
 62
     3
 10
3659.909507
 20
3416.204131
 11
3796.709507
 21
3416.204131
  0
LINE
  8
CSLAYER3
  6
CONTINUOUS
 62
     3
 10
3659.909507
 20
2656.204131
 11
3796.709507
 21
2656.204131
  0
LINE
  8
CSLAYER3
  6
CONTINUOUS
 62
     3
 10
3796.709507
 20
3416.204131
 11
3796.709507
 21
2656.204131
  0
LINE
  8
CSLAYER3
  6
CONTINUOUS
 62
     3
 10
3627.338078
 20
3383.632703
 11
3627.338078
 21
2688.775560
  0
ARC
  8
CSLAYER3
  6
CONTINUOUS
 62
     3
 10
3659.909507
 20
2688.775560
 40
32.571429
 50
180.000000
 51
270.000000
  0
ARC
  8
CSLAYER3
  6
CONTINUOUS
 62
     3
 10
3659.909507
 20
3383.632703
 40
32.571429
 50
90.000000
 51
180.000000
  0
ENDBLK
  8
0
  0
BLOCK
  8
CSLAYER1
  2
BLKF0001
 70
   64
 10
0.0
 20
0.0
 30
0.0
  0
LINE
  8
CSLAYER3
  6
CONTINUOUS
 62
     3
 10
4019.608198
 20
2497.689845
 11
4019.608198
 21
2509.289845
  0
LINE
  8
CSLAYER3
  6
CONTINUOUS
 62
     3
 10
4031.108198
 20
2509.989845
 11
4031.108198
 21
2505.989845
  0
LINE
  8
CSLAYER3
  6
CONTINUOUS
 62
     3
 10
4034.108198
 20
2509.989845
 11
4034.108198
 21
2505.989845
  0
CIRCLE
  8
CSLAYER3
  6
CONTINUOUS
 62
     3
 10
4032.608198
 20
2509.989845
 40
0.500000
  0
ARC
  8
CSLAYER3
  6
CONTINUOUS
 62
     3
 10
4032.608198
 20
2509.989845
 40
1.500000
 50
0.000000
 51
180.000000
  0
CIRCLE
  8
CSLAYER3
  6
CONTINUOUS
 62
     3
 10
4032.608198
 20
2496.989845
 40
0.500000
  0
ARC
  8
CSLAYER3
  6
CONTINUOUS
 62
     3
 10
4032.608198
 20
2496.989845
 40
1.500000
 50
180.000000
 51
360.000000
  0
CIRCLE
  8
CSLAYER3
  6
CONTINUOUS
 62
     3
 10
4026.108198
 20
2503.489845
 40
0.500000
  0
ARC
  8
CSLAYER3
  6
CONTINUOUS
 62
     3
 10
4026.108198
 20
2503.489845
 40
1.500000
 50
90.000000
 51
270.000000
  0
CIRCLE
  8
CSLAYER3
  6
CONTINUOUS
 62
     3
 10
4039.108198
 20
2503.489845
 40
0.500000
  0
ARC
  8
CSLAYER3
  6
CONTINUOUS
 62
     3
 10
4039.108198
 20
2503.489845
 40
1.500000
 50
-90.000000
 51
90.000000
  0
LINE
  8
CSLAYER3
  6
CONTINUOUS
 62
     3
 10
4026.108198
 20
2504.989845
 11
4030.108198
 21
2504.989845
  0
LINE
  8
CSLAYER3
  6
CONTINUOUS
 62
     3
 10
4039.108198
 20
2501.989845
 11
4035.108198
 21
2501.989845
  0
ARC
  8
CSLAYER3
  6
CONTINUOUS
 62
     3
 10
4030.108198
 20
2505.989845
 40
1.000000
 50
270.000000
 51
360.000000
  0
ARC
  8
CSLAYER3
  6
CONTINUOUS
 62
     3
 10
4030.108198
 20
2500.989845
 40
1.000000
 50
0.000000
 51
90.000000
  0
ARC
  8
CSLAYER3
  6
CONTINUOUS
 62
     3
 10
4035.108198
 20
2500.989845
 40
1.000000
 50
90.000000
 51
180.000000
  0
ARC
  8
CSLAYER3
  6
CONTINUOUS
 62
     3
 10
4035.108198
 20
2505.989845
 40
1.000000
 50
180.000000
 51
270.000000
  0
LINE
  8
CSLAYER3
  6
CONTINUOUS
 62
     3
 10
4035.108198
 20
2504.989845
 11
4039.108198
 21
2504.989845
  0
LINE
  8
CSLAYER3
  6
CONTINUOUS
 62
     3
 10
4034.108198
 20
2500.989845
 11
4034.108198
 21
2496.989845
  0
LINE
  8
CSLAYER3
  6
CONTINUOUS
 62
     3
 10
4030.108198
 20
2501.989845
 11
4026.108198
 21
2501.989845
  0
LINE
  8
CSLAYER3
  6
CONTINUOUS
 62
     3
 10
4031.108198
 20
2500.989845
 11
4031.108198
 21
2496.989845
  0
LINE
  8
CSLAYER3
  6
CONTINUOUS
 62
     3
 10
4017.608198
 20
2497.689845
 11
4017.608198
 21
2509.289845
  0
LINE
  8
CSLAYER3
  6
CONTINUOUS
 62
     3
 10
4013.108198
 20
2509.289845
 11
4043.108198
 21
2509.289845
  0
LINE
  8
CSLAYER3
  6
CONTINUOUS
 62
     3
 10
4038.608198
 20
2509.289845
 11
4038.608198
 21
2497.689845
  0
LINE
  8
CSLAYER3
  6
CONTINUOUS
 62
     3
 10
4043.108198
 20
2497.689845
 11
4013.108198
 21
2497.689845
  0
LINE
  8
CSLAYER3
  6
CONTINUOUS
 62
     3
 10
4043.108198
 20
2509.289845
 11
4043.108198
 21
2497.689845
  0
LINE
  8
CSLAYER3
  6
CONTINUOUS
 62
     3
 10
4013.108198
 20
2509.289845
 11
4013.108198
 21
2497.689845
  0
CIRCLE
  8
CSLAYER3
  6
CONTINUOUS
 62
     3
 10
4041.108198
 20
2503.489845
 40
1.000000
  0
CIRCLE
  8
CSLAYER3
  6
CONTINUOUS
 62
     3
 10
4015.108198
 20
2503.489845
 40
1.000000
  0
CIRCLE
  8
CSLAYER3
  6
CONTINUOUS
 62
     3
 10
4032.608198
 20
2503.489845
 40
1.500000
  0
CIRCLE
  8
CSLAYER3
  6
CONTINUOUS
 62
     3
 10
4032.608198
 20
2503.489845
 40
5.811350
  0
ENDBLK
  8
0
  0
BLOCK
  8
CSLAYER1
  2
BLKF0002
 70
   64
 10
0.0
 20
0.0
 30
0.0
  0
LINE
  8
CSLAYER3
  6
CONTINUOUS
 62
     3
 10
4019.608198
 20
2481.249159
 11
4019.608198
 21
2492.849159
  0
LINE
  8
CSLAYER3
  6
CONTINUOUS
 62
     3
 10
4031.108198
 20
2493.549159
 11
4031.108198
 21
2489.549159
  0
LINE
  8
CSLAYER3
  6
CONTINUOUS
 62
     3
 10
4034.108198
 20
2493.549159
 11
4034.108198
 21
2489.549159
  0
CIRCLE
  8
CSLAYER3
  6
CONTINUOUS
 62
     3
 10
4032.608198
 20
2493.549159
 40
0.500000
  0
ARC
  8
CSLAYER3
  6
CONTINUOUS
 62
     3
 10
4032.608198
 20
2493.549159
 40
1.500000
 50
0.000000
 51
180.000000
  0
CIRCLE
  8
CSLAYER3
  6
CONTINUOUS
 62
     3
 10
4032.608198
 20
2480.549159
 40
0.500000
  0
ARC
  8
CSLAYER3
  6
CONTINUOUS
 62
     3
 10
4032.608198
 20
2480.549159
 40
1.500000
 50
180.000000
 51
360.000000
  0
CIRCLE
  8
CSLAYER3
  6
CONTINUOUS
 62
     3
 10
4026.108198
 20
2487.049159
 40
0.500000
  0
ARC
  8
CSLAYER3
  6
CONTINUOUS
 62
     3
 10
4026.108198
 20
2487.049159
 40
1.500000
 50
90.000000
 51
270.000000
  0
CIRCLE
  8
CSLAYER3
  6
CONTINUOUS
 62
     3
 10
4039.108198
 20
2487.049159
 40
0.500000
  0
ARC
  8
CSLAYER3
  6
CONTINUOUS
 62
     3
 10
4039.108198
 20
2487.049159
 40
1.500000
 50
-90.000000
 51
90.000000
  0
LINE
  8
CSLAYER3
  6
CONTINUOUS
 62
     3
 10
4026.108198
 20
2488.549159
 11
4030.108198
 21
2488.549159
  0
LINE
  8
CSLAYER3
  6
CONTINUOUS
 62
     3
 10
4039.108198
 20
2485.549159
 11
4035.108198
 21
2485.549159
  0
ARC
  8
CSLAYER3
  6
CONTINUOUS
 62
     3
 10
4030.108198
 20
2489.549159
 40
1.000000
 50
270.000000
 51
360.000000
  0
ARC
  8
CSLAYER3
  6
CONTINUOUS
 62
     3
 10
4030.108198
 20
2484.549159
 40
1.000000
 50
0.000000
 51
90.000000
  0
ARC
  8
CSLAYER3
  6
CONTINUOUS
 62
     3
 10
4035.108198
 20
2484.549159
 40
1.000000
 50
90.000000
 51
180.000000
  0
ARC
  8
CSLAYER3
  6
CONTINUOUS
 62
     3
 10
4035.108198
 20
2489.549159
 40
1.000000
 50
180.000000
 51
270.000000
  0
LINE
  8
CSLAYER3
  6
CONTINUOUS
 62
     3
 10
4035.108198
 20
2488.549159
 11
4039.108198
 21
2488.549159
  0
LINE
  8
CSLAYER3
  6
CONTINUOUS
 62
     3
 10
4034.108198
 20
2484.549159
 11
4034.108198
 21
2480.549159
  0
LINE
  8
CSLAYER3
  6
CONTINUOUS
 62
     3
 10
4030.108198
 20
2485.549159
 11
4026.108198
 21
2485.549159
  0
LINE
  8
CSLAYER3
  6
CONTINUOUS
 62
     3
 10
4031.108198
 20
2484.549159
 11
4031.108198
 21
2480.549159
  0
LINE
  8
CSLAYER3
  6
CONTINUOUS
 62
     3
 10
4013.108198
 20
2492.849159
 11
4043.108198
 21
2492.849159
  0
LINE
  8
CSLAYER3
  6
CONTINUOUS
 62
     3
 10
4038.608198
 20
2492.849159
 11
4038.608198
 21
2481.249159
  0
LINE
  8
CSLAYER3
  6
CONTINUOUS
 62
     3
 10
4043.108198
 20
2481.249159
 11
4013.108198
 21
2481.249159
  0
LINE
  8
CSLAYER3
  6
CONTINUOUS
 62
     3
 10
4043.108198
 20
2492.849159
 11
4043.108198
 21
2481.249159
  0
LINE
  8
CSLAYER3
  6
CONTINUOUS
 62
     3
 10
4013.108198
 20
2492.849159
 11
4013.108198
 21
2481.249159
  0
CIRCLE
  8
CSLAYER3
  6
CONTINUOUS
 62
     3
 10
4041.108198
 20
2487.049159
 40
1.000000
  0
CIRCLE
  8
CSLAYER3
  6
CONTINUOUS
 62
     3
 10
4015.108198
 20
2487.049159
 40
1.000000
  0
CIRCLE
  8
CSLAYER3
  6
CONTINUOUS
 62
     3
 10
4032.608198
 20
2487.049159
 40
1.500000
  0
CIRCLE
  8
CSLAYER3
  6
CONTINUOUS
 62
     3
 10
4032.608198
 20
2487.049159
 40
5.811350
  0
ENDBLK
  8
0
  0
BLOCK
  8
CSLAYER1
  2
BLKF0003
 70
   64
 10
0.0
 20
0.0
 30
0.0
  0
LINE
  8
CSLAYER3
  6
CONTINUOUS
 62
     3
 10
2990.307781
 20
2983.673790
 11
3121.833269
 21
2983.673790
  0
LINE
  8
CSLAYER3
  6
CONTINUOUS
 62
     3
 10
3238.744814
 20
2983.673790
 11
3121.833269
 21
3005.594704
  0
LINE
  8
CSLAYER3
  6
CONTINUOUS
 62
     3
 10
3238.744814
 20
2983.673790
 11
3121.833269
 21
2961.752875
  0
LINE
  8
CSLAYER3
  6
CONTINUOUS
 62
     3
 10
3121.833269
 20
3005.594704
 11
3121.833269
 21
2961.752875
  0
ENDBLK
  8
0
  0
BLOCK
  8
CSLAYER1
  2
BLKF0004
 70
   64
 10
0.0
 20
0.0
 30
0.0
  0
LINE
  8
CSLAYER3
  6
CONTINUOUS
 62
     3
 10
3703.796802
 20
3035.786525
 11
3713.788078
 21
3035.786525
  0
LINE
  8
CSLAYER3
  6
CONTINUOUS
 62
     3
 10
3703.790446
 20
3035.986525
 11
3713.788078
 21
3035.986525
  0
LINE
  8
CSLAYER3
  6
CONTINUOUS
 62
     3
 10
3703.788094
 20
3036.186525
 11
3713.788078
 21
3036.186525
  0
LINE
  8
CSLAYER3
  6
CONTINUOUS
 62
     3
 10
3713.788078
 20
3036.386525
 11
3723.786415
 21
3036.386525
  0
LINE
  8
CSLAYER3
  6
CONTINUOUS
 62
     3
 10
3713.788078
 20
3036.586525
 11
3723.780764
 21
3036.586525
  0
LINE
  8
CSLAYER3
  6
CONTINUOUS
 62
     3
 10
3713.788078
 20
3036.786525
 11
3723.771105
 21
3036.786525
  0
LINE
  8
CSLAYER3
  6
CONTINUOUS
 62
     3
 10
3713.788078
 20
3036.986525
 11
3723.757424
 21
3036.986525
  0
LINE
  8
CSLAYER3
  6
CONTINUOUS
 62
     3
 10
3713.788078
 20
3037.186525
 11
3723.739706
 21
3037.186525
  0
LINE
  8
CSLAYER3
  6
CONTINUOUS
 62
     3
 10
3713.788078
 20
3037.386525
 11
3723.717929
 21
3037.386525
  0
LINE
  8
CSLAYER3
  6
CONTINUOUS
 62
     3
 10
3713.788078
 20
3037.586525
 11
3723.692067
 21
3037.586525
  0
LINE
  8
CSLAYER3
  6
CONTINUOUS
 62
     3
 10
3713.788078
 20
3037.786525
 11
3723.662086
 21
3037.786525
  0
LINE
  8
CSLAYER3
  6
CONTINUOUS
 62
     3
 10
3713.788078
 20
3037.986525
 11
3723.627950
 21
3037.986525
  0
LINE
  8
CSLAYER3
  6
CONTINUOUS
 62
     3
 10
3713.788078
 20
3038.186525
 11
3723.589615
 21
3038.186525
  0
LINE
  8
CSLAYER3
  6
CONTINUOUS
 62
     3
 10
3713.788078
 20
3038.386525
 11
3723.547031
 21
3038.386525
  0
LINE
  8
CSLAYER3
  6
CONTINUOUS
 62
     3
 10
3713.788078
 20
3038.586525
 11
3723.500143
 21
3038.586525
  0
LINE
  8
CSLAYER3
  6
CONTINUOUS
 62
     3
 10
3713.788078
 20
3038.786525
 11
3723.448888
 21
3038.786525
  0
LINE
  8
CSLAYER3
  6
CONTINUOUS
 62
     3
 10
3713.788078
 20
3038.986525
 11
3723.393196
 21
3038.986525
  0
LINE
  8
CSLAYER3
  6
CONTINUOUS
 62
     3
 10
3713.788078
 20
3039.186525
 11
3723.332989
 21
3039.186525
  0
LINE
  8
CSLAYER3
  6
CONTINUOUS
 62
     3
 10
3713.788078
 20
3039.386525
 11
3723.268182
 21
3039.386525
  0
LINE
  8
CSLAYER3
  6
CONTINUOUS
 62
     3
 10
3713.788078
 20
3039.586525
 11
3723.198679
 21
3039.586525
  0
LINE
  8
CSLAYER3
  6
CONTINUOUS
 62
     3
 10
3713.788078
 20
3039.786525
 11
3723.124376
 21
3039.786525
  0
LINE
  8
CSLAYER3
  6
CONTINUOUS
 62
     3
 10
3713.788078
 20
3039.986525
 11
3723.045156
 21
3039.986525
  0
LINE
  8
CSLAYER3
  6
CONTINUOUS
 62
     3
 10
3713.788078
 20
3040.186525
 11
3722.960893
 21
3040.186525
  0
LINE
  8
CSLAYER3
  6
CONTINUOUS
 62
     3
 10
3713.788078
 20
3040.386525
 11
3722.871447
 21
3040.386525
  0
LINE
  8
CSLAYER3
  6
CONTINUOUS
 62
     3
 10
3713.788078
 20
3040.586525
 11
3722.776661
 21
3040.586525
  0
LINE
  8
CSLAYER3
  6
CONTINUOUS
 62
     3
 10
3713.788078
 20
3040.786525
 11
3722.676366
 21
3040.786525
  0
LINE
  8
CSLAYER3
  6
CONTINUOUS
 62
     3
 10
3713.788078
 20
3040.986525
 11
3722.570373
 21
3040.986525
  0
LINE
  8
CSLAYER3
  6
CONTINUOUS
 62
     3
 10
3713.788078
 20
3041.186525
 11
3722.458473
 21
3041.186525
  0
LINE
  8
CSLAYER3
  6
CONTINUOUS
 62
     3
 10
3713.788078
 20
3041.386525
 11
3722.340434
 21
3041.386525
  0
LINE
  8
CSLAYER3
  6
CONTINUOUS
 62
     3
 10
3713.788078
 20
3041.586525
 11
3722.215998
 21
3041.586525
  0
LINE
  8
CSLAYER3
  6
CONTINUOUS
 62
     3
 10
3713.788078
 20
3041.786525
 11
3722.084877
 21
3041.786525
  0
LINE
  8
CSLAYER3
  6
CONTINUOUS
 62
     3
 10
3713.788078
 20
3041.986525
 11
3721.946750
 21
3041.986525
  0
LINE
  8
CSLAYER3
  6
CONTINUOUS
 62
     3
 10
3713.788078
 20
3042.186525
 11
3721.801253
 21
3042.186525
  0
LINE
  8
CSLAYER3
  6
CONTINUOUS
 62
     3
 10
3713.788078
 20
3042.386525
 11
3721.647977
 21
3042.386525
  0
LINE
  8
CSLAYER3
  6
CONTINUOUS
 62
     3
 10
3713.788078
 20
3042.586525
 11
3721.486458
 21
3042.586525
  0
LINE
  8
CSLAYER3
  6
CONTINUOUS
 62
     3
 10
3713.788078
 20
3042.786525
 11
3721.316165
 21
3042.786525
  0
LINE
  8
CSLAYER3
  6
CONTINUOUS
 62
     3
 10
3713.788078
 20
3042.986525
 11
3721.136488
 21
3042.986525
  0
LINE
  8
CSLAYER3
  6
CONTINUOUS
 62
     3
 10
3713.788078
 20
3043.186525
 11
3720.946722
 21
3043.186525
  0
LINE
  8
CSLAYER3
  6
CONTINUOUS
 62
     3
 10
3713.788078
 20
3043.386525
 11
3720.746039
 21
3043.386525
  0
LINE
  8
CSLAYER3
  6
CONTINUOUS
 62
     3
 10
3713.788078
 20
3043.586525
 11
3720.533466
 21
3043.586525
  0
LINE
  8
CSLAYER3
  6
CONTINUOUS
 62
     3
 10
3713.788078
 20
3043.786525
 11
3720.307841
 21
3043.786525
  0
LINE
  8
CSLAYER3
  6
CONTINUOUS
 62
     3
 10
3713.788078
 20
3043.986525
 11
3720.067755
 21
3043.986525
  0
LINE
  8
CSLAYER3
  6
CONTINUOUS
 62
     3
 10
3713.788078
 20
3044.186525
 11
3719.811481
 21
3044.186525
  0
LINE
  8
CSLAYER3
  6
CONTINUOUS
 62
     3
 10
3713.788078
 20
3044.386525
 11
3719.536854
 21
3044.386525
  0
LINE
  8
CSLAYER3
  6
CONTINUOUS
 62
     3
 10
3713.788078
 20
3044.586525
 11
3719.241102
 21
3044.586525
  0
LINE
  8
CSLAYER3
  6
CONTINUOUS
 62
     3
 10
3713.788078
 20
3044.786525
 11
3718.920574
 21
3044.786525
  0
LINE
  8
CSLAYER3
  6
CONTINUOUS
 62
     3
 10
3713.788078
 20
3044.986525
 11
3718.570291
 21
3044.986525
  0
LINE
  8
CSLAYER3
  6
CONTINUOUS
 62
     3
 10
3713.788078
 20
3045.186525
 11
3718.183143
 21
3045.186525
  0
LINE
  8
CSLAYER3
  6
CONTINUOUS
 62
     3
 10
3713.788078
 20
3045.386525
 11
3717.748336
 21
3045.386525
  0
LINE
  8
CSLAYER3
  6
CONTINUOUS
 62
     3
 10
3713.788078
 20
3045.586525
 11
3717.247945
 21
3045.586525
  0
LINE
  8
CSLAYER3
  6
CONTINUOUS
 62
     3
 10
3713.788078
 20
3045.786525
 11
3716.647750
 21
3045.786525
  0
LINE
  8
CSLAYER3
  6
CONTINUOUS
 62
     3
 10
3713.788078
 20
3045.986525
 11
3715.862871
 21
3045.986525
  0
LINE
  8
CSLAYER3
  6
CONTINUOUS
 62
     3
 10
3713.788078
 20
3046.186525
 11
3714.381212
 21
3046.186525
  0
LINE
  8
CSLAYER3
  6
CONTINUOUS
 62
     3
 10
3703.807168
 20
3035.586525
 11
3713.788078
 21
3035.586525
  0
LINE
  8
CSLAYER3
  6
CONTINUOUS
 62
     3
 10
3703.821558
 20
3035.386525
 11
3713.788078
 21
3035.386525
  0
LINE
  8
CSLAYER3
  6
CONTINUOUS
 62
     3
 10
3703.839989
 20
3035.186525
 11
3713.788078
 21
3035.186525
  0
LINE
  8
CSLAYER3
  6
CONTINUOUS
 62
     3
 10
3703.862483
 20
3034.986525
 11
3713.788078
 21
3034.986525
  0
LINE
  8
CSLAYER3
  6
CONTINUOUS
 62
     3
 10
3703.889069
 20
3034.786525
 11
3713.788078
 21
3034.786525
  0
LINE
  8
CSLAYER3
  6
CONTINUOUS
 62
     3
 10
3703.919778
 20
3034.586525
 11
3713.788078
 21
3034.586525
  0
LINE
  8
CSLAYER3
  6
CONTINUOUS
 62
     3
 10
3703.954650
 20
3034.386525
 11
3713.788078
 21
3034.386525
  0
LINE
  8
CSLAYER3
  6
CONTINUOUS
 62
     3
 10
3703.993730
 20
3034.186525
 11
3713.788078
 21
3034.186525
  0
LINE
  8
CSLAYER3
  6
CONTINUOUS
 62
     3
 10
3704.037067
 20
3033.986525
 11
3713.788078
 21
3033.986525
  0
LINE
  8
CSLAYER3
  6
CONTINUOUS
 62
     3
 10
3704.084719
 20
3033.786525
 11
3713.788078
 21
3033.786525
  0
LINE
  8
CSLAYER3
  6
CONTINUOUS
 62
     3
 10
3704.136750
 20
3033.586525
 11
3713.788078
 21
3033.586525
  0
LINE
  8
CSLAYER3
  6
CONTINUOUS
 62
     3
 10
3704.193231
 20
3033.386525
 11
3713.788078
 21
3033.386525
  0
LINE
  8
CSLAYER3
  6
CONTINUOUS
 62
     3
 10
3704.254241
 20
3033.186525
 11
3713.788078
 21
3033.186525
  0
LINE
  8
CSLAYER3
  6
CONTINUOUS
 62
     3
 10
3704.319868
 20
3032.986525
 11
3713.788078
 21
3032.986525
  0
LINE
  8
CSLAYER3
  6
CONTINUOUS
 62
     3
 10
3704.390208
 20
3032.786525
 11
3713.788078
 21
3032.786525
  0
LINE
  8
CSLAYER3
  6
CONTINUOUS
 62
     3
 10
3704.465368
 20
3032.586525
 11
3713.788078
 21
3032.586525
  0
LINE
  8
CSLAYER3
  6
CONTINUOUS
 62
     3
 10
3704.545466
 20
3032.386525
 11
3713.788078
 21
3032.386525
  0
LINE
  8
CSLAYER3
  6
CONTINUOUS
 62
     3
 10
3704.630631
 20
3032.186525
 11
3713.788078
 21
3032.186525
  0
LINE
  8
CSLAYER3
  6
CONTINUOUS
 62
     3
 10
3704.721006
 20
3031.986525
 11
3713.788078
 21
3031.986525
  0
LINE
  8
CSLAYER3
  6
CONTINUOUS
 62
     3
 10
3704.816749
 20
3031.786525
 11
3713.788078
 21
3031.786525
  0
LINE
  8
CSLAYER3
  6
CONTINUOUS
 62
     3
 10
3704.918032
 20
3031.586525
 11
3713.788078
 21
3031.586525
  0
LINE
  8
CSLAYER3
  6
CONTINUOUS
 62
     3
 10
3705.025050
 20
3031.386525
 11
3713.788078
 21
3031.386525
  0
LINE
  8
CSLAYER3
  6
CONTINUOUS
 62
     3
 10
3705.138013
 20
3031.186525
 11
3713.788078
 21
3031.186525
  0
LINE
  8
CSLAYER3
  6
CONTINUOUS
 62
     3
 10
3705.257159
 20
3030.986525
 11
3713.788078
 21
3030.986525
  0
LINE
  8
CSLAYER3
  6
CONTINUOUS
 62
     3
 10
3705.382750
 20
3030.786525
 11
3713.788078
 21
3030.786525
  0
LINE
  8
CSLAYER3
  6
CONTINUOUS
 62
     3
 10
3705.515080
 20
3030.586525
 11
3713.788078
 21
3030.586525
  0
LINE
  8
CSLAYER3
  6
CONTINUOUS
 62
     3
 10
3705.654478
 20
3030.386525
 11
3713.788078
 21
3030.386525
  0
LINE
  8
CSLAYER3
  6
CONTINUOUS
 62
     3
 10
3705.801313
 20
3030.186525
 11
3713.788078
 21
3030.186525
  0
LINE
  8
CSLAYER3
  6
CONTINUOUS
 62
     3
 10
3705.956005
 20
3029.986525
 11
3713.788078
 21
3029.986525
  0
LINE
  8
CSLAYER3
  6
CONTINUOUS
 62
     3
 10
3706.119028
 20
3029.786525
 11
3713.788078
 21
3029.786525
  0
LINE
  8
CSLAYER3
  6
CONTINUOUS
 62
     3
 10
3706.290926
 20
3029.586525
 11
3713.788078
 21
3029.586525
  0
LINE
  8
CSLAYER3
  6
CONTINUOUS
 62
     3
 10
3706.472325
 20
3029.386525
 11
3713.788078
 21
3029.386525
  0
LINE
  8
CSLAYER3
  6
CONTINUOUS
 62
     3
 10
3706.663950
 20
3029.186525
 11
3713.788078
 21
3029.186525
  0
LINE
  8
CSLAYER3
  6
CONTINUOUS
 62
     3
 10
3706.866650
 20
3028.986525
 11
3713.788078
 21
3028.986525
  0
LINE
  8
CSLAYER3
  6
CONTINUOUS
 62
     3
 10
3707.081431
 20
3028.786525
 11
3713.788078
 21
3028.786525
  0
LINE
  8
CSLAYER3
  6
CONTINUOUS
 62
     3
 10
3707.309492
 20
3028.586525
 11
3713.788078
 21
3028.586525
  0
LINE
  8
CSLAYER3
  6
CONTINUOUS
 62
     3
 10
3707.552291
 20
3028.386525
 11
3713.788078
 21
3028.386525
  0
LINE
  8
CSLAYER3
  6
CONTINUOUS
 62
     3
 10
3707.811625
 20
3028.186525
 11
3713.788078
 21
3028.186525
  0
LINE
  8
CSLAYER3
  6
CONTINUOUS
 62
     3
 10
3708.089749
 20
3027.986525
 11
3713.788078
 21
3027.986525
  0
LINE
  8
CSLAYER3
  6
CONTINUOUS
 62
     3
 10
3708.389568
 20
3027.786525
 11
3713.788078
 21
3027.786525
  0
LINE
  8
CSLAYER3
  6
CONTINUOUS
 62
     3
 10
3708.714927
 20
3027.586525
 11
3713.788078
 21
3027.586525
  0
LINE
  8
CSLAYER3
  6
CONTINUOUS
 62
     3
 10
3709.071106
 20
3027.386525
 11
3713.788078
 21
3027.386525
  0
LINE
  8
CSLAYER3
  6
CONTINUOUS
 62
     3
 10
3709.465720
 20
3027.186525
 11
3713.788078
 21
3027.186525
  0
LINE
  8
CSLAYER3
  6
CONTINUOUS
 62
     3
 10
3709.910483
 20
3026.986525
 11
3713.788078
 21
3026.986525
  0
LINE
  8
CSLAYER3
  6
CONTINUOUS
 62
     3
 10
3710.425237
 20
3026.786525
 11
3713.788078
 21
3026.786525
  0
LINE
  8
CSLAYER3
  6
CONTINUOUS
 62
     3
 10
3711.049163
 20
3026.586525
 11
3713.788078
 21
3026.586525
  0
LINE
  8
CSLAYER3
  6
CONTINUOUS
 62
     3
 10
3711.886864
 20
3026.386525
 11
3713.788078
 21
3026.386525
  0
ENDBLK
  8
0
  0
BLOCK
  8
CSLAYER1
  2
BLKF0005
 70
   64
 10
0.0
 20
0.0
 30
0.0
  0
LINE
  8
CSLAYER3
  6
CONTINUOUS
 62
     3
 10
4190.342932
 20
2601.918417
 11
4190.342932
 21
2431.918417
  0
ARC
  8
CSLAYER3
  6
CONTINUOUS
 62
     3
 10
4190.342932
 20
2547.632703
 40
54.285714
 50
90.000000
 51
112.350642
  0
LINE
  8
CSLAYER3
  6
CONTINUOUS
 62
     3
 10
4169.699499
 20
2597.840147
 11
4097.465714
 21
2559.454309
  0
LINE
  8
CSLAYER3
  6
CONTINUOUS
 62
     3
 10
4190.342932
 20
2431.918417
 11
4049.320429
 21
2437.074618
  0
ARC
  8
CSLAYER3
  6
CONTINUOUS
 62
     3
 10
4041.153771
 20
2665.421120
 40
120.000000
 50
261.835829
 51
297.986674
  0
CIRCLE
  8
CSLAYER3
  6
CONTINUOUS
 62
     3
 10
4152.546407
 20
2493.346988
 40
2.000000
  0
LINE
  8
CSLAYER3
  6
CONTINUOUS
 62
     3
 10
4049.320429
 20
2437.074618
 11
3679.390573
 21
2408.689073
  0
LINE
  8
CSLAYER3
  6
CONTINUOUS
 62
     3
 10
4024.112576
 20
2546.637293
 11
3734.697043
 21
2588.157983
  0
LINE
  8
CSLAYER3
  6
CONTINUOUS
 62
     3
 10
3643.004082
 20
2585.886950
 11
3734.697043
 21
2588.157983
  0
LINE
  8
CSLAYER3
  6
CONTINUOUS
 62
     3
 10
3605.155577
 20
2579.688349
 11
3643.004082
 21
2585.886950
  0
LINE
  8
CSLAYER3
  6
CONTINUOUS
 62
     3
 10
3605.155577
 20
2579.688349
 11
3521.602235
 21
2534.013030
  0
LINE
  8
CSLAYER3
  6
CONTINUOUS
 62
     3
 10
3563.031908
 20
2555.418668
 11
3590.720335
 21
2540.121303
  0
LINE
  8
CSLAYER3
  6
CONTINUOUS
 62
     3
 10
3590.720335
 20
2540.121303
 11
3727.868954
 21
2535.163239
  0
LINE
  8
CSLAYER3
  6
CONTINUOUS
 62
     3
 10
3727.868954
 20
2535.163239
 11
3798.084604
 21
2540.848716
  0
LINE
  8
CSLAYER3
  6
CONTINUOUS
 62
     3
 10
3836.450570
 20
2560.945175
 11
3798.084604
 21
2540.848716
  0
LINE
  8
CSLAYER3
  6
CONTINUOUS
 62
     3
 10
3845.840362
 20
2572.212925
 11
3836.450570
 21
2560.945175
  0
LINE
  8
CSLAYER3
  6
CONTINUOUS
 62
     3
 10
3521.602235
 20
2534.013030
 11
3521.602235
 21
2448.570470
  0
LINE
  8
CSLAYER3
  6
CONTINUOUS
 62
     3
 10
3521.602235
 20
2448.570470
 11
3604.898054
 21
2408.689073
  0
LINE
  8
CSLAYER3
  6
CONTINUOUS
 62
     3
 10
3604.898054
 20
2408.689073
 11
3679.390573
 21
2408.689073
  0
ARC
  8
CSLAYER3
  6
CONTINUOUS
 62
     3
 10
3666.278476
 20
2423.482257
 40
86.879767
 50
88.907661
 51
107.434077
  0
ARC
  8
CSLAYER3
  6
CONTINUOUS
 62
     3
 10
3647.912092
 20
2480.966603
 40
26.535094
 50
106.786530
 51
130.089721
  0
ARC
  8
CSLAYER3
  6
CONTINUOUS
 62
     3
 10
3640.545267
 20
2492.498564
 40
13.091606
 50
137.950679
 51
171.638595
  0
ARC
  8
CSLAYER3
  6
CONTINUOUS
 62
     3
 10
3647.912092
 20
2505.727374
 40
26.535094
 50
229.910279
 51
253.213470
  0
ARC
  8
CSLAYER3
  6
CONTINUOUS
 62
     3
 10
3640.545267
 20
2494.195412
 40
13.091606
 50
188.361405
 51
222.049321
  0
ARC
  8
CSLAYER3
  6
CONTINUOUS
 62
     3
 10
3666.278476
 20
2563.211719
 40
86.879767
 50
252.565923
 51
271.092339
  0
ARC
  8
CSLAYER3
  6
CONTINUOUS
 62
     3
 10
3646.346224
 20
3294.215645
 40
818.152781
 50
271.512033
 51
273.819036
  0
LINE
  8
CSLAYER3
  6
CONTINUOUS
 62
     3
 10
3700.839626
 20
2477.879659
 11
3743.525984
 21
2482.331384
  0
LINE
  8
CSLAYER3
  6
CONTINUOUS
 62
     3
 10
3743.525984
 20
2482.331384
 11
3756.111374
 21
2484.218692
  0
LINE
  8
CSLAYER3
  6
CONTINUOUS
 62
     3
 10
3756.111374
 20
2484.218692
 11
3793.878716
 21
2490.386207
  0
LINE
  8
CSLAYER3
  6
CONTINUOUS
 62
     3
 10
3793.878716
 20
2496.307769
 11
3756.111374
 21
2502.475285
  0
LINE
  8
CSLAYER3
  6
CONTINUOUS
 62
     3
 10
3743.525984
 20
2504.362593
 11
3700.839626
 21
2508.814317
  0
LINE
  8
CSLAYER3
  6
CONTINUOUS
 62
     3
 10
3756.111374
 20
2502.475285
 11
3743.525984
 21
2504.362593
  0
LINE
  8
CSLAYER3
  6
CONTINUOUS
 62
     3
 10
3666.366640
 20
2507.361978
 11
3666.366640
 21
2479.331998
  0
LINE
  8
CSLAYER3
  6
CONTINUOUS
 62
     3
 10
3669.080926
 20
2507.314014
 11
3669.080926
 21
2479.379963
  0
ARC
  8
CSLAYER3
  6
CONTINUOUS
 62
     3
 10
3636.573675
 20
2493.346988
 40
6.042648
 50
173.695367
 51
186.304633
  0
LINE
  8
CSLAYER3
  6
CONTINUOUS
 62
     3
 10
3667.866640
 20
2507.346988
 11
3667.866640
 21
2479.346988
  0
ARC
  8
CSLAYER3
  6
CONTINUOUS
 62
     3
 10
3666.278476
 20
2423.482257
 40
83.879767
 50
88.915107
 51
107.445903
  0
ARC
  8
CSLAYER3
  6
CONTINUOUS
 62
     3
 10
3647.912092
 20
2480.966603
 40
23.535094
 50
106.746134
 51
129.570055
  0
ARC
  8
CSLAYER3
  6
CONTINUOUS
 62
     3
 10
3640.545267
 20
2492.498564
 40
10.091606
 50
139.080530
 51
171.383098
  0
ARC
  8
CSLAYER3
  6
CONTINUOUS
 62
     3
 10
3646.346224
 20
1692.478331
 40
815.152781
 50
86.184889
 51
88.487189
  0
LINE
  8
CSLAYER3
  6
CONTINUOUS
 62
     3
 10
3743.147751
 20
2501.385768
 11
3755.647149
 21
2499.511355
  0
LINE
  8
CSLAYER3
  6
CONTINUOUS
 62
     3
 10
3793.395212
 20
2493.346988
 11
3755.647149
 21
2499.511355
  0
LINE
  8
CSLAYER3
  6
CONTINUOUS
 62
     3
 10
3700.584091
 20
2505.824697
 11
3743.147751
 21
2501.385768
  0
ARC
  8
CSLAYER3
  6
CONTINUOUS
 62
     3
 10
3636.573675
 20
2493.346988
 40
6.042648
 50
173.695367
 51
186.304633
  0
ARC
  8
CSLAYER3
  6
CONTINUOUS
 62
     3
 10
3666.278476
 20
2563.211719
 40
83.879767
 50
252.554097
 51
271.084893
  0
ARC
  8
CSLAYER3
  6
CONTINUOUS
 62
     3
 10
3647.912092
 20
2505.727374
 40
23.535094
 50
230.429945
 51
253.253866
  0
ARC
  8
CSLAYER3
  6
CONTINUOUS
 62
     3
 10
3640.545267
 20
2494.195412
 40
10.091606
 50
188.616902
 51
220.919470
  0
ARC
  8
CSLAYER3
  6
CONTINUOUS
 62
     3
 10
3646.346224
 20
3294.215645
 40
815.152781
 50
271.512811
 51
273.815111
  0
LINE
  8
CSLAYER3
  6
CONTINUOUS
 62
     3
 10
3743.147751
 20
2485.308208
 11
3755.647149
 21
2487.182621
  0
LINE
  8
CSLAYER3
  6
CONTINUOUS
 62
     3
 10
3793.395212
 20
2493.346988
 11
3755.647149
 21
2487.182621
  0
LINE
  8
CSLAYER3
  6
CONTINUOUS
 62
     3
 10
3700.584091
 20
2480.869280
 11
3743.147751
 21
2485.308208
  0
ARC
  8
CSLAYER3
  6
CONTINUOUS
 62
     3
 10
3646.346224
 20
1692.478331
 40
818.152781
 50
86.180964
 51
88.487967
  0
ARC
  8
CSLAYER3
  6
CONTINUOUS
 62
     3
 10
3793.395212
 20
2493.346988
 40
3.000000
 50
-80.725302
 51
80.725302
  0
LINE
  8
CSLAYER3
  6
CONTINUOUS
 62
     3
 10
3627.592818
 20
2494.402301
 11
3627.592818
 21
2492.291675
  0
ENDBLK
  8
0
  0
BLOCK
  8
CSLAYER1
  2
BLKF0006
 70
   64
 10
0.0
 20
0.0
 30
0.0
  0
LINE
  8
CSLAYER3
  6
CONTINUOUS
 62
     4
 10
3796.709507
 20
3006.632703
 11
3890.460779
 21
3004.629128
  0
LINE
  8
CSLAYER3
  6
CONTINUOUS
 62
     3
 10
3890.764133
 20
3004.622645
 11
3867.074687
 21
2661.493575
  0
LINE
  8
CSLAYER3
  6
CONTINUOUS
 62
     3
 10
3796.709507
 20
2656.204131
 11
3796.709507
 21
3003.632703
  0
LINE
  8
CSLAYER3
  6
CONTINUOUS
 62
     4
 10
3796.709507
 20
2656.204131
 11
3867.074687
 21
2661.493575
  0
ENDBLK
  8
0
  0
BLOCK
  8
CSLAYER1
  2
BLKF0007
 70
   64
 10
0.0
 20
0.0
 30
0.0
  0
LINE
  8
CSLAYER3
  6
CONTINUOUS
 62
     4
 10
3796.709507
 20
3065.775560
 11
3890.460779
 21
3067.779134
  0
LINE
  8
CSLAYER3
  6
CONTINUOUS
 62
     3
 10
3890.764133
 20
3067.785617
 11
3867.074687
 21
3410.914687
  0
LINE
  8
CSLAYER3
  6
CONTINUOUS
 62
     3
 10
3796.709507
 20
3416.204131
 11
3796.709507
 21
3068.775560
  0
LINE
  8
CSLAYER3
  6
CONTINUOUS
 62
     4
 10
3796.709507
 20
3416.204131
 11
3867.074687
 21
3410.914687
  0
ENDBLK
  8
0
  0
BLOCK
  8
CSLAYER1
  2
BLKF0008
 70
   64
 10
0.0
 20
0.0
 30
0.0
  0
LINE
  8
CSLAYER3
  6
CONTINUOUS
 62
     3
 10
4813.906186
 20
2813.281190
 11
4813.906186
 21
2785.251210
  0
LINE
  8
CSLAYER3
  6
CONTINUOUS
 62
     3
 10
4816.620472
 20
2813.233225
 11
4816.620472
 21
2785.299174
  0
ARC
  8
CSLAYER3
  6
CONTINUOUS
 62
     3
 10
4784.113221
 20
2799.266200
 40
6.042648
 50
173.695367
 51
186.304633
  0
ARC
  8
CSLAYER3
  6
CONTINUOUS
 62
     3
 10
4813.818021
 20
2729.401469
 40
83.879767
 50
89.939777
 51
107.445903
  0
ARC
  8
CSLAYER3
  6
CONTINUOUS
 62
     3
 10
4795.451637
 20
2786.885814
 40
23.535094
 50
106.746134
 51
129.570055
  0
ARC
  8
CSLAYER3
  6
CONTINUOUS
 62
     3
 10
4788.084813
 20
2798.417776
 40
10.091606
 50
139.080530
 51
171.383098
  0
ARC
  8
CSLAYER3
  6
CONTINUOUS
 62
     3
 10
4793.885769
 20
1998.397543
 40
815.152781
 50
86.184889
 51
88.401807
  0
LINE
  8
CSLAYER3
  6
CONTINUOUS
 62
     3
 10
4890.687296
 20
2807.304979
 11
4903.186694
 21
2805.430567
  0
LINE
  8
CSLAYER3
  6
CONTINUOUS
 62
     3
 10
4940.934757
 20
2799.266200
 11
4903.186694
 21
2805.430567
  0
LINE
  8
CSLAYER3
  6
CONTINUOUS
 62
     3
 10
4848.123636
 20
2811.743908
 11
4890.687296
 21
2807.304979
  0
ARC
  8
CSLAYER3
  6
CONTINUOUS
 62
     3
 10
4784.113221
 20
2799.266200
 40
6.042648
 50
173.695367
 51
186.304633
  0
ARC
  8
CSLAYER3
  6
CONTINUOUS
 62
     3
 10
4813.818021
 20
2869.130930
 40
83.879767
 50
252.554097
 51
270.060223
  0
ARC
  8
CSLAYER3
  6
CONTINUOUS
 62
     3
 10
4795.451637
 20
2811.646585
 40
23.535094
 50
230.429945
 51
253.253866
  0
ARC
  8
CSLAYER3
  6
CONTINUOUS
 62
     3
 10
4788.084813
 20
2800.114623
 40
10.091606
 50
188.616902
 51
220.919470
  0
ARC
  8
CSLAYER3
  6
CONTINUOUS
 62
     3
 10
4793.885769
 20
3600.134856
 40
815.152781
 50
271.598193
 51
273.815111
  0
LINE
  8
CSLAYER3
  6
CONTINUOUS
 62
     3
 10
4890.687296
 20
2791.227420
 11
4903.186694
 21
2793.101832
  0
LINE
  8
CSLAYER3
  6
CONTINUOUS
 62
     3
 10
4940.934757
 20
2799.266200
 11
4903.186694
 21
2793.101832
  0
LINE
  8
CSLAYER3
  6
CONTINUOUS
 62
     3
 10
4848.123636
 20
2786.788491
 11
4890.687296
 21
2791.227420
  0
ENDBLK
  8
0
  0
BLOCK
  8
CSLAYER1
  2
BLKF0009
 70
   64
 10
0.0
 20
0.0
 30
0.0
  0
LINE
  8
CSLAYER3
  6
CONTINUOUS
 62
     4
 10
4704.701014
 20
2636.363878
 11
4706.704588
 21
2730.115150
  0
LINE
  8
CSLAYER3
  6
CONTINUOUS
 62
     3
 10
4706.711071
 20
2730.418504
 11
5049.840141
 21
2706.729058
  0
LINE
  8
CSLAYER3
  6
CONTINUOUS
 62
     3
 10
5055.129585
 20
2636.363878
 11
4707.701014
 21
2636.363878
  0
LINE
  8
CSLAYER3
  6
CONTINUOUS
 62
     4
 10
5055.129585
 20
2636.363878
 11
5049.840141
 21
2706.729058
  0
ENDBLK
  8
0
  0
BLOCK
  8
CSLAYER1
  2
BLKF0010
 70
   64
 10
0.0
 20
0.0
 30
0.0
  0
LINE
  8
CSLAYER3
  6
CONTINUOUS
 62
     3
 10
5143.771305
 20
2734.241565
 11
5028.211769
 21
2734.241565
  0
LINE
  8
CSLAYER3
  6
CONTINUOUS
 62
     3
 10
5127.315278
 20
2849.533930
 11
5143.771305
 21
2734.241565
  0
LINE
  8
CSLAYER3
  6
CONTINUOUS
 62
     3
 10
4990.880103
 20
2865.186937
 11
4983.241522
 21
2786.800541
  0
LINE
  8
CSLAYER3
  6
DOT
 62
     3
 10
5057.057496
 20
2818.819971
 11
4986.361744
 21
2818.819971
  0
LINE
  8
CSLAYER3
  6
DOT
 62
     3
 10
5057.057496
 20
2823.162828
 11
4986.361744
 21
2823.162828
  0
LINE
  8
CSLAYER3
  6
DOT
 62
     3
 10
5067.914639
 20
2807.962828
 11
4985.303740
 21
2807.962828
  0
LINE
  8
CSLAYER3
  6
DOT
 62
     3
 10
5067.914639
 20
2834.019971
 11
4987.842951
 21
2834.019971
  0
LINE
  8
CSLAYER3
  6
DOT
 62
     3
 10
5067.914639
 20
2807.962828
 11
5067.914639
 21
2834.019971
  0
LINE
  8
CSLAYER3
  6
DOT
 62
     3
 10
5057.057496
 20
2818.819971
 11
5057.057496
 21
2823.162828
  0
LINE
  8
CSLAYER3
  6
CONTINUOUS
 62
     4
 10
4990.662308
 20
2865.212994
 11
5127.412551
 21
2848.852426
  0
ENDBLK
  8
0
  0
BLOCK
  8
CSLAYER1
  2
BLKF0011
 70
   64
 10
0.0
 20
0.0
 30
0.0
  0
LINE
  8
CSLAYER3
  6
CONTINUOUS
 62
     3
 10
5182.591160
 20
2813.546924
 11
5182.591160
 21
2742.851173
  0
LINE
  8
CSLAYER3
  6
CONTINUOUS
 62
     3
 10
5178.248303
 20
2813.546924
 11
5178.248303
 21
2742.851173
  0
LINE
  8
CSLAYER3
  6
CONTINUOUS
 62
     3
 10
5193.448303
 20
2824.404067
 11
5193.448303
 21
2741.793168
  0
LINE
  8
CSLAYER3
  6
CONTINUOUS
 62
     3
 10
5167.391160
 20
2824.404067
 11
5167.391160
 21
2744.332379
  0
LINE
  8
CSLAYER3
  6
CONTINUOUS
 62
     3
 10
5193.448303
 20
2824.404067
 11
5167.391160
 21
2824.404067
  0
LINE
  8
CSLAYER3
  6
CONTINUOUS
 62
     3
 10
5182.591160
 20
2813.546924
 11
5178.248303
 21
2813.546924
  0
LINE
  8
CSLAYER3
  6
CONTINUOUS
 62
     3
 10
5182.591160
 20
2742.851173
 11
5193.448303
 21
2741.793168
  0
LINE
  8
CSLAYER3
  6
CONTINUOUS
 62
     3
 10
5178.248303
 20
2742.851173
 11
5167.391160
 21
2744.332379
  0
ENDBLK
  8
0
  0
BLOCK
  8
CSLAYER1
  2
BLKF0012
 70
   64
 10
0.0
 20
0.0
 30
0.0
  0
LINE
  8
CSLAYER3
  6
CONTINUOUS
 62
     3
 10
5330.515408
 20
2862.959236
 11
5230.515539
 21
2862.797850
  0
LINE
  8
CSLAYER3
  6
CONTINUOUS
 62
     3
 10
5230.515539
 20
2692.797850
 11
5347.485532
 21
2700.163013
  0
LINE
  8
CSLAYER3
  6
CONTINUOUS
 62
     3
 10
5347.485532
 20
2700.163013
 11
5330.515408
 21
2862.959236
  0
LINE
  8
CSLAYER3
  6
CONTINUOUS
 62
     3
 10
5230.515539
 20
2862.797850
 11
5230.515539
 21
2692.797850
  0
ENDBLK
  8
0
  0
BLOCK
  8
CSLAYER1
  2
BLKF0013
 70
   64
 10
0.0
 20
0.0
 30
0.0
  0
LINE
  8
CSLAYER3
  6
CONTINUOUS
 62
     3
 10
3506.033164
 20
2351.939243
 11
3506.033164
 21
2634.224957
  0
LINE
  8
CSLAYER3
  6
CONTINUOUS
 62
     3
 10
3513.966068
 20
2547.367814
 11
3495.125422
 21
2547.367814
  0
LINE
  8
CSLAYER3
  6
CONTINUOUS
 62
     3
 10
3506.033164
 20
2634.224957
 11
3495.125422
 21
2547.367814
  0
LINE
  8
CSLAYER3
  6
CONTINUOUS
 62
     3
 10
3513.966068
 20
2438.796385
 11
3495.125422
 21
2438.796385
  0
LINE
  8
CSLAYER3
  6
CONTINUOUS
 62
     3
 10
3495.125422
 20
2547.367814
 11
3513.966068
 21
2438.796385
  0
LINE
  8
CSLAYER3
  6
CONTINUOUS
 62
     3
 10
3513.966068
 20
2438.796385
 11
3506.033164
 21
2351.939243
  0
LINE
  8
CSLAYER3
  6
CONTINUOUS
 62
     3
 10
3506.033164
 20
2351.939243
 11
3495.125422
 21
2438.796385
  0
LINE
  8
CSLAYER3
  6
CONTINUOUS
 62
     3
 10
3495.125422
 20
2438.796385
 11
3513.966068
 21
2547.367814
  0
LINE
  8
CSLAYER3
  6
CONTINUOUS
 62
     3
 10
3513.966068
 20
2547.367814
 11
3506.033164
 21
2634.224957
  0
ENDBLK
  8
0
  0
BLOCK
  8
CSLAYER1
  2
BLKF0014
 70
   64
 10
0.0
 20
0.0
 30
0.0
  0
LINE
  8
CSLAYER3
  6
CONTINUOUS
 62
     8
 10
3529.383538
 20
2507.196988
 11
3541.990787
 21
2507.196988
  0
LINE
  8
CSLAYER3
  6
CONTINUOUS
 62
     8
 10
3523.604221
 20
2497.846988
 11
3523.604221
 21
2488.846988
  0
LINE
  8
CSLAYER3
  6
CONTINUOUS
 62
     8
 10
3549.604221
 20
2504.664107
 11
3549.604221
 21
2482.029869
  0
LINE
  8
CSLAYER3
  6
CONTINUOUS
 62
     8
 10
3529.383538
 20
2479.496988
 11
3541.990787
 21
2479.496988
  0
LINE
  8
CSLAYER3
  6
CONTINUOUS
 62
     8
 10
3511.604221
 20
2494.931988
 11
3523.604221
 21
2494.931988
  0
LINE
  8
CSLAYER3
  6
CONTINUOUS
 62
     8
 10
3511.604221
 20
2491.761988
 11
3523.604221
 21
2491.761988
  0
LINE
  8
CSLAYER3
  6
CONTINUOUS
 62
     8
 10
3511.604221
 20
2494.931988
 11
3511.604221
 21
2491.761988
  0
LINE
  8
CSLAYER3
  6
CONTINUOUS
 62
     8
 10
3541.990787
 20
2507.196988
 11
3541.990787
 21
2479.496988
  0
LINE
  8
CSLAYER3
  6
CONTINUOUS
 62
     8
 10
3541.990787
 20
2507.196988
 11
3541.990787
 21
2479.496988
  0
LINE
  8
CSLAYER3
  6
CONTINUOUS
 62
     8
 10
3541.990787
 20
2507.196988
 11
3541.990787
 21
2479.496988
  0
LINE
  8
CSLAYER3
  6
CONTINUOUS
 62
     8
 10
3541.709518
 20
2507.196988
 11
3541.709518
 21
2479.496988
  0
LINE
  8
CSLAYER3
  6
CONTINUOUS
 62
     8
 10
3529.383538
 20
2507.196988
 11
3529.383538
 21
2479.496988
  0
LINE
  8
CSLAYER3
  6
CONTINUOUS
 62
     8
 10
3529.383538
 20
2507.196988
 11
3525.604221
 21
2502.452957
  0
LINE
  8
CSLAYER3
  6
CONTINUOUS
 62
     8
 10
3525.604221
 20
2502.452957
 11
3525.604221
 21
2484.241020
  0
LINE
  8
CSLAYER3
  6
CONTINUOUS
 62
     8
 10
3525.604221
 20
2493.346988
 11
3523.604221
 21
2493.346988
  0
LINE
  8
CSLAYER3
  6
CONTINUOUS
 62
     8
 10
3525.604221
 20
2497.846988
 11
3523.604221
 21
2497.846988
  0
LINE
  8
CSLAYER3
  6
CONTINUOUS
 62
     8
 10
3529.383538
 20
2479.496988
 11
3529.383538
 21
2507.196988
  0
LINE
  8
CSLAYER3
  6
CONTINUOUS
 62
     8
 10
3529.383538
 20
2479.496988
 11
3525.604221
 21
2484.241020
  0
LINE
  8
CSLAYER3
  6
CONTINUOUS
 62
     8
 10
3525.604221
 20
2488.846988
 11
3523.604221
 21
2488.846988
  0
LINE
  8
CSLAYER3
  6
CONTINUOUS
 62
     8
 10
3541.990787
 20
2507.196988
 11
3549.604221
 21
2504.664107
  0
LINE
  8
CSLAYER3
  6
CONTINUOUS
 62
     8
 10
3541.990787
 20
2479.496988
 11
3549.604221
 21
2482.029869
  0
ENDBLK
  8
0
  0
ENDSEC
  0
SECTION
  2
ENTITIES
  0
INSERT
  8
CSLAYER1
  2
BLKF0000
 10
0.0
 20
0.0
 30
0.0
  0
LINE
  8
CSLAYER3
  6
CONTINUOUS
 62
     3
 10
4239.949009
 20
3208.951629
 11
4239.949009
 21
3078.665915
  0
LINE
  8
CSLAYER3
  6
CONTINUOUS
 62
     3
 10
4297.923727
 20
3036.204131
 11
3521.664025
 21
3036.204131
  0
LINE
  8
CSLAYER3
  6
CONTINUOUS
 62
     3
 10
4124.656644
 20
3192.495602
 11
4239.949009
 21
3208.951629
  0
LINE
  8
CSLAYER3
  6
CONTINUOUS
 62
     3
 10
4193.247189
 20
3047.851078
 11
4239.949009
 21
3078.665915
  0
LINE
  8
CSLAYER3
  6
CONTINUOUS
 62
     3
 10
4239.949009
 20
2991.676777
 11
4239.949009
 21
2861.391062
  0
LINE
  8
CSLAYER3
  6
CONTINUOUS
 62
     3
 10
3521.664025
 20
3057.918417
 11
3521.664025
 21
3014.489845
  0
LINE
  8
CSLAYER3
  6
CONTINUOUS
 62
     3
 10
4103.547580
 20
2493.346988
 11
4239.949009
 21
2493.346988
  0
LINE
  8
CSLAYER3
  6
CONTINUOUS
 62
     3
 10
4233.833294
 20
2493.346988
 11
4173.255227
 21
2499.717163
  0
ARC
  8
CSLAYER3
  6
CONTINUOUS
 62
     3
 10
4146.384832
 20
2220.843888
 40
280.164812
 50
84.496346
 51
96.029948
  0
ARC
  8
CSLAYER3
  6
CONTINUOUS
 62
     3
 10
4121.070419
 20
2469.085845
 40
30.650417
 50
97.718270
 51
123.147387
  0
ARC
  8
CSLAYER3
  6
CONTINUOUS
 62
     3
 10
4121.070419
 20
2517.608131
 40
30.650417
 50
236.852613
 51
262.281730
  0
ARC
  8
CSLAYER3
  6
CONTINUOUS
 62
     3
 10
4146.384832
 20
2765.850089
 40
280.164812
 50
263.970052
 51
275.503654
  0
LINE
  8
CSLAYER3
  6
CONTINUOUS
 62
     3
 10
4233.833294
 20
2493.346988
 11
4173.255227
 21
2486.976814
  0
ARC
  8
CSLAYER3
  6
CONTINUOUS
 62
     3
 10
4105.215689
 20
2493.346988
 40
1.668110
 50
122.845947
 51
237.154053
  0
LINE
  8
CSLAYER3
  6
CONTINUOUS
 62
     3
 10
4290.404592
 20
2602.079803
 11
4190.404722
 21
2601.918417
  0
LINE
  8
CSLAYER3
  6
CONTINUOUS
 62
     3
 10
3627.338078
 20
3063.346988
 11
3909.594731
 21
3063.346988
  0
LINE
  8
CSLAYER3
  6
CONTINUOUS
 62
     3
 10
3627.338078
 20
3009.061274
 11
3909.594731
 21
3009.061274
  0
LINE
  8
CSLAYER3
  6
CONTINUOUS
 62
     3
 10
3627.338078
 20
3063.346988
 11
3521.664025
 21
3057.918417
  0
LINE
  8
CSLAYER3
  6
CONTINUOUS
 62
     3
 10
3521.664025
 20
3014.489845
 11
3627.338078
 21
3009.061274
  0
LINE
  8
CSLAYER3
  6
CONTINUOUS
 62
     3
 10
4297.923727
 20
3039.461274
 11
4048.391507
 21
3039.461274
  0
LINE
  8
CSLAYER3
  6
CONTINUOUS
 62
     3
 10
4297.923727
 20
3032.946988
 11
4048.391507
 21
3032.946988
  0
LINE
  8
CSLAYER3
  6
CONTINUOUS
 62
     3
 10
3510.692054
 20
2895.061274
 11
3510.692054
 21
3177.346988
  0
LINE
  8
CSLAYER3
  6
CONTINUOUS
 62
     3
 10
3518.624957
 20
3090.489845
 11
3499.784312
 21
3090.489845
  0
LINE
  8
CSLAYER3
  6
CONTINUOUS
 62
     3
 10
3510.692054
 20
3177.346988
 11
3499.784312
 21
3090.489845
  0
LINE
  8
CSLAYER3
  6
CONTINUOUS
 62
     3
 10
3518.624957
 20
2981.918417
 11
3499.784312
 21
2981.918417
  0
LINE
  8
CSLAYER3
  6
CONTINUOUS
 62
     3
 10
3499.784312
 20
3090.489845
 11
3518.624957
 21
2981.918417
  0
LINE
  8
CSLAYER3
  6
CONTINUOUS
 62
     3
 10
3518.624957
 20
2981.918417
 11
3510.692054
 21
2895.061274
  0
LINE
  8
CSLAYER3
  6
CONTINUOUS
 62
     3
 10
3510.692054
 20
2895.061274
 11
3499.784312
 21
2981.918417
  0
LINE
  8
CSLAYER3
  6
CONTINUOUS
 62
     3
 10
3499.784312
 20
2981.918417
 11
3518.624957
 21
3090.489845
  0
LINE
  8
CSLAYER3
  6
CONTINUOUS
 62
     3
 10
3518.624957
 20
3090.489845
 11
3510.692054
 21
3177.346988
  0
LINE
  8
CSLAYER3
  6
CONTINUOUS
 62
     3
 10
3617.613806
 20
2440.476311
 11
3583.785462
 21
2339.128777
  0
CIRCLE
  8
CSLAYER3
  6
CONTINUOUS
 62
     3
 10
3573.785462
 20
2339.128777
 40
13.571429
  0
LINE
  8
CSLAYER3
  6
CONTINUOUS
 62
     3
 10
4183.620565
 20
2433.211986
 11
4207.162931
 21
2414.226207
  0
LINE
  8
CSLAYER3
  6
CONTINUOUS
 62
     3
 10
3570.521168
 20
3017.746988
 11
3570.521168
 21
3054.661274
  0
LINE
  8
CSLAYER3
  6
CONTINUOUS
 62
     3
 10
3570.521168
 20
3017.746988
 11
3576.634314
 21
3017.746988
  0
LINE
  8
CSLAYER3
  6
CONTINUOUS
 62
     3
 10
3570.521168
 20
3054.661274
 11
3576.634314
 21
3054.661274
  0
LINE
  8
CSLAYER3
  6
CONTINUOUS
 62
     3
 10
3627.338078
 20
2687.689845
 11
3796.709507
 21
2687.689845
  0
LINE
  8
CSLAYER3
  6
CONTINUOUS
 62
     3
 10
3627.338078
 20
2928.718417
 11
3796.709507
 21
2928.718417
  0
LINE
  8
CSLAYER3
  6
CONTINUOUS
 62
     3
 10
3627.338078
 20
2848.375560
 11
3796.709507
 21
2848.375560
  0
LINE
  8
CSLAYER3
  6
CONTINUOUS
 62
     3
 10
3627.338078
 20
2768.032703
 11
3796.709507
 21
2768.032703
  0
LINE
  8
CSLAYER3
  6
CONTINUOUS
 62
     3
 10
3666.423793
 20
2656.204131
 11
3666.423793
 21
3416.204131
  0
LINE
  8
CSLAYER3
  6
CONTINUOUS
 62
     3
 10
3669.138078
 20
2656.204131
 11
3669.138078
 21
3416.204131
  0
LINE
  8
CSLAYER3
  6
CONTINUOUS
 62
     3
 10
4190.404722
 20
3030.775560
 11
4105.161052
 21
3023.175560
  0
LINE
  8
CSLAYER3
  6
CONTINUOUS
 62
     3
 10
4125.301380
 20
2879.651734
 11
4239.949009
 21
2861.391062
  0
LINE
  8
CSLAYER3
  6
CONTINUOUS
 62
     3
 10
4193.098863
 20
3024.542730
 11
4239.949009
 21
2991.676777
  0
LINE
  8
CSLAYER3
  6
CONTINUOUS
 62
     3
 10
3909.594731
 20
3063.346988
 11
4038.111020
 21
3059.696185
  0
LINE
  8
CSLAYER3
  6
CONTINUOUS
 62
     3
 10
4038.111020
 20
3059.696185
 11
4177.554972
 21
3046.107679
  0
LINE
  8
CSLAYER3
  6
CONTINUOUS
 62
     3
 10
4177.554972
 20
3046.107679
 11
4190.404722
 21
3041.632703
  0
LINE
  8
CSLAYER3
  6
CONTINUOUS
 62
     3
 10
3627.338078
 20
3060.089845
 11
3909.594731
 21
3060.089845
  0
LINE
  8
CSLAYER3
  6
CONTINUOUS
 62
     3
 10
3909.459226
 20
3060.092665
 11
4037.975514
 21
3056.441862
  0
LINE
  8
CSLAYER3
  6
CONTINUOUS
 62
     3
 10
4037.795115
 20
3056.454398
 11
4177.239067
 21
3042.865892
  0
LINE
  8
CSLAYER3
  6
CONTINUOUS
 62
     3
 10
4176.483759
 20
3043.031727
 11
4189.333510
 21
3038.556750
  0
LINE
  8
CSLAYER3
  6
CONTINUOUS
 62
     3
 10
4176.483759
 20
3029.376536
 11
4189.333510
 21
3033.851512
  0
LINE
  8
CSLAYER3
  6
CONTINUOUS
 62
     3
 10
4177.554972
 20
3026.300583
 11
4190.404722
 21
3030.775560
  0
LINE
  8
CSLAYER3
  6
CONTINUOUS
 62
     3
 10
4038.111020
 20
3012.712078
 11
4177.554972
 21
3026.300583
  0
LINE
  8
CSLAYER3
  6
CONTINUOUS
 62
     3
 10
4037.795115
 20
3015.953865
 11
4177.239067
 21
3029.542370
  0
LINE
  8
CSLAYER3
  6
CONTINUOUS
 62
     3
 10
3909.459226
 20
3012.315597
 11
4037.975514
 21
3015.966400
  0
LINE
  8
CSLAYER3
  6
CONTINUOUS
 62
     3
 10
3909.594731
 20
3009.061274
 11
4038.111020
 21
3012.712078
  0
LINE
  8
CSLAYER3
  6
CONTINUOUS
 62
     3
 10
3627.338078
 20
3012.318417
 11
3909.594731
 21
3012.318417
  0
LINE
  8
CSLAYER3
  6
CONTINUOUS
 62
     7
 10
3796.709507
 20
3060.089845
 11
3796.709507
 21
3012.318417
  0
LINE
  8
CSLAYER3
  6
CONTINUOUS
 62
     3
 10
4318.580578
 20
2438.600226
 11
3571.602695
 21
2317.359151
  0
LINE
  8
CSLAYER3
  6
CONTINUOUS
 62
     3
 10
4190.404722
 20
2431.918417
 11
4307.374716
 21
2439.283581
  0
LINE
  8
CSLAYER3
  6
CONTINUOUS
 62
     3
 10
4307.374716
 20
2439.283581
 11
4290.404592
 21
2602.079803
  0
LINE
  8
CSLAYER3
  6
CONTINUOUS
 62
     3
 10
4154.779627
 20
3123.061274
 11
4154.779627
 21
2949.346988
  0
LINE
  8
CSLAYER3
  6
CONTINUOUS
 62
     3
 10
4150.436770
 20
3123.061274
 11
4150.436770
 21
2949.346988
  0
LINE
  8
CSLAYER3
  6
CONTINUOUS
 62
     3
 10
4154.779627
 20
3123.061274
 11
4150.436770
 21
3123.061274
  0
LINE
  8
CSLAYER3
  6
CONTINUOUS
 62
     3
 10
4154.779627
 20
2949.346988
 11
4150.436770
 21
2949.346988
  0
LINE
  8
CSLAYER3
  6
CONTINUOUS
 62
     3
 10
3521.602235
 20
2493.346988
 11
3634.155384
 21
2493.346988
  0
LINE
  8
CSLAYER3
  6
CONTINUOUS
 62
     3
 10
4297.923727
 20
3039.461274
 11
4297.923727
 21
3032.946988
  0
LINE
  8
CSLAYER3
  6
CONTINUOUS
 62
     3
 10
4109.003636
 20
3056.060427
 11
4193.247189
 21
3047.851078
  0
LINE
  8
CSLAYER3
  6
CONTINUOUS
 62
     3
 10
4109.003636
 20
3016.347835
 11
4193.247189
 21
3024.557184
  0
LINE
  8
CSLAYER3
  6
CONTINUOUS
 62
     3
 10
4155.370603
 20
3122.237820
 11
4155.370603
 21
3056.204775
  0
LINE
  8
CSLAYER3
  6
CONTINUOUS
 62
     3
 10
4151.027746
 20
3122.237820
 11
4151.027746
 21
3056.627976
  0
LINE
  8
CSLAYER3
  6
CONTINUOUS
 62
     3
 10
4166.227746
 20
3133.094963
 11
4166.227746
 21
3055.146770
  0
LINE
  8
CSLAYER3
  6
CONTINUOUS
 62
     3
 10
4140.170603
 20
3133.094963
 11
4140.170603
 21
3057.685981
  0
LINE
  8
CSLAYER3
  6
CONTINUOUS
 62
     3
 10
4166.227746
 20
3133.094963
 11
4140.170603
 21
3133.094963
  0
LINE
  8
CSLAYER3
  6
CONTINUOUS
 62
     3
 10
4155.370603
 20
3122.237820
 11
4151.027746
 21
3122.237820
  0
LINE
  8
CSLAYER3
  6
CONTINUOUS
 62
     3
 10
4155.370603
 20
3056.204775
 11
4166.227746
 21
3055.146770
  0
LINE
  8
CSLAYER3
  6
CONTINUOUS
 62
     3
 10
4140.170603
 20
3057.685981
 11
4151.027746
 21
3056.627976
  0
LINE
  8
CSLAYER3
  6
CONTINUOUS
 62
     3
 10
4155.370603
 20
2950.170443
 11
4155.370603
 21
3016.203488
  0
LINE
  8
CSLAYER3
  6
CONTINUOUS
 62
     3
 10
4151.027746
 20
2950.170443
 11
4151.027746
 21
3015.780286
  0
LINE
  8
CSLAYER3
  6
CONTINUOUS
 62
     3
 10
4166.227746
 20
2939.313300
 11
4166.227746
 21
3017.261492
  0
LINE
  8
CSLAYER3
  6
CONTINUOUS
 62
     3
 10
4140.170603
 20
2939.313300
 11
4140.170603
 21
3014.722281
  0
LINE
  8
CSLAYER3
  6
CONTINUOUS
 62
     3
 10
4166.227746
 20
2939.313300
 11
4140.170603
 21
2939.313300
  0
LINE
  8
CSLAYER3
  6
CONTINUOUS
 62
     3
 10
4155.370603
 20
2950.170443
 11
4151.027746
 21
2950.170443
  0
LINE
  8
CSLAYER3
  6
CONTINUOUS
 62
     3
 10
4155.370603
 20
3016.203488
 11
4166.227746
 21
3017.261492
  0
LINE
  8
CSLAYER3
  6
CONTINUOUS
 62
     3
 10
4140.170603
 20
3014.722281
 11
4151.027746
 21
3015.780286
  0
TEXT
  8
CSLAYER3
 62
     3
 10
3683.120129
 20
3214.919306
 40
48.928967
 41
0.642211
  1
18.5dm
 50
0.000000
 51
0.000000
  7
FX_FONT
 72
     5
 11
3861.182117
 21
3214.919306
  0
DIMENSION
  8
CSLAYER3
 62
     3
  2
*D0000
 10
3446.916119
 20
3416.204131
 11
3427.777100
 21
3039.249023
 13
3669.138078
 23
2656.204131
 14
3669.138078
 24
3416.204131
 50
90.000000
 70
1
  0
DIMENSION
  8
CSLAYER3
 62
     3
  2
*D0001
 10
4297.923727
 20
3306.471533
 11
3930.560303
 21
3325.620117
 13
3521.664025
 23
3057.918417
 14
4297.923727
 24
3039.461274
  0
CIRCLE
  8
CSLAYER3
  6
CONTINUOUS
 62
     3
 10
4152.608198
 20
2493.346988
 40
2.000000
  0
LINE
  8
CSLAYER3
  6
CONTINUOUS
 62
     3
 10
3776.709507
 20
3060.089845
 11
3776.709507
 21
3012.318417
  0
LINE
  8
CSLAYER3
  6
CONTINUOUS
 62
     3
 10
4711.966023
 20
2574.186479
 11
4844.851247
 21
2574.186479
  0
LINE
  8
CSLAYER3
  6
CONTINUOUS
 62
     3
 10
4711.966023
 20
2621.957908
 11
4711.966023
 21
2574.186479
  0
LINE
  8
CSLAYER3
  6
CONTINUOUS
 62
     3
 10
4711.966023
 20
2621.957908
 11
4844.851247
 21
2621.957908
  0
LINE
  8
CSLAYER3
  6
CONTINUOUS
 62
     3
 10
4844.715741
 20
2621.960728
 11
4973.232030
 21
2618.309924
  0
LINE
  8
CSLAYER3
  6
CONTINUOUS
 62
     3
 10
4844.715741
 20
2574.183660
 11
4973.232030
 21
2577.834463
  0
LINE
  8
CSLAYER3
  6
CONTINUOUS
 62
     3
 10
4973.051630
 20
2577.821927
 11
5112.495582
 21
2591.410433
  0
LINE
  8
CSLAYER3
  6
CONTINUOUS
 62
     3
 10
4973.051630
 20
2618.322460
 11
5112.495582
 21
2604.733954
  0
LINE
  8
CSLAYER3
  6
CONTINUOUS
 62
     3
 10
5111.740275
 20
2604.899789
 11
5121.905550
 21
2601.359692
  0
LINE
  8
CSLAYER3
  6
CONTINUOUS
 62
     3
 10
5111.740275
 20
2591.244598
 11
5121.905550
 21
2594.784695
  0
LINE
  8
CSLAYER3
  6
CENTER
 62
     3
 10
5124.559901
 20
2598.072194
 11
4711.966023
 21
2598.072194
  0
ARC
  8
CSLAYER3
  6
CONTINUOUS
 62
     3
 10
5120.590026
 20
2597.582207
 40
4.000000
 50
7.036221
 51
70.799126
  0
ARC
  8
CSLAYER3
  6
CONTINUOUS
 62
     3
 10
5120.590026
 20
2598.562181
 40
4.000000
 50
289.200874
 51
352.963779
  0
LINE
  8
CSLAYER3
  6
DASHED
 62
     4
 10
4731.966023
 20
2621.957908
 11
4731.966023
 21
2574.186479
  0
LINE
  8
CSLAYER3
  6
CONTINUOUS
 62
     3
 10
3567.228708
 20
3056.857008
 11
3567.228708
 21
3015.551254
  0
LINE
  8
CSLAYER3
  6
CONTINUOUS
 62
     3
 10
3567.228708
 20
3015.551254
 11
3627.465779
 21
3012.058555
  0
LINE
  8
CSLAYER3
  6
CONTINUOUS
 62
     3
 10
3627.465779
 20
3060.349707
 11
3567.228708
 21
3056.857008
  0
LINE
  8
CSLAYER3
  6
CONTINUOUS
 62
     3
 10
4712.888055
 20
2821.175718
 11
4684.560354
 21
2817.683019
  0
LINE
  8
CSLAYER3
  6
CONTINUOUS
 62
     3
 10
4684.560354
 20
2817.683019
 11
4684.560354
 21
2776.377265
  0
LINE
  8
CSLAYER3
  6
CONTINUOUS
 62
     3
 10
4684.560354
 20
2776.377265
 11
4712.888055
 21
2772.884566
  0
LINE
  8
CSLAYER3
  6
CONTINUOUS
 62
     3
 10
4712.760354
 20
2773.144428
 11
4754.560354
 21
2773.144428
  0
LINE
  8
CSLAYER3
  6
CONTINUOUS
 62
     3
 10
4712.760354
 20
2820.915856
 11
4754.560354
 21
2820.915856
  0
LINE
  8
CSLAYER3
  6
CONTINUOUS
 62
     3
 10
4754.560354
 20
2773.144428
 11
4754.560354
 21
2820.915856
  0
TEXT
  8
CSLAYER3
 62
     3
 10
3831.952518
 20
2745.396244
 40
74.100090
 41
0.903126
  1
Akabara12
 50
0.000000
 51
0.000000
  7
FX_FONT
 72
     5
 11
4411.941036
 21
2745.396244
  0
INSERT
  8
CSLAYER1
  2
FXDIM0000
 10
0.0
 20
0.0
 30
0.0
  0
INSERT
  8
CSLAYER1
  2
FXDIM0001
 10
0.0
 20
0.0
 30
0.0
  0
INSERT
  8
CSLAYER1
  2
FXDIM0002
 10
0.0
 20
0.0
 30
0.0
  0
INSERT
  8
CSLAYER1
  2
FXDIM0003
 10
0.0
 20
0.0
 30
0.0
  0
INSERT
  8
CSLAYER1
  2
FXDIM0004
 10
0.0
 20
0.0
 30
0.0
  0
INSERT
  8
CSLAYER1
  2
FXDIM0005
 10
0.0
 20
0.0
 30
0.0
  0
INSERT
  8
CSLAYER1
  2
BLKF0001
 10
0.0
 20
0.0
 30
0.0
  0
ARC
  8
CSLAYER3
  6
CONTINUOUS
 62
     3
 10
4152.608198
 20
2505.346988
 40
3.500000
 50
0.000000
 51
180.000000
  0
LINE
  8
CSLAYER3
  6
CONTINUOUS
 62
     3
 10
4156.108198
 20
2505.346988
 11
4156.108198
 21
2493.346988
  0
LINE
  8
CSLAYER3
  6
CONTINUOUS
 62
     3
 10
4149.108198
 20
2505.346988
 11
4149.108198
 21
2493.346988
  0
ARC
  8
CSLAYER3
  6
CONTINUOUS
 62
     3
 10
4152.608198
 20
2493.346988
 40
3.500000
 50
180.000000
 51
360.000000
  0
LINE
  8
CSLAYER3
  6
DOT
 62
     3
 10
4152.608198
 20
2505.346988
 11
4032.608198
 21
2509.989845
  0
INSERT
  8
CSLAYER1
  2
BLKF0002
 10
0.0
 20
0.0
 30
0.0
  0
LINE
  8
CSLAYER3
  6
DOT
 62
     3
 10
4032.608198
 20
2480.549159
 11
4154.431453
 21
2467.701999
  0
LINE
  8
CSLAYER3
  6
CONTINUOUS
 62
     3
 10
4191.324144
 20
2470.815724
 11
4201.142887
 21
2470.815724
  0
LINE
  8
CSLAYER3
  6
CONTINUOUS
 62
     3
 10
4201.142887
 20
2470.815724
 11
4201.142887
 21
2455.060067
  0
LINE
  8
CSLAYER3
  6
CONTINUOUS
 62
     3
 10
4201.142887
 20
2455.060067
 11
4191.324144
 21
2455.060067
  0
LINE
  8
CSLAYER3
  6
CONTINUOUS
 62
     3
 10
4191.324144
 20
2455.060067
 11
4191.324144
 21
2470.815724
  0
LINE
  8
CSLAYER3
  6
CONTINUOUS
 62
     3
 10
4189.237142
 20
2460.009301
 11
4199.740755
 21
2458.901618
  0
LINE
  8
CSLAYER3
  6
CONTINUOUS
 62
     3
 10
4189.237142
 20
2460.009301
 11
4190.404722
 21
2463.908353
  0
CIRCLE
  8
CSLAYER3
  6
CONTINUOUS
 62
     3
 10
4154.431453
 20
2467.701999
 40
2.000000
  0
LINE
  8
CSLAYER3
  6
CONTINUOUS
 62
     3
 10
4154.431453
 20
2467.701999
 11
4190.404722
 21
2463.908353
  0
LINE
  8
CSLAYER3
  6
CONTINUOUS
 62
     3
 10
4190.404722
 20
3039.461274
 11
4190.404722
 21
3029.204131
  0
CIRCLE
  8
CSLAYER3
  6
CONTINUOUS
 62
     3
 10
4190.404722
 20
3025.204131
 40
1.000000
  0
ARC
  8
CSLAYER3
  6
CONTINUOUS
 62
     3
 10
4190.404722
 20
3025.204131
 40
4.000000
 50
90.000000
 51
320.352925
  0
LINE
  8
CSLAYER3
  6
CONTINUOUS
 62
     3
 10
4202.056259
 20
3032.995848
 11
4193.484680
 21
3022.651904
  0
LINE
  8
CSLAYER3
  6
CONTINUOUS
 62
     3
 10
3597.290192
 20
2399.135179
 11
3412.400346
 21
2230.862350
  0
LINE
  8
CSLAYER3
  6
CONTINUOUS
 62
     3
 10
3412.400346
 20
2230.862350
 11
3463.549147
 21
2300.278580
  0
LINE
  8
CSLAYER3
  6
CONTINUOUS
 62
     3
 10
3412.400346
 20
2230.862350
 11
3484.893150
 21
2277.548603
  0
LINE
  8
CSLAYER3
  6
CENTER
 62
     7
 10
3311.935174
 20
2360.669350
 11
3311.935174
 21
2072.043974
  0
LINE
  8
CSLAYER3
  6
CONTINUOUS
 62
     3
 10
3311.935174
 20
2184.388662
 11
3342.374603
 21
2236.093992
  0
LINE
  8
CSLAYER3
  6
CONTINUOUS
 62
     3
 10
3342.374603
 20
2236.093992
 11
3383.579125
 21
2107.535883
  0
LINE
  8
CSLAYER3
  6
CONTINUOUS
 62
     3
 10
3383.579125
 20
2107.535883
 11
3401.579125
 21
2107.535883
  0
LINE
  8
CSLAYER3
  6
CONTINUOUS
 62
     3
 10
3311.935174
 20
2184.388662
 11
3281.495746
 21
2236.093992
  0
LINE
  8
CSLAYER3
  6
CONTINUOUS
 62
     3
 10
3281.495746
 20
2236.093992
 11
3240.291224
 21
2107.535883
  0
LINE
  8
CSLAYER3
  6
CONTINUOUS
 62
     3
 10
3240.291224
 20
2107.535883
 11
3209.236595
 21
2107.535883
  0
DIMENSION
  8
CSLAYER3
 62
     7
  2
*D0002
 10
3329.574609
 20
2243.629472
 11
3312.630615
 21
2218.791504
 13
3311.935174
 23
2184.388662
 14
3342.374603
 24
2236.093992
 50
59.514266
 70
1
  0
DIMENSION
  8
CSLAYER3
 62
     7
  2
*D0003
 10
3408.558276
 20
2115.542022
 11
3389.097412
 21
2182.812012
 13
3342.374603
 23
2236.093992
 14
3383.579125
 24
2107.535883
 50
287.771321
 52
-270.000000
 70
1
  0
DIMENSION
  8
CSLAYER3
 62
     7
  2
*D0004
 10
3401.579125
 20
2088.290106
 11
3415.062256
 21
2090.290527
 13
3383.579125
 23
2107.535883
 14
3401.579125
 24
2107.535883
 52
270.000000
 70
1
  0
LINE
  8
CSLAYER3
  6
CONTINUOUS
 62
     7
 10
3365.644475
 20
2170.044669
 11
3390.623627
 21
2178.050808
  0
LINE
  8
CSLAYER3
  6
CONTINUOUS
 62
     3
 10
3363.544257
 20
2170.044669
 11
3260.326091
 21
2170.044669
  0
DIMENSION
  8
CSLAYER3
 62
     7
  2
*D0005
 10
3363.544257
 20
2128.673004
 11
3311.934326
 21
2130.672852
 13
3260.326091
 23
2170.044669
 14
3363.544257
 24
2170.044669
 52
270.000000
 70
1
  0
INSERT
  8
CSLAYER1
  2
FXDIM0006
 10
0.0
 20
0.0
 30
0.0
  0
INSERT
  8
CSLAYER1
  2
BLKF0003
 10
0.0
 20
0.0
 30
0.0
  0
LINE
  8
CSLAYER3
  6
CONTINUOUS
 62
     3
 10
3713.788078
 20
3060.089845
 11
3713.788078
 21
3012.318417
  0
CIRCLE
  8
CSLAYER3
  6
CONTINUOUS
 62
     3
 10
3713.788078
 20
3036.204131
 40
10.000000
  0
INSERT
  8
CSLAYER1
  2
BLKF0004
 10
0.0
 20
0.0
 30
0.0
  0
INSERT
  8
CSLAYER1
  2
BLKF0005
 10
0.0
 20
0.0
 30
0.0
  0
LINE
  8
CSLAYER3
  6
CONTINUOUS
 62
     4
 10
4108.977580
 20
3055.842632
 11
4125.338147
 21
3192.592875
  0
LINE
  8
CSLAYER3
  6
CONTINUOUS
 62
     4
 10
4108.977580
 20
3016.565630
 11
4125.356931
 21
2879.658380
  0
INSERT
  8
CSLAYER1
  2
BLKF0006
 10
0.0
 20
0.0
 30
0.0
  0
INSERT
  8
CSLAYER1
  2
BLKF0007
 10
0.0
 20
0.0
 30
0.0
  0
TEXT
  8
CSLAYER3
 62
     3
 10
3942.543598
 20
2657.478020
 40
74.201187
 41
0.534483
  1
2004/04/12
 50
0.000000
 51
0.000000
  7
FX_FONT
 72
     5
 11
4325.916363
 21
2657.478020
  0
TEXT
  8
CSLAYER3
 62
     3
 10
5115.842087
 20
2622.877598
 40
56.946953
 41
0.547059
  1
切り抜き原型
 50
0.000000
 51
0.000000
  7
FX_FONT
 72
     5
 11
5292.377640
 21
2622.877598
  0
LINE
  8
CSLAYER3
  6
CONTINUOUS
 62
     3
 10
5326.463084
 20
3056.575617
 11
5326.463084
 21
2886.575617
  0
ARC
  8
CSLAYER3
  6
CONTINUOUS
 62
     3
 10
5326.463084
 20
3002.289902
 40
54.285714
 50
90.000000
 51
112.350642
  0
LINE
  8
CSLAYER3
  6
CONTINUOUS
 62
     3
 10
5305.819651
 20
3052.497346
 11
5233.585867
 21
3014.111509
  0
LINE
  8
CSLAYER3
  6
CONTINUOUS
 62
     3
 10
5326.463084
 20
2886.575617
 11
5185.440581
 21
2891.731817
  0
ARC
  8
CSLAYER3
  6
CONTINUOUS
 62
     3
 10
5177.273923
 20
3120.078320
 40
120.000000
 50
261.835829
 51
297.986674
  0
LINE
  8
CSLAYER3
  6
CONTINUOUS
 62
     3
 10
5185.440581
 20
2891.731817
 11
4815.510726
 21
2863.346273
  0
LINE
  8
CSLAYER3
  6
CONTINUOUS
 62
     3
 10
5160.232729
 20
3001.294492
 11
4870.817196
 21
3042.815183
  0
LINE
  8
CSLAYER3
  6
CENTER
 62
     3
 10
4932.767869
 20
2948.004188
 11
5326.463084
 21
2948.004188
  0
LINE
  8
CSLAYER3
  6
CONTINUOUS
 62
     3
 10
4779.124234
 20
3040.544149
 11
4870.817196
 21
3042.815183
  0
LINE
  8
CSLAYER3
  6
CONTINUOUS
 62
     3
 10
4741.275730
 20
3034.345549
 11
4779.124234
 21
3040.544149
  0
LINE
  8
CSLAYER3
  6
CONTINUOUS
 62
     3
 10
4741.275730
 20
3034.345549
 11
4657.722387
 21
2988.670229
  0
LINE
  8
CSLAYER3
  6
CONTINUOUS
 62
     3
 10
4699.152061
 20
3010.075867
 11
4726.840488
 21
2994.778503
  0
LINE
  8
CSLAYER3
  6
CONTINUOUS
 62
     3
 10
4726.840488
 20
2994.778503
 11
4863.989107
 21
2989.820438
  0
LINE
  8
CSLAYER3
  6
CONTINUOUS
 62
     3
 10
4863.989107
 20
2989.820438
 11
4934.204756
 21
2995.505916
  0
LINE
  8
CSLAYER3
  6
CONTINUOUS
 62
     3
 10
4972.570722
 20
3015.602375
 11
4934.204756
 21
2995.505916
  0
LINE
  8
CSLAYER3
  6
CONTINUOUS
 62
     3
 10
4981.960515
 20
3026.870125
 11
4972.570722
 21
3015.602375
  0
LINE
  8
CSLAYER3
  6
CONTINUOUS
 62
     3
 10
4657.722387
 20
2988.670229
 11
4657.722387
 21
2903.227669
  0
LINE
  8
CSLAYER3
  6
CONTINUOUS
 62
     3
 10
4657.722387
 20
2903.227669
 11
4741.018206
 21
2863.346273
  0
LINE
  8
CSLAYER3
  6
CONTINUOUS
 62
     3
 10
4741.018206
 20
2863.346273
 11
4815.510726
 21
2863.346273
  0
ARC
  8
CSLAYER3
  6
CONTINUOUS
 62
     3
 10
4802.398628
 20
2878.139457
 40
86.879767
 50
88.907661
 51
107.434077
  0
ARC
  8
CSLAYER3
  6
CONTINUOUS
 62
     3
 10
4784.032244
 20
2935.623803
 40
26.535094
 50
106.786530
 51
130.089721
  0
ARC
  8
CSLAYER3
  6
CONTINUOUS
 62
     3
 10
4776.665420
 20
2947.155764
 40
13.091606
 50
137.950679
 51
171.638595
  0
ARC
  8
CSLAYER3
  6
CONTINUOUS
 62
     3
 10
4784.032244
 20
2960.384573
 40
26.535094
 50
229.910279
 51
253.213470
  0
ARC
  8
CSLAYER3
  6
CONTINUOUS
 62
     3
 10
4776.665420
 20
2948.852612
 40
13.091606
 50
188.361405
 51
222.049321
  0
ARC
  8
CSLAYER3
  6
CONTINUOUS
 62
     3
 10
4802.398628
 20
3017.868919
 40
86.879767
 50
252.565923
 51
271.092339
  0
ARC
  8
CSLAYER3
  6
CONTINUOUS
 62
     3
 10
4782.466376
 20
3748.872845
 40
818.152781
 50
271.512033
 51
273.819036
  0
LINE
  8
CSLAYER3
  6
CONTINUOUS
 62
     3
 10
4836.959779
 20
2932.536859
 11
4879.646137
 21
2936.988584
  0
LINE
  8
CSLAYER3
  6
CONTINUOUS
 62
     3
 10
4879.646137
 20
2936.988584
 11
4892.231526
 21
2938.875892
  0
LINE
  8
CSLAYER3
  6
CONTINUOUS
 62
     3
 10
4892.231526
 20
2938.875892
 11
4929.998868
 21
2945.043407
  0
LINE
  8
CSLAYER3
  6
CONTINUOUS
 62
     3
 10
4929.998868
 20
2950.964969
 11
4892.231526
 21
2957.132484
  0
LINE
  8
CSLAYER3
  6
CONTINUOUS
 62
     3
 10
4879.646137
 20
2959.019792
 11
4836.959779
 21
2963.471517
  0
LINE
  8
CSLAYER3
  6
CONTINUOUS
 62
     3
 10
4892.231526
 20
2957.132484
 11
4879.646137
 21
2959.019792
  0
ARC
  8
CSLAYER3
  6
CONTINUOUS
 62
     3
 10
4782.466376
 20
2147.135531
 40
818.152781
 50
86.180964
 51
88.487967
  0
ARC
  8
CSLAYER3
  6
CONTINUOUS
 62
     3
 10
4929.515364
 20
2948.004188
 40
3.000000
 50
-80.725302
 51
80.725302
  0
LINE
  8
CSLAYER3
  6
CONTINUOUS
 62
     3
 10
4763.712971
 20
2949.059501
 11
4763.712971
 21
2946.948875
  0
INSERT
  8
CSLAYER1
  2
BLKF0008
 10
0.0
 20
0.0
 30
0.0
  0
CIRCLE
  8
CSLAYER3
  6
CONTINUOUS
 62
     3
 10
5288.666560
 20
2948.004188
 40
3.000000
  0
INSERT
  8
CSLAYER1
  2
BLKF0009
 10
0.0
 20
0.0
 30
0.0
  0
INSERT
  8
CSLAYER1
  2
BLKF0010
 10
0.0
 20
0.0
 30
0.0
  0
INSERT
  8
CSLAYER1
  2
BLKF0011
 10
0.0
 20
0.0
 30
0.0
  0
INSERT
  8
CSLAYER1
  2
BLKF0012
 10
0.0
 20
0.0
 30
0.0
  0
TEXT
  8
CSLAYER3
 62
     3
 10
5258.057129
 20
2780.906250
 40
30.000000
 41
0.562500
  1
ラダー
 50
0.000000
 51
0.000000
  7
FX_FONT
 72
     5
 11
5303.057129
 21
2780.906250
  0
TEXT
  8
CSLAYER3
 62
     3
 10
5013.852051
 20
2772.193359
 40
30.000000
 41
0.521739
  1
フライングテール
 50
0.000000
 51
0.000000
  7
FX_FONT
 72
     5
 11
5133.852051
 21
2772.193359
  0
TEXT
  8
CSLAYER3
 62
     3
 10
5028.852051
 20
2742.193359
 40
30.000000
 41
0.529412
  1
エレベーター
 50
0.000000
 51
0.000000
  7
FX_FONT
 72
     5
 11
5118.852051
 21
2742.193359
  0
TEXT
  8
CSLAYER3
 62
     3
 10
4820.511230
 20
2663.807617
 40
30.000000
 41
0.545455
  1
エルロン
 50
0.000000
 51
0.000000
  7
FX_FONT
 72
     5
 11
4880.511230
 21
2663.807617
  0
TEXT
  8
CSLAYER3
 62
     3
 10
4811.844238
 20
2583.072266
 40
30.000000
 41
0.545455
  1
胴体補強
 50
0.000000
 51
0.000000
  7
FX_FONT
 72
     5
 11
4871.844238
 21
2583.072266
  0
TEXT
  8
CSLAYER3
 62
     3
 10
4691.937988
 20
2790.212402
 40
20.000000
 41
0.529412
  1
機首ブロック
 50
0.000000
 51
0.000000
  7
FX_FONT
 72
     5
 11
4751.937988
 21
2790.212402
  0
TEXT
  8
CSLAYER3
 62
     3
 10
4706.937988
 20
2770.212402
 40
20.000000
 41
0.562500
  1
投影図
 50
0.000000
 51
0.000000
  7
FX_FONT
 72
     5
 11
4736.937988
 21
2770.212402
  0
INSERT
  8
CSLAYER1
  2
BLKF0013
 10
0.0
 20
0.0
 30
0.0
  0
INSERT
  8
CSLAYER1
  2
BLKF0014
 10
0.0
 20
0.0
 30
0.0
  0
CIRCLE
  8
CSLAYER3
  6
CONTINUOUS
 62
     3
 10
5190.718258
 20
2593.483172
 40
0.750000
  0
CIRCLE
  8
CSLAYER3
  6
CONTINUOUS
 62
     3
 10
5209.718258
 20
2593.483172
 40
0.750000
  0
CIRCLE
  8
CSLAYER3
  6
CONTINUOUS
 62
     3
 10
5200.218258
 20
2585.483172
 40
0.750000
  0
CIRCLE
  8
CSLAYER3
  6
CONTINUOUS
 62
     3
 10
5200.218258
 20
2601.483172
 40
0.750000
  0
CIRCLE
  8
CSLAYER3
  6
CONTINUOUS
 62
     3
 10
5200.218258
 20
2593.483172
 40
2.000000
  0
LINE
  8
CSLAYER3
  6
CONTINUOUS
 62
     3
 10
5176.218258
 20
2608.483172
 11
5224.218258
 21
2608.483172
  0
LINE
  8
CSLAYER3
  6
CONTINUOUS
 62
     3
 10
5176.218258
 20
2578.483172
 11
5224.218258
 21
2578.483172
  0
LINE
  8
CSLAYER3
  6
CONTINUOUS
 62
     3
 10
5224.218258
 20
2608.483172
 11
5224.218258
 21
2578.483172
  0
LINE
  8
CSLAYER3
  6
CONTINUOUS
 62
     3
 10
5176.218258
 20
2608.483172
 11
5176.218258
 21
2578.483172
  0
TEXT
  8
CSLAYER3
 62
     3
 10
5127.369629
 20
2545.859375
 40
30.000000
 41
0.517241
  1
AXIモーターベット
 50
0.000000
 51
0.000000
  7
FX_FONT
 72
     5
 11
5277.369629
 21
2545.859375
  0
LINE
  8
CSLAYER3
  6
CONTINUOUS
 62
     8
 10
4983.241522
 20
2786.800541
 11
5028.211769
 21
2734.241565
  0
DIMENSION
  8
CSLAYER3
 62
     7
  2
*D0006
 10
5326.463084
 20
3100.128031
 11
4992.092773
 21
3101.127930
 13
4657.722387
 23
2988.670229
 14
5326.463084
 24
3056.575617
  0
ENDSEC
  0
EOF
