  0
SECTION
  2
HEADER
  9
$ACADVER
  1
AC1006
  9
$INSBASE
 10
2923.883609
 20
1735.197426
 30
0.0
  9
$EXTMIN
 10
2923.883609
 20
1735.197426
  9
$EXTMAX
 10
5777.413462
 20
3753.050679
  9
$LIMMIN
 10
2923.883609
 20
1735.197426
  9
$LIMMAX
 10
5777.413462
 20
3753.050679
  9
$VIEWCTR
 10
4350.648536
 20
2744.124053
  9
$VIEWSIZE
 40
2017.853253
  9
$SNAPMODE
 70
     0
  9
$SNAPUNIT
 10
1.0
 20
1.0
  9
$SNAPBASE
 10
0.0
 20
0.0
  9
$SNAPANG
 50
0.0
  9
$SNAPSTYLE
 70
     0
  9
$SNAPISOPAIR
 70
     0
  9
$GRIDMODE
 70
     0
  9
$GRIDUNIT
 10
0.0
 20
0.0
  9
$ORTHOMODE
 70
     0
  9
$REGENMODE
 70
     1
  9
$FILLMODE
 70
     1
  9
$QTEXTMODE
 70
     0
  9
$DRAGMODE
 70
     2
  9
$LTSCALE
 40
15.000000
  9
$OSMODE
 70
     0
  9
$ATTMODE
 70
     1
  9
$TEXTSIZE
 40
0.2
  9
$TRACEWID
 40
0.05
  9
$TEXTSTYLE
  7
STANDARD
  9
$CLAYER
  8
CSLAYER3
  9
$CELTYPE
  6
BYLAYER
  9
$CECOLOR
 62
   256
  9
$DIMSCALE
 40
1.0
  9
$DIMASZ
 40
0.18
  9
$DIMEXO
 40
0.0625
  9
$DIMDLI
 40
0.38
  9
$DIMRND
 40
0.0
  9
$DIMDLE
 40
0.0
  9
$DIMEXE
 40
0.18
  9
$DIMTP
 40
0.0
  9
$DIMTM
 40
0.0
  9
$DIMTXT
 40
0.18
  9
$DIMCEN
 40
0.09
  9
$DIMTSZ
 40
0.0
  9
$DIMTOL
 70
     0
  9
$DIMLIM
 70
     0
  9
$DIMTIH
 70
     1
  9
$DIMTOH
 70
     1
  9
$DIMSE1
 70
     0
  9
$DIMSE2
 70
     0
  9
$DIMTAD
 70
     0
  9
$DIMZIN
 70
     0
  9
$DIMBLK
  1

  9
$LUNITS
 70
     2
  9
$LUPREC
 70
     4
  9
$AXISMODE
 70
     0
  9
$AXISUNIT
 10
0.0
 20
0.0
  9
$SKETCHINC
 40
0.1
  9
$FILLETRAD
 40
0.0
  9
$AUNITS
 70
     0
  9
$AUPREC
 70
     0
  9
$MENU
  1
ACAD
  9
$ELEVATION
 40
0.0
  9
$THICKNESS
 40
0.0
  9
$VIEWDIR
 10
0.0
 20
0.0
 30
1.0
  9
$LIMCHECK
 70
     0
  9
$BLIPMODE
 70
     1
  9
$CHAMFERA
 40
0.0
  9
$CHAMFERB
 40
0.0
  9
$FASTZOOM
 70
     1
  9
$SKPOLY
 70
     0
  9
$TDCREATE
 40
2453170.000000
  9
$TDUPDATE
 40
2453291.000000
  9
$TDINDWG
 40
0.0
  9
$TDUSRTIMER
 40
0.0
  9
$USRTIMER
 70
     1
  9
$ANGBASE
 50
0.0
  9
$ANGDIR
 70
     0
  9
$PDMODE
 70
     0
  9
$PDSIZE
 40
0.0
  9
$PLINEWID
 40
0.0
  9
$COORDS
 70
     0
  9
$USERI1
 70
     0
  9
$USERI2
 70
     0
  9
$USERI3
 70
     0
  9
$USERI4
 70
     0
  9
$USERI5
 70
     0
  9
$USERR1
 40
0.0
  9
$USERR2
 40
0.0
  9
$USERR3
 40
0.0
  9
$USERR4
 40
0.0
  9
$USERR5
 40
0.0
  0
ENDSEC
  0
SECTION
  2
TABLES
  0
TABLE
  2
LTYPE
 70
     9
  0
LTYPE
  2
CONTINUOUS
 70
    64
  3
Solid line
 72
    65
 73
     0
 40
0.0
  0
LTYPE
  2
DASHED
 70
    64
  3
__ __ __ __ __ __ __ __ __ __ __ __ __ __ __
 72
    65
 73
     2
 40
0.75
 49
0.5
 49
-0.25
  0
LTYPE
  2
HIDDEN
 70
    64
  3
_ _ _ _ _ _ _ _ _ _ _ _ _ _ _ _ _ _ _ _ _ _ _
 72
    65
 73
     2
 40
0.375
 49
0.25
 49
-0.125
  0
LTYPE
  2
DOT
 70
    64
  3
...............................................
 72
    65
 73
     2
 40
0.25
 49
0.0
 49
-0.25
  0
LTYPE
  2
DASHDOT
 70
    64
  3
__ . __ . __ . __ . __ . __ . __ . __ . __ . __
 72
    65
 73
     4
 40
1.0
 49
0.5
 49
-0.25
 49
0.0
 49
-0.25
  0
LTYPE
  2
DIVIDE
 70
    64
  3
__ . . __ . . __ . . __ . . __ . . __ . . __
 72
    65
 73
     6
 40
1.25
 49
0.5
 49
-0.25
 49
0.0
 49
-0.25
 49
0.0
 49
-0.25
  0
LTYPE
  2
CENTER
 70
    64
  3
____ _ ____ _ ____ _ ____ _ ____ _ ____ _ ____ 
 72
    65
 73
     4
 40
2.0
 49
1.25
 49
-0.25
 49
0.25
 49
-0.25
  0
LTYPE
  2
PHANTOM
 70
    64
  3
______  __  __  ______  __  __  ______  __  __ 
 72
    65
 73
     6
 40
2.5
 49
1.25
 49
-0.25
 49
0.25
 49
-0.25
 49
0.25
 49
-0.25
  0
LTYPE
  2
BORDER
 70
    64
  3
__ __ . __ __ . __ __ . __ __ . __ __ . __ __ .
 72
    65
 73
     6
 40
1.75
 49
0.5
 49
-0.25
 49
0.5
 49
-0.25
 49
0.0
 49
-0.25
  0
ENDTAB
  0
TABLE
  2
LAYER
 70
    16
  0
LAYER
  2
CSLAYER1
 70
    64
 62
     7
  6
CONTINUOUS
  0
LAYER
  2
CSLAYER2
 70
    64
 62
     7
  6
CONTINUOUS
  0
LAYER
  2
CSLAYER3
 70
    64
 62
     7
  6
CONTINUOUS
  0
LAYER
  2
CSLAYER4
 70
    64
 62
     7
  6
CONTINUOUS
  0
LAYER
  2
CSLAYER5
 70
    64
 62
     7
  6
CONTINUOUS
  0
LAYER
  2
CSLAYER6
 70
    64
 62
     7
  6
CONTINUOUS
  0
LAYER
  2
CSLAYER7
 70
    64
 62
     7
  6
CONTINUOUS
  0
LAYER
  2
CSLAYER8
 70
    64
 62
     7
  6
CONTINUOUS
  0
LAYER
  2
CSLAYER9
 70
    64
 62
     7
  6
CONTINUOUS
  0
LAYER
  2
CSLAYER10
 70
    64
 62
     7
  6
CONTINUOUS
  0
LAYER
  2
CSLAYER11
 70
    64
 62
     7
  6
CONTINUOUS
  0
LAYER
  2
CSLAYER12
 70
    64
 62
     7
  6
CONTINUOUS
  0
LAYER
  2
CSLAYER13
 70
    64
 62
     7
  6
CONTINUOUS
  0
LAYER
  2
CSLAYER14
 70
    64
 62
     7
  6
CONTINUOUS
  0
LAYER
  2
CSLAYER15
 70
    64
 62
     7
  6
CONTINUOUS
  0
LAYER
  2
CSLAYER16
 70
    64
 62
     7
  6
CONTINUOUS
  0
ENDTAB
  0
TABLE
  2
STYLE
 70
     1
  0
STYLE
  2
FX_FONT
 70
     0
 40
1.0
 41
1.0
 50
0.0
 71
     0
 42
1.0
  3
monotxt
  4
bigfont
  0
ENDTAB
  0
TABLE
  2
VIEW
 70
     0
  0
ENDTAB
  0
ENDSEC
  0
SECTION
  2
BLOCKS
  0
BLOCK
  8
CSLAYER3
  2
*D0000
 70
    65
 10
0.0
 20
0.0
 30
0.0
  0
TEXT
  8
CSLAYER3
 62
     7
 10
3308.825687
 20
2212.328338
 40
15.000000
 41
0.600000
  1
60
 50
59.514267
 51
0.000000
  7
FX_FONT
 72
     5
 11
3316.435544
 21
2225.254670
  0
LINE
  8
CSLAYER3
  6
CONTINUOUS
 62
     7
 10
3310.211663
 20
2185.403309
 11
3297.411670
 21
2192.938789
  0
LINE
  8
CSLAYER3
  6
CONTINUOUS
 62
     7
 10
3340.651092
 20
2237.108640
 11
3327.851098
 21
2244.644120
  0
LINE
  8
CSLAYER3
  6
CONTINUOUS
 62
     7
 10
3299.135181
 20
2191.924142
 11
3329.574609
 21
2243.629472
  0
LINE
  8
CSLAYER3
  6
CONTINUOUS
 62
     7
 10
3299.135181
 20
2191.924142
 11
3299.669178
 21
2193.851535
  0
LINE
  8
CSLAYER3
  6
CONTINUOUS
 62
     7
 10
3299.135181
 20
2191.924142
 11
3300.561333
 21
2193.326315
  0
LINE
  8
CSLAYER3
  6
CONTINUOUS
 62
     7
 10
3329.574609
 20
2243.629472
 11
3329.040613
 21
2241.702078
  0
LINE
  8
CSLAYER3
  6
CONTINUOUS
 62
     7
 10
3329.574609
 20
2243.629472
 11
3328.148458
 21
2242.227298
  0
ENDBLK
  8
0
  0
BLOCK
  8
CSLAYER3
  2
*D0001
 70
    65
 10
0.0
 20
0.0
 30
0.0
  0
TEXT
  8
CSLAYER3
 62
     7
 10
3385.663700
 20
2193.525187
 40
15.000000
 41
0.562500
  1
135
 50
287.771332
 51
0.000000
  7
FX_FONT
 72
     5
 11
3392.531124
 21
2172.098837
  0
LINE
  8
CSLAYER3
  6
CONTINUOUS
 62
     7
 10
3344.279167
 20
2236.704430
 11
3369.258319
 21
2244.710568
  0
LINE
  8
CSLAYER3
  6
CONTINUOUS
 62
     7
 10
3385.483689
 20
2108.146321
 11
3410.462841
 21
2116.152459
  0
LINE
  8
CSLAYER3
  6
CONTINUOUS
 62
     7
 10
3367.353754
 20
2244.100131
 11
3408.558276
 21
2115.542022
  0
LINE
  8
CSLAYER3
  6
CONTINUOUS
 62
     7
 10
3367.353754
 20
2244.100131
 11
3368.436329
 21
2242.418455
  0
LINE
  8
CSLAYER3
  6
CONTINUOUS
 62
     7
 10
3367.353754
 20
2244.100131
 11
3367.450454
 21
2242.102470
  0
LINE
  8
CSLAYER3
  6
CONTINUOUS
 62
     7
 10
3408.558276
 20
2115.542022
 11
3407.475702
 21
2117.223697
  0
LINE
  8
CSLAYER3
  6
CONTINUOUS
 62
     7
 10
3408.558276
 20
2115.542022
 11
3408.461577
 21
2117.539683
  0
ENDBLK
  8
0
  0
BLOCK
  8
CSLAYER3
  2
*D0002
 70
    65
 10
0.0
 20
0.0
 30
0.0
  0
TEXT
  8
CSLAYER3
 62
     7
 10
3407.562256
 20
2090.290527
 40
15.000000
 41
0.600000
  1
18
 50
0.000000
 51
0.000000
  7
FX_FONT
 72
     5
 11
3422.562256
 21
2090.290527
  0
LINE
  8
CSLAYER3
  6
CONTINUOUS
 62
     7
 10
3383.579125
 20
2105.535883
 11
3383.579125
 21
2086.290106
  0
LINE
  8
CSLAYER3
  6
CONTINUOUS
 62
     7
 10
3401.579125
 20
2105.535883
 11
3401.579125
 21
2086.290106
  0
LINE
  8
CSLAYER3
  6
CONTINUOUS
 62
     7
 10
3383.579125
 20
2088.290106
 11
3401.579125
 21
2088.290106
  0
LINE
  8
CSLAYER3
  6
CONTINUOUS
 62
     7
 10
3381.579125
 20
2088.290106
 11
3383.579125
 21
2088.290106
  0
LINE
  8
CSLAYER3
  6
CONTINUOUS
 62
     7
 10
3383.579125
 20
2088.290106
 11
3381.647273
 21
2088.807744
  0
LINE
  8
CSLAYER3
  6
CONTINUOUS
 62
     7
 10
3383.579125
 20
2088.290106
 11
3381.647273
 21
2087.772468
  0
LINE
  8
CSLAYER3
  6
CONTINUOUS
 62
     7
 10
3401.579125
 20
2088.290106
 11
3428.546069
 21
2088.290106
  0
LINE
  8
CSLAYER3
  6
CONTINUOUS
 62
     7
 10
3401.579125
 20
2088.290106
 11
3403.510976
 21
2088.807744
  0
LINE
  8
CSLAYER3
  6
CONTINUOUS
 62
     7
 10
3401.579125
 20
2088.290106
 11
3403.510976
 21
2087.772468
  0
ENDBLK
  8
0
  0
BLOCK
  8
CSLAYER3
  2
*D0003
 70
    65
 10
0.0
 20
0.0
 30
0.0
  0
TEXT
  8
CSLAYER3
 62
     7
 10
3300.684326
 20
2130.672852
 40
15.000000
 41
0.562500
  1
110
 50
0.000000
 51
0.000000
  7
FX_FONT
 72
     5
 11
3323.184326
 21
2130.672852
  0
LINE
  8
CSLAYER3
  6
CONTINUOUS
 62
     7
 10
3260.326091
 20
2168.044669
 11
3260.326091
 21
2126.673004
  0
LINE
  8
CSLAYER3
  6
CONTINUOUS
 62
     7
 10
3363.544257
 20
2168.044669
 11
3363.544257
 21
2126.673004
  0
LINE
  8
CSLAYER3
  6
CONTINUOUS
 62
     7
 10
3260.326091
 20
2128.673004
 11
3363.544257
 21
2128.673004
  0
LINE
  8
CSLAYER3
  6
CONTINUOUS
 62
     7
 10
3260.326091
 20
2128.673004
 11
3262.257943
 21
2129.190642
  0
LINE
  8
CSLAYER3
  6
CONTINUOUS
 62
     7
 10
3260.326091
 20
2128.673004
 11
3262.257943
 21
2128.155366
  0
LINE
  8
CSLAYER3
  6
CONTINUOUS
 62
     7
 10
3363.544257
 20
2128.673004
 11
3361.612406
 21
2129.190642
  0
LINE
  8
CSLAYER3
  6
CONTINUOUS
 62
     7
 10
3363.544257
 20
2128.673004
 11
3361.612406
 21
2128.155366
  0
ENDBLK
  8
0
  0
BLOCK
  8
CSLAYER1
  2
FXDIM0000
 70
   64
 10
0.0
 20
0.0
 30
0.0
  0
TEXT
  8
CSLAYER3
 62
     7
 10
4142.741699
 20
2505.927246
 40
15.000000
 41
0.600000
  1
12
 50
90.000000
 51
0.000000
  7
FX_FONT
 72
     5
 11
4142.741699
 21
2520.927246
  0
LINE
  8
CSLAYER3
  6
CONTINUOUS
 62
     7
 10
4144.742201
 20
2491.346988
 11
4144.742201
 21
2493.346988
  0
LINE
  8
CSLAYER3
  6
CONTINUOUS
 62
     7
 10
4144.742201
 20
2493.346988
 11
4144.224563
 21
2491.415137
  0
LINE
  8
CSLAYER3
  6
CONTINUOUS
 62
     7
 10
4144.742201
 20
2493.346988
 11
4145.259839
 21
2491.415137
  0
ENDBLK
  8
0
  0
BLOCK
  8
CSLAYER1
  2
BLKF0000
 70
   64
 10
0.0
 20
0.0
 30
0.0
  0
LINE
  8
CSLAYER3
  6
CONTINUOUS
 62
     3
 10
3659.909507
 20
3416.204131
 11
3796.709507
 21
3416.204131
  0
LINE
  8
CSLAYER3
  6
CONTINUOUS
 62
     3
 10
3659.909507
 20
2656.204131
 11
3796.709507
 21
2656.204131
  0
LINE
  8
CSLAYER3
  6
CONTINUOUS
 62
     3
 10
3796.709507
 20
3416.204131
 11
3796.709507
 21
2656.204131
  0
LINE
  8
CSLAYER3
  6
CONTINUOUS
 62
     3
 10
3627.338078
 20
3383.632703
 11
3627.338078
 21
2688.775560
  0
ARC
  8
CSLAYER3
  6
CONTINUOUS
 62
     3
 10
3659.909507
 20
2688.775560
 40
32.571429
 50
180.000000
 51
270.000000
  0
ARC
  8
CSLAYER3
  6
CONTINUOUS
 62
     3
 10
3659.909507
 20
3383.632703
 40
32.571429
 50
90.000000
 51
180.000000
  0
ENDBLK
  8
0
  0
BLOCK
  8
CSLAYER1
  2
BLKF0001
 70
   64
 10
0.0
 20
0.0
 30
0.0
  0
LINE
  8
CSLAYER3
  6
CONTINUOUS
 62
     3
 10
4019.608198
 20
2497.689845
 11
4019.608198
 21
2509.289845
  0
LINE
  8
CSLAYER3
  6
CONTINUOUS
 62
     3
 10
4031.108198
 20
2509.989845
 11
4031.108198
 21
2505.989845
  0
LINE
  8
CSLAYER3
  6
CONTINUOUS
 62
     3
 10
4034.108198
 20
2509.989845
 11
4034.108198
 21
2505.989845
  0
CIRCLE
  8
CSLAYER3
  6
CONTINUOUS
 62
     3
 10
4032.608198
 20
2509.989845
 40
0.500000
  0
ARC
  8
CSLAYER3
  6
CONTINUOUS
 62
     3
 10
4032.608198
 20
2509.989845
 40
1.500000
 50
0.000000
 51
180.000000
  0
CIRCLE
  8
CSLAYER3
  6
CONTINUOUS
 62
     3
 10
4032.608198
 20
2496.989845
 40
0.500000
  0
ARC
  8
CSLAYER3
  6
CONTINUOUS
 62
     3
 10
4032.608198
 20
2496.989845
 40
1.500000
 50
180.000000
 51
360.000000
  0
CIRCLE
  8
CSLAYER3
  6
CONTINUOUS
 62
     3
 10
4026.108198
 20
2503.489845
 40
0.500000
  0
ARC
  8
CSLAYER3
  6
CONTINUOUS
 62
     3
 10
4026.108198
 20
2503.489845
 40
1.500000
 50
90.000000
 51
270.000000
  0
CIRCLE
  8
CSLAYER3
  6
CONTINUOUS
 62
     3
 10
4039.108198
 20
2503.489845
 40
0.500000
  0
ARC
  8
CSLAYER3
  6
CONTINUOUS
 62
     3
 10
4039.108198
 20
2503.489845
 40
1.500000
 50
-90.000000
 51
90.000000
  0
LINE
  8
CSLAYER3
  6
CONTINUOUS
 62
     3
 10
4026.108198
 20
2504.989845
 11
4030.108198
 21
2504.989845
  0
LINE
  8
CSLAYER3
  6
CONTINUOUS
 62
     3
 10
4039.108198
 20
2501.989845
 11
4035.108198
 21
2501.989845
  0
ARC
  8
CSLAYER3
  6
CONTINUOUS
 62
     3
 10
4030.108198
 20
2505.989845
 40
1.000000
 50
270.000000
 51
360.000000
  0
ARC
  8
CSLAYER3
  6
CONTINUOUS
 62
     3
 10
4030.108198
 20
2500.989845
 40
1.000000
 50
0.000000
 51
90.000000
  0
ARC
  8
CSLAYER3
  6
CONTINUOUS
 62
     3
 10
4035.108198
 20
2500.989845
 40
1.000000
 50
90.000000
 51
180.000000
  0
ARC
  8
CSLAYER3
  6
CONTINUOUS
 62
     3
 10
4035.108198
 20
2505.989845
 40
1.000000
 50
180.000000
 51
270.000000
  0
LINE
  8
CSLAYER3
  6
CONTINUOUS
 62
     3
 10
4035.108198
 20
2504.989845
 11
4039.108198
 21
2504.989845
  0
LINE
  8
CSLAYER3
  6
CONTINUOUS
 62
     3
 10
4034.108198
 20
2500.989845
 11
4034.108198
 21
2496.989845
  0
LINE
  8
CSLAYER3
  6
CONTINUOUS
 62
     3
 10
4030.108198
 20
2501.989845
 11
4026.108198
 21
2501.989845
  0
LINE
  8
CSLAYER3
  6
CONTINUOUS
 62
     3
 10
4031.108198
 20
2500.989845
 11
4031.108198
 21
2496.989845
  0
LINE
  8
CSLAYER3
  6
CONTINUOUS
 62
     3
 10
4017.608198
 20
2497.689845
 11
4017.608198
 21
2509.289845
  0
LINE
  8
CSLAYER3
  6
CONTINUOUS
 62
     3
 10
4013.108198
 20
2509.289845
 11
4043.108198
 21
2509.289845
  0
LINE
  8
CSLAYER3
  6
CONTINUOUS
 62
     3
 10
4038.608198
 20
2509.289845
 11
4038.608198
 21
2497.689845
  0
LINE
  8
CSLAYER3
  6
CONTINUOUS
 62
     3
 10
4043.108198
 20
2497.689845
 11
4013.108198
 21
2497.689845
  0
LINE
  8
CSLAYER3
  6
CONTINUOUS
 62
     3
 10
4043.108198
 20
2509.289845
 11
4043.108198
 21
2497.689845
  0
LINE
  8
CSLAYER3
  6
CONTINUOUS
 62
     3
 10
4013.108198
 20
2509.289845
 11
4013.108198
 21
2497.689845
  0
CIRCLE
  8
CSLAYER3
  6
CONTINUOUS
 62
     3
 10
4041.108198
 20
2503.489845
 40
1.000000
  0
CIRCLE
  8
CSLAYER3
  6
CONTINUOUS
 62
     3
 10
4015.108198
 20
2503.489845
 40
1.000000
  0
CIRCLE
  8
CSLAYER3
  6
CONTINUOUS
 62
     3
 10
4032.608198
 20
2503.489845
 40
1.500000
  0
CIRCLE
  8
CSLAYER3
  6
CONTINUOUS
 62
     3
 10
4032.608198
 20
2503.489845
 40
5.811350
  0
ENDBLK
  8
0
  0
BLOCK
  8
CSLAYER1
  2
BLKF0002
 70
   64
 10
0.0
 20
0.0
 30
0.0
  0
LINE
  8
CSLAYER3
  6
CONTINUOUS
 62
     3
 10
4019.608198
 20
2481.249159
 11
4019.608198
 21
2492.849159
  0
LINE
  8
CSLAYER3
  6
CONTINUOUS
 62
     3
 10
4031.108198
 20
2493.549159
 11
4031.108198
 21
2489.549159
  0
LINE
  8
CSLAYER3
  6
CONTINUOUS
 62
     3
 10
4034.108198
 20
2493.549159
 11
4034.108198
 21
2489.549159
  0
CIRCLE
  8
CSLAYER3
  6
CONTINUOUS
 62
     3
 10
4032.608198
 20
2493.549159
 40
0.500000
  0
ARC
  8
CSLAYER3
  6
CONTINUOUS
 62
     3
 10
4032.608198
 20
2493.549159
 40
1.500000
 50
0.000000
 51
180.000000
  0
CIRCLE
  8
CSLAYER3
  6
CONTINUOUS
 62
     3
 10
4032.608198
 20
2480.549159
 40
0.500000
  0
ARC
  8
CSLAYER3
  6
CONTINUOUS
 62
     3
 10
4032.608198
 20
2480.549159
 40
1.500000
 50
180.000000
 51
360.000000
  0
CIRCLE
  8
CSLAYER3
  6
CONTINUOUS
 62
     3
 10
4026.108198
 20
2487.049159
 40
0.500000
  0
ARC
  8
CSLAYER3
  6
CONTINUOUS
 62
     3
 10
4026.108198
 20
2487.049159
 40
1.500000
 50
90.000000
 51
270.000000
  0
CIRCLE
  8
CSLAYER3
  6
CONTINUOUS
 62
     3
 10
4039.108198
 20
2487.049159
 40
0.500000
  0
ARC
  8
CSLAYER3
  6
CONTINUOUS
 62
     3
 10
4039.108198
 20
2487.049159
 40
1.500000
 50
-90.000000
 51
90.000000
  0
LINE
  8
CSLAYER3
  6
CONTINUOUS
 62
     3
 10
4026.108198
 20
2488.549159
 11
4030.108198
 21
2488.549159
  0
LINE
  8
CSLAYER3
  6
CONTINUOUS
 62
     3
 10
4039.108198
 20
2485.549159
 11
4035.108198
 21
2485.549159
  0
ARC
  8
CSLAYER3
  6
CONTINUOUS
 62
     3
 10
4030.108198
 20
2489.549159
 40
1.000000
 50
270.000000
 51
360.000000
  0
ARC
  8
CSLAYER3
  6
CONTINUOUS
 62
     3
 10
4030.108198
 20
2484.549159
 40
1.000000
 50
0.000000
 51
90.000000
  0
ARC
  8
CSLAYER3
  6
CONTINUOUS
 62
     3
 10
4035.108198
 20
2484.549159
 40
1.000000
 50
90.000000
 51
180.000000
  0
ARC
  8
CSLAYER3
  6
CONTINUOUS
 62
     3
 10
4035.108198
 20
2489.549159
 40
1.000000
 50
180.000000
 51
270.000000
  0
LINE
  8
CSLAYER3
  6
CONTINUOUS
 62
     3
 10
4035.108198
 20
2488.549159
 11
4039.108198
 21
2488.549159
  0
LINE
  8
CSLAYER3
  6
CONTINUOUS
 62
     3
 10
4034.108198
 20
2484.549159
 11
4034.108198
 21
2480.549159
  0
LINE
  8
CSLAYER3
  6
CONTINUOUS
 62
     3
 10
4030.108198
 20
2485.549159
 11
4026.108198
 21
2485.549159
  0
LINE
  8
CSLAYER3
  6
CONTINUOUS
 62
     3
 10
4031.108198
 20
2484.549159
 11
4031.108198
 21
2480.549159
  0
LINE
  8
CSLAYER3
  6
CONTINUOUS
 62
     3
 10
4013.108198
 20
2492.849159
 11
4043.108198
 21
2492.849159
  0
LINE
  8
CSLAYER3
  6
CONTINUOUS
 62
     3
 10
4038.608198
 20
2492.849159
 11
4038.608198
 21
2481.249159
  0
LINE
  8
CSLAYER3
  6
CONTINUOUS
 62
     3
 10
4043.108198
 20
2481.249159
 11
4013.108198
 21
2481.249159
  0
LINE
  8
CSLAYER3
  6
CONTINUOUS
 62
     3
 10
4043.108198
 20
2492.849159
 11
4043.108198
 21
2481.249159
  0
LINE
  8
CSLAYER3
  6
CONTINUOUS
 62
     3
 10
4013.108198
 20
2492.849159
 11
4013.108198
 21
2481.249159
  0
CIRCLE
  8
CSLAYER3
  6
CONTINUOUS
 62
     3
 10
4041.108198
 20
2487.049159
 40
1.000000
  0
CIRCLE
  8
CSLAYER3
  6
CONTINUOUS
 62
     3
 10
4015.108198
 20
2487.049159
 40
1.000000
  0
CIRCLE
  8
CSLAYER3
  6
CONTINUOUS
 62
     3
 10
4032.608198
 20
2487.049159
 40
1.500000
  0
CIRCLE
  8
CSLAYER3
  6
CONTINUOUS
 62
     3
 10
4032.608198
 20
2487.049159
 40
5.811350
  0
ENDBLK
  8
0
  0
BLOCK
  8
CSLAYER1
  2
BLKF0003
 70
   64
 10
0.0
 20
0.0
 30
0.0
  0
LINE
  8
CSLAYER3
  6
CONTINUOUS
 62
     3
 10
3703.796802
 20
3035.786525
 11
3713.788078
 21
3035.786525
  0
LINE
  8
CSLAYER3
  6
CONTINUOUS
 62
     3
 10
3703.790446
 20
3035.986525
 11
3713.788078
 21
3035.986525
  0
LINE
  8
CSLAYER3
  6
CONTINUOUS
 62
     3
 10
3703.788094
 20
3036.186525
 11
3713.788078
 21
3036.186525
  0
LINE
  8
CSLAYER3
  6
CONTINUOUS
 62
     3
 10
3713.788078
 20
3036.386525
 11
3723.786415
 21
3036.386525
  0
LINE
  8
CSLAYER3
  6
CONTINUOUS
 62
     3
 10
3713.788078
 20
3036.586525
 11
3723.780764
 21
3036.586525
  0
LINE
  8
CSLAYER3
  6
CONTINUOUS
 62
     3
 10
3713.788078
 20
3036.786525
 11
3723.771105
 21
3036.786525
  0
LINE
  8
CSLAYER3
  6
CONTINUOUS
 62
     3
 10
3713.788078
 20
3036.986525
 11
3723.757424
 21
3036.986525
  0
LINE
  8
CSLAYER3
  6
CONTINUOUS
 62
     3
 10
3713.788078
 20
3037.186525
 11
3723.739706
 21
3037.186525
  0
LINE
  8
CSLAYER3
  6
CONTINUOUS
 62
     3
 10
3713.788078
 20
3037.386525
 11
3723.717929
 21
3037.386525
  0
LINE
  8
CSLAYER3
  6
CONTINUOUS
 62
     3
 10
3713.788078
 20
3037.586525
 11
3723.692067
 21
3037.586525
  0
LINE
  8
CSLAYER3
  6
CONTINUOUS
 62
     3
 10
3713.788078
 20
3037.786525
 11
3723.662086
 21
3037.786525
  0
LINE
  8
CSLAYER3
  6
CONTINUOUS
 62
     3
 10
3713.788078
 20
3037.986525
 11
3723.627950
 21
3037.986525
  0
LINE
  8
CSLAYER3
  6
CONTINUOUS
 62
     3
 10
3713.788078
 20
3038.186525
 11
3723.589615
 21
3038.186525
  0
LINE
  8
CSLAYER3
  6
CONTINUOUS
 62
     3
 10
3713.788078
 20
3038.386525
 11
3723.547031
 21
3038.386525
  0
LINE
  8
CSLAYER3
  6
CONTINUOUS
 62
     3
 10
3713.788078
 20
3038.586525
 11
3723.500143
 21
3038.586525
  0
LINE
  8
CSLAYER3
  6
CONTINUOUS
 62
     3
 10
3713.788078
 20
3038.786525
 11
3723.448888
 21
3038.786525
  0
LINE
  8
CSLAYER3
  6
CONTINUOUS
 62
     3
 10
3713.788078
 20
3038.986525
 11
3723.393196
 21
3038.986525
  0
LINE
  8
CSLAYER3
  6
CONTINUOUS
 62
     3
 10
3713.788078
 20
3039.186525
 11
3723.332989
 21
3039.186525
  0
LINE
  8
CSLAYER3
  6
CONTINUOUS
 62
     3
 10
3713.788078
 20
3039.386525
 11
3723.268182
 21
3039.386525
  0
LINE
  8
CSLAYER3
  6
CONTINUOUS
 62
     3
 10
3713.788078
 20
3039.586525
 11
3723.198679
 21
3039.586525
  0
LINE
  8
CSLAYER3
  6
CONTINUOUS
 62
     3
 10
3713.788078
 20
3039.786525
 11
3723.124376
 21
3039.786525
  0
LINE
  8
CSLAYER3
  6
CONTINUOUS
 62
     3
 10
3713.788078
 20
3039.986525
 11
3723.045156
 21
3039.986525
  0
LINE
  8
CSLAYER3
  6
CONTINUOUS
 62
     3
 10
3713.788078
 20
3040.186525
 11
3722.960893
 21
3040.186525
  0
LINE
  8
CSLAYER3
  6
CONTINUOUS
 62
     3
 10
3713.788078
 20
3040.386525
 11
3722.871447
 21
3040.386525
  0
LINE
  8
CSLAYER3
  6
CONTINUOUS
 62
     3
 10
3713.788078
 20
3040.586525
 11
3722.776661
 21
3040.586525
  0
LINE
  8
CSLAYER3
  6
CONTINUOUS
 62
     3
 10
3713.788078
 20
3040.786525
 11
3722.676366
 21
3040.786525
  0
LINE
  8
CSLAYER3
  6
CONTINUOUS
 62
     3
 10
3713.788078
 20
3040.986525
 11
3722.570373
 21
3040.986525
  0
LINE
  8
CSLAYER3
  6
CONTINUOUS
 62
     3
 10
3713.788078
 20
3041.186525
 11
3722.458473
 21
3041.186525
  0
LINE
  8
CSLAYER3
  6
CONTINUOUS
 62
     3
 10
3713.788078
 20
3041.386525
 11
3722.340434
 21
3041.386525
  0
LINE
  8
CSLAYER3
  6
CONTINUOUS
 62
     3
 10
3713.788078
 20
3041.586525
 11
3722.215998
 21
3041.586525
  0
LINE
  8
CSLAYER3
  6
CONTINUOUS
 62
     3
 10
3713.788078
 20
3041.786525
 11
3722.084877
 21
3041.786525
  0
LINE
  8
CSLAYER3
  6
CONTINUOUS
 62
     3
 10
3713.788078
 20
3041.986525
 11
3721.946750
 21
3041.986525
  0
LINE
  8
CSLAYER3
  6
CONTINUOUS
 62
     3
 10
3713.788078
 20
3042.186525
 11
3721.801253
 21
3042.186525
  0
LINE
  8
CSLAYER3
  6
CONTINUOUS
 62
     3
 10
3713.788078
 20
3042.386525
 11
3721.647977
 21
3042.386525
  0
LINE
  8
CSLAYER3
  6
CONTINUOUS
 62
     3
 10
3713.788078
 20
3042.586525
 11
3721.486458
 21
3042.586525
  0
LINE
  8
CSLAYER3
  6
CONTINUOUS
 62
     3
 10
3713.788078
 20
3042.786525
 11
3721.316165
 21
3042.786525
  0
LINE
  8
CSLAYER3
  6
CONTINUOUS
 62
     3
 10
3713.788078
 20
3042.986525
 11
3721.136488
 21
3042.986525
  0
LINE
  8
CSLAYER3
  6
CONTINUOUS
 62
     3
 10
3713.788078
 20
3043.186525
 11
3720.946722
 21
3043.186525
  0
LINE
  8
CSLAYER3
  6
CONTINUOUS
 62
     3
 10
3713.788078
 20
3043.386525
 11
3720.746039
 21
3043.386525
  0
LINE
  8
CSLAYER3
  6
CONTINUOUS
 62
     3
 10
3713.788078
 20
3043.586525
 11
3720.533466
 21
3043.586525
  0
LINE
  8
CSLAYER3
  6
CONTINUOUS
 62
     3
 10
3713.788078
 20
3043.786525
 11
3720.307841
 21
3043.786525
  0
LINE
  8
CSLAYER3
  6
CONTINUOUS
 62
     3
 10
3713.788078
 20
3043.986525
 11
3720.067755
 21
3043.986525
  0
LINE
  8
CSLAYER3
  6
CONTINUOUS
 62
     3
 10
3713.788078
 20
3044.186525
 11
3719.811481
 21
3044.186525
  0
LINE
  8
CSLAYER3
  6
CONTINUOUS
 62
     3
 10
3713.788078
 20
3044.386525
 11
3719.536854
 21
3044.386525
  0
LINE
  8
CSLAYER3
  6
CONTINUOUS
 62
     3
 10
3713.788078
 20
3044.586525
 11
3719.241102
 21
3044.586525
  0
LINE
  8
CSLAYER3
  6
CONTINUOUS
 62
     3
 10
3713.788078
 20
3044.786525
 11
3718.920574
 21
3044.786525
  0
LINE
  8
CSLAYER3
  6
CONTINUOUS
 62
     3
 10
3713.788078
 20
3044.986525
 11
3718.570291
 21
3044.986525
  0
LINE
  8
CSLAYER3
  6
CONTINUOUS
 62
     3
 10
3713.788078
 20
3045.186525
 11
3718.183143
 21
3045.186525
  0
LINE
  8
CSLAYER3
  6
CONTINUOUS
 62
     3
 10
3713.788078
 20
3045.386525
 11
3717.748336
 21
3045.386525
  0
LINE
  8
CSLAYER3
  6
CONTINUOUS
 62
     3
 10
3713.788078
 20
3045.586525
 11
3717.247945
 21
3045.586525
  0
LINE
  8
CSLAYER3
  6
CONTINUOUS
 62
     3
 10
3713.788078
 20
3045.786525
 11
3716.647750
 21
3045.786525
  0
LINE
  8
CSLAYER3
  6
CONTINUOUS
 62
     3
 10
3713.788078
 20
3045.986525
 11
3715.862871
 21
3045.986525
  0
LINE
  8
CSLAYER3
  6
CONTINUOUS
 62
     3
 10
3713.788078
 20
3046.186525
 11
3714.381212
 21
3046.186525
  0
LINE
  8
CSLAYER3
  6
CONTINUOUS
 62
     3
 10
3703.807168
 20
3035.586525
 11
3713.788078
 21
3035.586525
  0
LINE
  8
CSLAYER3
  6
CONTINUOUS
 62
     3
 10
3703.821558
 20
3035.386525
 11
3713.788078
 21
3035.386525
  0
LINE
  8
CSLAYER3
  6
CONTINUOUS
 62
     3
 10
3703.839989
 20
3035.186525
 11
3713.788078
 21
3035.186525
  0
LINE
  8
CSLAYER3
  6
CONTINUOUS
 62
     3
 10
3703.862483
 20
3034.986525
 11
3713.788078
 21
3034.986525
  0
LINE
  8
CSLAYER3
  6
CONTINUOUS
 62
     3
 10
3703.889069
 20
3034.786525
 11
3713.788078
 21
3034.786525
  0
LINE
  8
CSLAYER3
  6
CONTINUOUS
 62
     3
 10
3703.919778
 20
3034.586525
 11
3713.788078
 21
3034.586525
  0
LINE
  8
CSLAYER3
  6
CONTINUOUS
 62
     3
 10
3703.954650
 20
3034.386525
 11
3713.788078
 21
3034.386525
  0
LINE
  8
CSLAYER3
  6
CONTINUOUS
 62
     3
 10
3703.993730
 20
3034.186525
 11
3713.788078
 21
3034.186525
  0
LINE
  8
CSLAYER3
  6
CONTINUOUS
 62
     3
 10
3704.037067
 20
3033.986525
 11
3713.788078
 21
3033.986525
  0
LINE
  8
CSLAYER3
  6
CONTINUOUS
 62
     3
 10
3704.084719
 20
3033.786525
 11
3713.788078
 21
3033.786525
  0
LINE
  8
CSLAYER3
  6
CONTINUOUS
 62
     3
 10
3704.136750
 20
3033.586525
 11
3713.788078
 21
3033.586525
  0
LINE
  8
CSLAYER3
  6
CONTINUOUS
 62
     3
 10
3704.193231
 20
3033.386525
 11
3713.788078
 21
3033.386525
  0
LINE
  8
CSLAYER3
  6
CONTINUOUS
 62
     3
 10
3704.254241
 20
3033.186525
 11
3713.788078
 21
3033.186525
  0
LINE
  8
CSLAYER3
  6
CONTINUOUS
 62
     3
 10
3704.319868
 20
3032.986525
 11
3713.788078
 21
3032.986525
  0
LINE
  8
CSLAYER3
  6
CONTINUOUS
 62
     3
 10
3704.390208
 20
3032.786525
 11
3713.788078
 21
3032.786525
  0
LINE
  8
CSLAYER3
  6
CONTINUOUS
 62
     3
 10
3704.465368
 20
3032.586525
 11
3713.788078
 21
3032.586525
  0
LINE
  8
CSLAYER3
  6
CONTINUOUS
 62
     3
 10
3704.545466
 20
3032.386525
 11
3713.788078
 21
3032.386525
  0
LINE
  8
CSLAYER3
  6
CONTINUOUS
 62
     3
 10
3704.630631
 20
3032.186525
 11
3713.788078
 21
3032.186525
  0
LINE
  8
CSLAYER3
  6
CONTINUOUS
 62
     3
 10
3704.721006
 20
3031.986525
 11
3713.788078
 21
3031.986525
  0
LINE
  8
CSLAYER3
  6
CONTINUOUS
 62
     3
 10
3704.816749
 20
3031.786525
 11
3713.788078
 21
3031.786525
  0
LINE
  8
CSLAYER3
  6
CONTINUOUS
 62
     3
 10
3704.918032
 20
3031.586525
 11
3713.788078
 21
3031.586525
  0
LINE
  8
CSLAYER3
  6
CONTINUOUS
 62
     3
 10
3705.025050
 20
3031.386525
 11
3713.788078
 21
3031.386525
  0
LINE
  8
CSLAYER3
  6
CONTINUOUS
 62
     3
 10
3705.138013
 20
3031.186525
 11
3713.788078
 21
3031.186525
  0
LINE
  8
CSLAYER3
  6
CONTINUOUS
 62
     3
 10
3705.257159
 20
3030.986525
 11
3713.788078
 21
3030.986525
  0
LINE
  8
CSLAYER3
  6
CONTINUOUS
 62
     3
 10
3705.382750
 20
3030.786525
 11
3713.788078
 21
3030.786525
  0
LINE
  8
CSLAYER3
  6
CONTINUOUS
 62
     3
 10
3705.515080
 20
3030.586525
 11
3713.788078
 21
3030.586525
  0
LINE
  8
CSLAYER3
  6
CONTINUOUS
 62
     3
 10
3705.654478
 20
3030.386525
 11
3713.788078
 21
3030.386525
  0
LINE
  8
CSLAYER3
  6
CONTINUOUS
 62
     3
 10
3705.801313
 20
3030.186525
 11
3713.788078
 21
3030.186525
  0
LINE
  8
CSLAYER3
  6
CONTINUOUS
 62
     3
 10
3705.956005
 20
3029.986525
 11
3713.788078
 21
3029.986525
  0
LINE
  8
CSLAYER3
  6
CONTINUOUS
 62
     3
 10
3706.119028
 20
3029.786525
 11
3713.788078
 21
3029.786525
  0
LINE
  8
CSLAYER3
  6
CONTINUOUS
 62
     3
 10
3706.290926
 20
3029.586525
 11
3713.788078
 21
3029.586525
  0
LINE
  8
CSLAYER3
  6
CONTINUOUS
 62
     3
 10
3706.472325
 20
3029.386525
 11
3713.788078
 21
3029.386525
  0
LINE
  8
CSLAYER3
  6
CONTINUOUS
 62
     3
 10
3706.663950
 20
3029.186525
 11
3713.788078
 21
3029.186525
  0
LINE
  8
CSLAYER3
  6
CONTINUOUS
 62
     3
 10
3706.866650
 20
3028.986525
 11
3713.788078
 21
3028.986525
  0
LINE
  8
CSLAYER3
  6
CONTINUOUS
 62
     3
 10
3707.081431
 20
3028.786525
 11
3713.788078
 21
3028.786525
  0
LINE
  8
CSLAYER3
  6
CONTINUOUS
 62
     3
 10
3707.309492
 20
3028.586525
 11
3713.788078
 21
3028.586525
  0
LINE
  8
CSLAYER3
  6
CONTINUOUS
 62
     3
 10
3707.552291
 20
3028.386525
 11
3713.788078
 21
3028.386525
  0
LINE
  8
CSLAYER3
  6
CONTINUOUS
 62
     3
 10
3707.811625
 20
3028.186525
 11
3713.788078
 21
3028.186525
  0
LINE
  8
CSLAYER3
  6
CONTINUOUS
 62
     3
 10
3708.089749
 20
3027.986525
 11
3713.788078
 21
3027.986525
  0
LINE
  8
CSLAYER3
  6
CONTINUOUS
 62
     3
 10
3708.389568
 20
3027.786525
 11
3713.788078
 21
3027.786525
  0
LINE
  8
CSLAYER3
  6
CONTINUOUS
 62
     3
 10
3708.714927
 20
3027.586525
 11
3713.788078
 21
3027.586525
  0
LINE
  8
CSLAYER3
  6
CONTINUOUS
 62
     3
 10
3709.071106
 20
3027.386525
 11
3713.788078
 21
3027.386525
  0
LINE
  8
CSLAYER3
  6
CONTINUOUS
 62
     3
 10
3709.465720
 20
3027.186525
 11
3713.788078
 21
3027.186525
  0
LINE
  8
CSLAYER3
  6
CONTINUOUS
 62
     3
 10
3709.910483
 20
3026.986525
 11
3713.788078
 21
3026.986525
  0
LINE
  8
CSLAYER3
  6
CONTINUOUS
 62
     3
 10
3710.425237
 20
3026.786525
 11
3713.788078
 21
3026.786525
  0
LINE
  8
CSLAYER3
  6
CONTINUOUS
 62
     3
 10
3711.049163
 20
3026.586525
 11
3713.788078
 21
3026.586525
  0
LINE
  8
CSLAYER3
  6
CONTINUOUS
 62
     3
 10
3711.886864
 20
3026.386525
 11
3713.788078
 21
3026.386525
  0
ENDBLK
  8
0
  0
BLOCK
  8
CSLAYER1
  2
BLKF0004
 70
   64
 10
0.0
 20
0.0
 30
0.0
  0
LINE
  8
CSLAYER3
  6
CONTINUOUS
 62
     4
 10
3796.709507
 20
3006.632703
 11
3890.460779
 21
3004.629128
  0
LINE
  8
CSLAYER3
  6
CONTINUOUS
 62
     3
 10
3890.764133
 20
3004.622645
 11
3867.074687
 21
2661.493575
  0
LINE
  8
CSLAYER3
  6
CONTINUOUS
 62
     3
 10
3796.709507
 20
2656.204131
 11
3796.709507
 21
3003.632703
  0
LINE
  8
CSLAYER3
  6
CONTINUOUS
 62
     4
 10
3796.709507
 20
2656.204131
 11
3867.074687
 21
2661.493575
  0
ENDBLK
  8
0
  0
BLOCK
  8
CSLAYER1
  2
BLKF0005
 70
   64
 10
0.0
 20
0.0
 30
0.0
  0
LINE
  8
CSLAYER3
  6
CONTINUOUS
 62
     4
 10
3796.709507
 20
3065.775560
 11
3890.460779
 21
3067.779134
  0
LINE
  8
CSLAYER3
  6
CONTINUOUS
 62
     3
 10
3890.764133
 20
3067.785617
 11
3867.074687
 21
3410.914687
  0
LINE
  8
CSLAYER3
  6
CONTINUOUS
 62
     3
 10
3796.709507
 20
3416.204131
 11
3796.709507
 21
3068.775560
  0
LINE
  8
CSLAYER3
  6
CONTINUOUS
 62
     4
 10
3796.709507
 20
3416.204131
 11
3867.074687
 21
3410.914687
  0
ENDBLK
  8
0
  0
BLOCK
  8
CSLAYER1
  2
BLKF0006
 70
   64
 10
0.0
 20
0.0
 30
0.0
  0
LINE
  8
CSLAYER3
  6
CONTINUOUS
 62
     3
 10
5475.090354
 20
3206.485055
 11
5356.271704
 21
3206.651919
  0
LINE
  8
CSLAYER3
  6
CONTINUOUS
 62
     3
 10
5356.271704
 20
3006.096630
 11
5492.060477
 21
3013.133543
  0
LINE
  8
CSLAYER3
  6
CONTINUOUS
 62
     3
 10
5492.060477
 20
3013.133543
 11
5475.090354
 21
3206.485055
  0
LINE
  8
CSLAYER3
  6
CONTINUOUS
 62
     3
 10
5356.271704
 20
3206.651919
 11
5356.271704
 21
3006.096630
  0
ENDBLK
  8
0
  0
BLOCK
  8
CSLAYER1
  2
BLKF0007
 70
   64
 10
0.0
 20
0.0
 30
0.0
  0
LINE
  8
CSLAYER3
  6
CONTINUOUS
 62
     3
 10
3506.033164
 20
2351.939243
 11
3506.033164
 21
2634.224957
  0
LINE
  8
CSLAYER3
  6
CONTINUOUS
 62
     3
 10
3513.966068
 20
2547.367814
 11
3495.125422
 21
2547.367814
  0
LINE
  8
CSLAYER3
  6
CONTINUOUS
 62
     3
 10
3506.033164
 20
2634.224957
 11
3495.125422
 21
2547.367814
  0
LINE
  8
CSLAYER3
  6
CONTINUOUS
 62
     3
 10
3513.966068
 20
2438.796385
 11
3495.125422
 21
2438.796385
  0
LINE
  8
CSLAYER3
  6
CONTINUOUS
 62
     3
 10
3495.125422
 20
2547.367814
 11
3513.966068
 21
2438.796385
  0
LINE
  8
CSLAYER3
  6
CONTINUOUS
 62
     3
 10
3513.966068
 20
2438.796385
 11
3506.033164
 21
2351.939243
  0
LINE
  8
CSLAYER3
  6
CONTINUOUS
 62
     3
 10
3506.033164
 20
2351.939243
 11
3495.125422
 21
2438.796385
  0
LINE
  8
CSLAYER3
  6
CONTINUOUS
 62
     3
 10
3495.125422
 20
2438.796385
 11
3513.966068
 21
2547.367814
  0
LINE
  8
CSLAYER3
  6
CONTINUOUS
 62
     3
 10
3513.966068
 20
2547.367814
 11
3506.033164
 21
2634.224957
  0
ENDBLK
  8
0
  0
BLOCK
  8
CSLAYER1
  2
BLKF0008
 70
   64
 10
0.0
 20
0.0
 30
0.0
  0
LINE
  8
CSLAYER3
  6
CONTINUOUS
 62
     8
 10
3529.383538
 20
2507.196988
 11
3541.990787
 21
2507.196988
  0
LINE
  8
CSLAYER3
  6
CONTINUOUS
 62
     8
 10
3523.604221
 20
2497.846988
 11
3523.604221
 21
2488.846988
  0
LINE
  8
CSLAYER3
  6
CONTINUOUS
 62
     8
 10
3549.604221
 20
2504.664107
 11
3549.604221
 21
2482.029869
  0
LINE
  8
CSLAYER3
  6
CONTINUOUS
 62
     8
 10
3529.383538
 20
2479.496988
 11
3541.990787
 21
2479.496988
  0
LINE
  8
CSLAYER3
  6
CONTINUOUS
 62
     8
 10
3511.604221
 20
2494.931988
 11
3523.604221
 21
2494.931988
  0
LINE
  8
CSLAYER3
  6
CONTINUOUS
 62
     8
 10
3511.604221
 20
2491.761988
 11
3523.604221
 21
2491.761988
  0
LINE
  8
CSLAYER3
  6
CONTINUOUS
 62
     8
 10
3511.604221
 20
2494.931988
 11
3511.604221
 21
2491.761988
  0
LINE
  8
CSLAYER3
  6
CONTINUOUS
 62
     8
 10
3541.990787
 20
2507.196988
 11
3541.990787
 21
2479.496988
  0
LINE
  8
CSLAYER3
  6
CONTINUOUS
 62
     8
 10
3541.990787
 20
2507.196988
 11
3541.990787
 21
2479.496988
  0
LINE
  8
CSLAYER3
  6
CONTINUOUS
 62
     8
 10
3541.990787
 20
2507.196988
 11
3541.990787
 21
2479.496988
  0
LINE
  8
CSLAYER3
  6
CONTINUOUS
 62
     8
 10
3541.709518
 20
2507.196988
 11
3541.709518
 21
2479.496988
  0
LINE
  8
CSLAYER3
  6
CONTINUOUS
 62
     8
 10
3529.383538
 20
2507.196988
 11
3529.383538
 21
2479.496988
  0
LINE
  8
CSLAYER3
  6
CONTINUOUS
 62
     8
 10
3529.383538
 20
2507.196988
 11
3525.604221
 21
2502.452957
  0
LINE
  8
CSLAYER3
  6
CONTINUOUS
 62
     8
 10
3525.604221
 20
2502.452957
 11
3525.604221
 21
2484.241020
  0
LINE
  8
CSLAYER3
  6
CONTINUOUS
 62
     8
 10
3525.604221
 20
2493.346988
 11
3523.604221
 21
2493.346988
  0
LINE
  8
CSLAYER3
  6
CONTINUOUS
 62
     8
 10
3525.604221
 20
2497.846988
 11
3523.604221
 21
2497.846988
  0
LINE
  8
CSLAYER3
  6
CONTINUOUS
 62
     8
 10
3529.383538
 20
2479.496988
 11
3529.383538
 21
2507.196988
  0
LINE
  8
CSLAYER3
  6
CONTINUOUS
 62
     8
 10
3529.383538
 20
2479.496988
 11
3525.604221
 21
2484.241020
  0
LINE
  8
CSLAYER3
  6
CONTINUOUS
 62
     8
 10
3525.604221
 20
2488.846988
 11
3523.604221
 21
2488.846988
  0
LINE
  8
CSLAYER3
  6
CONTINUOUS
 62
     8
 10
3541.990787
 20
2507.196988
 11
3549.604221
 21
2504.664107
  0
LINE
  8
CSLAYER3
  6
CONTINUOUS
 62
     8
 10
3541.990787
 20
2479.496988
 11
3549.604221
 21
2482.029869
  0
ENDBLK
  8
0
  0
BLOCK
  8
CSLAYER1
  2
BLKF0009
 70
   64
 10
0.0
 20
0.0
 30
0.0
  0
LINE
  8
CSLAYER3
  6
CONTINUOUS
 62
     3
 10
4249.863569
 20
3232.357848
 11
4250.609480
 21
3117.360267
  0
LINE
  8
CSLAYER3
  6
CONTINUOUS
 62
     3
 10
4126.117733
 20
3214.695231
 11
4249.863569
 21
3232.357848
  0
LINE
  8
CSLAYER3
  6
CONTINUOUS
 62
     3
 10
4108.412661
 20
3061.107814
 11
4201.393994
 21
3056.847874
  0
LINE
  8
CSLAYER3
  6
DOT
 62
     3
 10
4154.779627
 20
3127.285207
 11
4154.779627
 21
3056.589455
  0
LINE
  8
CSLAYER3
  6
DOT
 62
     3
 10
4150.436770
 20
3127.285207
 11
4150.436770
 21
3056.589455
  0
LINE
  8
CSLAYER3
  6
DOT
 62
     3
 10
4165.636770
 20
3138.142349
 11
4165.636770
 21
3055.531450
  0
LINE
  8
CSLAYER3
  6
DOT
 62
     3
 10
4139.579627
 20
3138.142349
 11
4139.579627
 21
3058.070662
  0
LINE
  8
CSLAYER3
  6
DOT
 62
     3
 10
4165.636770
 20
3138.142349
 11
4139.579627
 21
3138.142349
  0
LINE
  8
CSLAYER3
  6
DOT
 62
     3
 10
4154.779627
 20
3127.285207
 11
4150.436770
 21
3127.285207
  0
LINE
  8
CSLAYER3
  6
CONTINUOUS
 62
     4
 10
4108.386604
 20
3060.890019
 11
4126.799236
 21
3214.792504
  0
LINE
  8
CSLAYER3
  6
CONTINUOUS
 62
     3
 10
4250.609480
 20
3117.360267
 11
4201.393994
 21
3056.847874
  0
ENDBLK
  8
0
  0
BLOCK
  8
CSLAYER1
  2
BLKF0010
 70
   64
 10
0.0
 20
0.0
 30
0.0
  0
LINE
  8
CSLAYER3
  6
CONTINUOUS
 62
     3
 10
4249.863569
 20
2840.050415
 11
4250.609480
 21
2955.047995
  0
LINE
  8
CSLAYER3
  6
CONTINUOUS
 62
     3
 10
4126.117733
 20
2857.713031
 11
4249.863569
 21
2840.050415
  0
LINE
  8
CSLAYER3
  6
CONTINUOUS
 62
     3
 10
4108.412661
 20
3011.300449
 11
4201.393994
 21
3015.560388
  0
LINE
  8
CSLAYER3
  6
DOT
 62
     3
 10
4154.779627
 20
2945.123056
 11
4154.779627
 21
3015.818807
  0
LINE
  8
CSLAYER3
  6
DOT
 62
     3
 10
4150.436770
 20
2945.123056
 11
4150.436770
 21
3015.818807
  0
LINE
  8
CSLAYER3
  6
DOT
 62
     3
 10
4165.636770
 20
2934.265913
 11
4165.636770
 21
3016.876812
  0
LINE
  8
CSLAYER3
  6
DOT
 62
     3
 10
4139.579627
 20
2934.265913
 11
4139.579627
 21
3014.337601
  0
LINE
  8
CSLAYER3
  6
DOT
 62
     3
 10
4165.636770
 20
2934.265913
 11
4139.579627
 21
2934.265913
  0
LINE
  8
CSLAYER3
  6
DOT
 62
     3
 10
4154.779627
 20
2945.123056
 11
4150.436770
 21
2945.123056
  0
LINE
  8
CSLAYER3
  6
CONTINUOUS
 62
     4
 10
4108.386604
 20
3011.518243
 11
4126.799236
 21
2857.615758
  0
LINE
  8
CSLAYER3
  6
CONTINUOUS
 62
     3
 10
4250.609480
 20
2955.047995
 11
4201.393994
 21
3015.560388
  0
ENDBLK
  8
0
  0
BLOCK
  8
CSLAYER1
  2
BLKF0011
 70
   64
 10
0.0
 20
0.0
 30
0.0
  0
LINE
  8
CSLAYER3
  6
CONTINUOUS
 62
     3
 10
4733.229954
 20
2712.672850
 11
4866.115178
 21
2712.672850
  0
LINE
  8
CSLAYER3
  6
CONTINUOUS
 62
     3
 10
4865.979672
 20
2712.675669
 11
5158.017705
 21
2704.379651
  0
LINE
  8
CSLAYER3
  6
CONTINUOUS
 62
     3
 10
4865.979672
 20
2664.898601
 11
5158.017273
 21
2673.194607
  0
LINE
  8
CSLAYER3
  6
CONTINUOUS
 62
     3
 10
4733.229954
 20
2664.901421
 11
4866.115178
 21
2664.901421
  0
LINE
  8
CSLAYER3
  6
CONTINUOUS
 62
     3
 10
4733.229954
 20
2712.672850
 11
4733.229954
 21
2664.901421
  0
LINE
  8
CSLAYER3
  6
CONTINUOUS
 62
     3
 10
5147.423861
 20
2692.786893
 11
5147.419563
 21
2684.786893
  0
LINE
  8
CSLAYER3
  6
CONTINUOUS
 62
     3
 10
5147.423861
 20
2692.786893
 11
5158.017705
 21
2704.379651
  0
LINE
  8
CSLAYER3
  6
CONTINUOUS
 62
     3
 10
5147.423861
 20
2684.786893
 11
5158.017705
 21
2673.194134
  0
LINE
  8
CSLAYER3
  6
CONTINUOUS
 62
     3
 10
4753.229954
 20
2712.672850
 11
4753.229954
 21
2664.901421
  0
ENDBLK
  8
0
  0
BLOCK
  8
CSLAYER1
  2
BLKF0012
 70
   64
 10
0.0
 20
0.0
 30
0.0
  0
TEXT
  8
CSLAYER3
 62
     3
 10
4523.310547
 20
3111.288330
 40
20.000000
 41
0.529412
  1
機首ブロック
 50
0.000000
 51
0.000000
  7
FX_FONT
 72
     5
 11
4583.310547
 21
3111.288330
  0
ENDBLK
  8
0
  0
BLOCK
  8
CSLAYER1
  2
BLKF0013
 70
   64
 10
0.0
 20
0.0
 30
0.0
  0
ARC
  8
CSLAYER3
  6
CONTINUOUS
 62
     3
 10
4619.202441
 20
2954.886169
 40
86.879767
 50
88.907661
 51
107.434077
  0
ARC
  8
CSLAYER3
  6
CONTINUOUS
 62
     3
 10
4600.836057
 20
3012.370515
 40
26.535094
 50
106.786530
 51
130.089721
  0
ARC
  8
CSLAYER3
  6
CONTINUOUS
 62
     3
 10
4593.469233
 20
3023.902476
 40
13.091606
 50
137.950679
 51
171.638595
  0
ARC
  8
CSLAYER3
  6
CONTINUOUS
 62
     3
 10
4600.836057
 20
3037.131285
 40
26.535094
 50
229.910279
 51
253.213470
  0
ARC
  8
CSLAYER3
  6
CONTINUOUS
 62
     3
 10
4593.469233
 20
3025.599324
 40
13.091606
 50
188.361405
 51
222.049321
  0
ARC
  8
CSLAYER3
  6
CONTINUOUS
 62
     3
 10
4619.202441
 20
3094.615631
 40
86.879767
 50
252.565923
 51
271.092339
  0
LINE
  8
CSLAYER3
  6
CONTINUOUS
 62
     3
 10
4580.516784
 20
3025.806213
 11
4580.516784
 21
3023.695587
  0
LINE
  8
CSLAYER3
  6
CONTINUOUS
 62
     3
 10
4620.858696
 20
3041.750148
 11
4502.528186
 21
3041.750148
  0
LINE
  8
CSLAYER3
  6
CONTINUOUS
 62
     3
 10
4620.858696
 20
3007.751652
 11
4502.528186
 21
3007.751652
  0
LINE
  8
CSLAYER3
  6
CONTINUOUS
 62
     3
 10
4502.528186
 20
3007.751652
 11
4502.528186
 21
3041.750148
  0
ENDBLK
  8
0
  0
BLOCK
  8
CSLAYER1
  2
BLKF0014
 70
   64
 10
0.0
 20
0.0
 30
0.0
  0
LINE
  8
CSLAYER3
  6
CONTINUOUS
 62
     3
 10
5457.133174
 20
2729.649903
 11
5342.135594
 21
2728.903992
  0
LINE
  8
CSLAYER3
  6
CONTINUOUS
 62
     3
 10
5439.470558
 20
2853.395739
 11
5457.133174
 21
2729.649903
  0
LINE
  8
CSLAYER3
  6
CONTINUOUS
 62
     3
 10
5283.957806
 20
2829.076702
 11
5281.623201
 21
2778.119478
  0
LINE
  8
CSLAYER3
  6
DOT
 62
     3
 10
5352.060533
 20
2824.733845
 11
5283.758838
 21
2824.733845
  0
LINE
  8
CSLAYER3
  6
DOT
 62
     3
 10
5352.060533
 20
2829.076702
 11
5283.957806
 21
2829.076702
  0
LINE
  8
CSLAYER3
  6
DOT
 62
     3
 10
5362.917676
 20
2813.876702
 11
5283.261418
 21
2813.876702
  0
LINE
  8
CSLAYER3
  6
DOT
 62
     3
 10
5362.917676
 20
2839.933845
 11
5284.919355
 21
2839.933845
  0
LINE
  8
CSLAYER3
  6
DOT
 62
     3
 10
5362.917676
 20
2813.876702
 11
5362.917676
 21
2839.933845
  0
LINE
  8
CSLAYER3
  6
DOT
 62
     3
 10
5352.060533
 20
2824.733845
 11
5352.060533
 21
2829.076702
  0
LINE
  8
CSLAYER3
  6
CONTINUOUS
 62
     4
 10
5287.660783
 20
2870.888137
 11
5439.567831
 21
2852.714235
  0
LINE
  8
CSLAYER3
  6
CONTINUOUS
 62
     3
 10
5342.135594
 20
2728.903992
 11
5281.623201
 21
2778.119478
  0
ENDBLK
  8
0
  0
BLOCK
  8
CSLAYER1
  2
BLKF0015
 70
   64
 10
0.0
 20
0.0
 30
0.0
  0
LINE
  8
CSLAYER3
  6
CONTINUOUS
 62
     3
 10
5248.763570
 20
2825.712410
 11
5180.461875
 21
2825.712410
  0
LINE
  8
CSLAYER3
  6
CONTINUOUS
 62
     3
 10
5248.763570
 20
2830.055267
 11
5180.660843
 21
2830.055267
  0
LINE
  8
CSLAYER3
  6
CONTINUOUS
 62
     3
 10
5259.620713
 20
2814.855267
 11
5179.964455
 21
2814.855267
  0
LINE
  8
CSLAYER3
  6
CONTINUOUS
 62
     3
 10
5259.620713
 20
2840.912410
 11
5181.622392
 21
2840.912410
  0
LINE
  8
CSLAYER3
  6
CONTINUOUS
 62
     3
 10
5259.620713
 20
2814.855267
 11
5259.620713
 21
2840.912410
  0
LINE
  8
CSLAYER3
  6
CONTINUOUS
 62
     3
 10
5248.763570
 20
2825.712410
 11
5248.763570
 21
2830.055267
  0
ENDBLK
  8
0
  0
BLOCK
  8
CSLAYER1
  2
BLKF0016
 70
   64
 10
0.0
 20
0.0
 30
0.0
  0
LINE
  8
CSLAYER3
  6
CENTER
 62
     3
 10
4757.859776
 20
2920.185887
 11
4808.009675
 21
2920.185887
  0
LINE
  8
CSLAYER3
  6
CENTER
 62
     3
 10
4810.723961
 20
2920.185887
 11
4920.723961
 21
2920.185887
  0
LINE
  8
CSLAYER3
  6
CONTINUOUS
 62
     3
 10
4808.009675
 20
2934.200877
 11
4808.009675
 21
2906.170897
  0
LINE
  8
CSLAYER3
  6
CONTINUOUS
 62
     3
 10
4810.723961
 20
2934.152912
 11
4810.723961
 21
2906.218861
  0
ARC
  8
CSLAYER3
  6
CONTINUOUS
 62
     3
 10
4807.805567
 20
2731.661782
 40
202.539198
 50
89.942261
 51
101.201691
  0
ARC
  8
CSLAYER3
  6
CONTINUOUS
 62
     3
 10
4775.240840
 20
2907.805501
 40
23.535094
 50
106.746134
 51
129.570055
  0
ARC
  8
CSLAYER3
  6
CONTINUOUS
 62
     3
 10
4767.874016
 20
2919.337463
 40
10.091606
 50
139.080530
 51
171.383098
  0
ARC
  8
CSLAYER3
  6
CONTINUOUS
 62
     3
 10
4787.989258
 20
2119.317230
 40
815.152781
 50
86.958600
 51
88.401807
  0
LINE
  8
CSLAYER3
  6
CONTINUOUS
 62
     3
 10
4870.476499
 20
2928.224667
 11
4882.975898
 21
2926.350254
  0
LINE
  8
CSLAYER3
  6
CONTINUOUS
 62
     3
 10
4920.723961
 20
2920.185887
 11
4882.975898
 21
2926.350254
  0
LINE
  8
CSLAYER3
  6
CONTINUOUS
 62
     3
 10
4851.673544
 20
2931.179244
 11
4870.476499
 21
2928.224667
  0
ARC
  8
CSLAYER3
  6
CONTINUOUS
 62
     3
 10
4763.902424
 20
2920.185887
 40
6.042648
 50
173.695367
 51
186.304633
  0
ARC
  8
CSLAYER3
  6
CONTINUOUS
 62
     3
 10
4807.805567
 20
3108.709991
 40
202.539198
 50
258.798309
 51
270.057739
  0
ARC
  8
CSLAYER3
  6
CONTINUOUS
 62
     3
 10
4775.240840
 20
2932.566272
 40
23.535094
 50
230.429945
 51
253.253866
  0
ARC
  8
CSLAYER3
  6
CONTINUOUS
 62
     3
 10
4767.874016
 20
2921.034310
 40
10.091606
 50
188.616902
 51
220.919470
  0
ARC
  8
CSLAYER3
  6
CONTINUOUS
 62
     3
 10
4787.989258
 20
3721.054544
 40
815.152781
 50
271.598193
 51
273.041400
  0
LINE
  8
CSLAYER3
  6
CONTINUOUS
 62
     3
 10
4870.476499
 20
2912.147107
 11
4882.975898
 21
2914.021520
  0
LINE
  8
CSLAYER3
  6
CONTINUOUS
 62
     3
 10
4920.723961
 20
2920.185887
 11
4882.975898
 21
2914.021520
  0
LINE
  8
CSLAYER3
  6
CONTINUOUS
 62
     3
 10
4851.673544
 20
2909.192529
 11
4870.476499
 21
2912.147107
  0
ARC
  8
CSLAYER3
  6
CONTINUOUS
 62
     3
 10
4820.627743
 20
2733.603542
 40
200.000000
 50
81.069922
 51
86.958600
  0
ARC
  8
CSLAYER3
  6
CONTINUOUS
 62
     3
 10
4820.627743
 20
3106.768231
 40
200.000000
 50
273.041400
 51
278.930078
  0
ENDBLK
  8
0
  0
BLOCK
  8
CSLAYER1
  2
BLKF0017
 70
   64
 10
0.0
 20
0.0
 30
0.0
  0
LINE
  8
CSLAYER3
  6
CONTINUOUS
 62
     3
 10
5355.114961
 20
3312.130982
 11
4652.646767
 21
3312.130982
  0
LINE
  8
CSLAYER3
  6
CONTINUOUS
 62
     3
 10
5355.114961
 20
3284.130982
 11
4652.646767
 21
3284.130982
  0
ARC
  8
CSLAYER3
  6
CONTINUOUS
 62
     3
 10
5353.755056
 20
3272.784018
 40
39.370458
 50
40.076265
 51
88.020537
  0
LINE
  8
CSLAYER3
  6
CENTER
 62
     3
 10
5003.880864
 20
3312.130982
 11
5003.880864
 21
3284.130982
  0
LINE
  8
CSLAYER3
  6
CENTER
 62
     3
 10
5030.880864
 20
3312.130982
 11
5030.880864
 21
3284.130982
  0
LINE
  8
CSLAYER3
  6
CENTER
 62
     3
 10
5110.880864
 20
3312.130982
 11
5110.880864
 21
3284.130982
  0
LINE
  8
CSLAYER3
  6
CENTER
 62
     3
 10
5190.880864
 20
3312.130982
 11
5190.880864
 21
3284.130982
  0
LINE
  8
CSLAYER3
  6
CENTER
 62
     3
 10
5270.880864
 20
3312.130982
 11
5270.880864
 21
3284.130982
  0
LINE
  8
CSLAYER3
  6
CENTER
 62
     3
 10
5350.880864
 20
3312.130982
 11
5350.880864
 21
3284.130982
  0
ARC
  8
CSLAYER3
  6
CONTINUOUS
 62
     3
 10
5353.755056
 20
3323.477947
 40
39.370458
 50
271.979463
 51
319.923735
  0
ARC
  8
CSLAYER3
  6
CONTINUOUS
 62
     3
 10
4654.006673
 20
3272.784018
 40
39.370458
 50
91.979463
 51
139.923735
  0
LINE
  8
CSLAYER3
  6
CENTER
 62
     3
 10
4976.880864
 20
3312.130982
 11
4976.880864
 21
3284.130982
  0
LINE
  8
CSLAYER3
  6
CENTER
 62
     3
 10
4896.880864
 20
3312.130982
 11
4896.880864
 21
3284.130982
  0
LINE
  8
CSLAYER3
  6
CENTER
 62
     3
 10
4816.880864
 20
3312.130982
 11
4816.880864
 21
3284.130982
  0
LINE
  8
CSLAYER3
  6
CENTER
 62
     3
 10
4736.880864
 20
3312.130982
 11
4736.880864
 21
3284.130982
  0
LINE
  8
CSLAYER3
  6
CENTER
 62
     3
 10
4656.880864
 20
3312.130982
 11
4656.880864
 21
3284.130982
  0
ARC
  8
CSLAYER3
  6
CONTINUOUS
 62
     3
 10
4654.006673
 20
3323.477947
 40
39.370458
 50
220.076265
 51
268.020537
  0
ENDBLK
  8
0
  0
ENDSEC
  0
SECTION
  2
ENTITIES
  0
INSERT
  8
CSLAYER1
  2
BLKF0000
 10
0.0
 20
0.0
 30
0.0
  0
LINE
  8
CSLAYER3
  6
CONTINUOUS
 62
     3
 10
4297.923727
 20
3036.204131
 11
3521.664025
 21
3036.204131
  0
LINE
  8
CSLAYER3
  6
CONTINUOUS
 62
     3
 10
3521.664025
 20
3057.918417
 11
3521.664025
 21
3014.489845
  0
LINE
  8
CSLAYER3
  6
CONTINUOUS
 62
     3
 10
4103.547580
 20
2493.346988
 11
4239.949009
 21
2493.346988
  0
LINE
  8
CSLAYER3
  6
CONTINUOUS
 62
     3
 10
4233.833294
 20
2493.346988
 11
4173.255227
 21
2499.717163
  0
ARC
  8
CSLAYER3
  6
CONTINUOUS
 62
     3
 10
4146.384832
 20
2220.843888
 40
280.164812
 50
84.496346
 51
96.029948
  0
ARC
  8
CSLAYER3
  6
CONTINUOUS
 62
     3
 10
4121.070419
 20
2469.085845
 40
30.650417
 50
97.718270
 51
123.147387
  0
ARC
  8
CSLAYER3
  6
CONTINUOUS
 62
     3
 10
4121.070419
 20
2517.608131
 40
30.650417
 50
236.852613
 51
262.281730
  0
ARC
  8
CSLAYER3
  6
CONTINUOUS
 62
     3
 10
4146.384832
 20
2765.850089
 40
280.164812
 50
263.970052
 51
275.503654
  0
LINE
  8
CSLAYER3
  6
CONTINUOUS
 62
     3
 10
4233.833294
 20
2493.346988
 11
4173.255227
 21
2486.976814
  0
ARC
  8
CSLAYER3
  6
CONTINUOUS
 62
     3
 10
4105.215689
 20
2493.346988
 40
1.668110
 50
122.845947
 51
237.154053
  0
LINE
  8
CSLAYER3
  6
CONTINUOUS
 62
     3
 10
4290.342802
 20
2611.091149
 11
4190.342932
 21
2610.929763
  0
LINE
  8
CSLAYER3
  6
CONTINUOUS
 62
     3
 10
3627.338078
 20
3063.346988
 11
3909.594731
 21
3063.346988
  0
LINE
  8
CSLAYER3
  6
CONTINUOUS
 62
     3
 10
3627.338078
 20
3009.061274
 11
3909.594731
 21
3009.061274
  0
LINE
  8
CSLAYER3
  6
CONTINUOUS
 62
     3
 10
3627.338078
 20
3063.346988
 11
3521.664025
 21
3057.918417
  0
LINE
  8
CSLAYER3
  6
CONTINUOUS
 62
     3
 10
3521.664025
 20
3014.489845
 11
3627.338078
 21
3009.061274
  0
LINE
  8
CSLAYER3
  6
CONTINUOUS
 62
     3
 10
4297.923727
 20
3039.461274
 11
4048.391507
 21
3039.461274
  0
LINE
  8
CSLAYER3
  6
CONTINUOUS
 62
     3
 10
4297.923727
 20
3032.946988
 11
4048.391507
 21
3032.946988
  0
LINE
  8
CSLAYER3
  6
CONTINUOUS
 62
     3
 10
3510.692054
 20
2895.061274
 11
3510.692054
 21
3177.346988
  0
LINE
  8
CSLAYER3
  6
CONTINUOUS
 62
     3
 10
3518.624957
 20
3090.489845
 11
3499.784312
 21
3090.489845
  0
LINE
  8
CSLAYER3
  6
CONTINUOUS
 62
     3
 10
3510.692054
 20
3177.346988
 11
3499.784312
 21
3090.489845
  0
LINE
  8
CSLAYER3
  6
CONTINUOUS
 62
     3
 10
3518.624957
 20
2981.918417
 11
3499.784312
 21
2981.918417
  0
LINE
  8
CSLAYER3
  6
CONTINUOUS
 62
     3
 10
3499.784312
 20
3090.489845
 11
3518.624957
 21
2981.918417
  0
LINE
  8
CSLAYER3
  6
CONTINUOUS
 62
     3
 10
3518.624957
 20
2981.918417
 11
3510.692054
 21
2895.061274
  0
LINE
  8
CSLAYER3
  6
CONTINUOUS
 62
     3
 10
3510.692054
 20
2895.061274
 11
3499.784312
 21
2981.918417
  0
LINE
  8
CSLAYER3
  6
CONTINUOUS
 62
     3
 10
3499.784312
 20
2981.918417
 11
3518.624957
 21
3090.489845
  0
LINE
  8
CSLAYER3
  6
CONTINUOUS
 62
     3
 10
3518.624957
 20
3090.489845
 11
3510.692054
 21
3177.346988
  0
LINE
  8
CSLAYER3
  6
CONTINUOUS
 62
     3
 10
3617.613806
 20
2440.476311
 11
3583.785462
 21
2339.128777
  0
CIRCLE
  8
CSLAYER3
  6
CONTINUOUS
 62
     3
 10
3573.785462
 20
2339.128777
 40
13.571429
  0
LINE
  8
CSLAYER3
  6
CONTINUOUS
 62
     3
 10
3570.521168
 20
3017.746988
 11
3570.521168
 21
3054.661274
  0
LINE
  8
CSLAYER3
  6
CONTINUOUS
 62
     3
 10
3570.521168
 20
3017.746988
 11
3576.634314
 21
3017.746988
  0
LINE
  8
CSLAYER3
  6
CONTINUOUS
 62
     3
 10
3570.521168
 20
3054.661274
 11
3576.634314
 21
3054.661274
  0
LINE
  8
CSLAYER3
  6
CONTINUOUS
 62
     3
 10
3627.338078
 20
2687.689845
 11
3796.709507
 21
2687.689845
  0
LINE
  8
CSLAYER3
  6
CONTINUOUS
 62
     3
 10
3627.338078
 20
2928.718417
 11
3796.709507
 21
2928.718417
  0
LINE
  8
CSLAYER3
  6
CONTINUOUS
 62
     3
 10
3627.338078
 20
2848.375560
 11
3796.709507
 21
2848.375560
  0
LINE
  8
CSLAYER3
  6
CONTINUOUS
 62
     3
 10
3627.338078
 20
2768.032703
 11
3796.709507
 21
2768.032703
  0
LINE
  8
CSLAYER3
  6
CONTINUOUS
 62
     3
 10
3666.423793
 20
2656.204131
 11
3666.423793
 21
3416.204131
  0
LINE
  8
CSLAYER3
  6
CONTINUOUS
 62
     3
 10
3669.138078
 20
2656.204131
 11
3669.138078
 21
3416.204131
  0
LINE
  8
CSLAYER3
  6
CONTINUOUS
 62
     3
 10
3909.594731
 20
3063.346988
 11
4190.911554
 21
3055.355531
  0
LINE
  8
CSLAYER3
  6
CONTINUOUS
 62
     3
 10
3627.338078
 20
3060.089845
 11
3909.594731
 21
3060.089845
  0
LINE
  8
CSLAYER3
  6
CONTINUOUS
 62
     3
 10
3909.459226
 20
3060.092665
 11
4190.817747
 21
3052.100023
  0
LINE
  8
CSLAYER3
  6
CONTINUOUS
 62
     3
 10
3909.459226
 20
3012.315597
 11
4190.793798
 21
3020.307559
  0
LINE
  8
CSLAYER3
  6
CONTINUOUS
 62
     3
 10
3909.594731
 20
3009.061274
 11
4190.890977
 21
3017.052147
  0
LINE
  8
CSLAYER3
  6
CONTINUOUS
 62
     3
 10
3627.338078
 20
3012.318417
 11
3909.594731
 21
3012.318417
  0
LINE
  8
CSLAYER3
  6
CONTINUOUS
 62
     7
 10
3796.709507
 20
3060.089845
 11
3796.709507
 21
3012.318417
  0
LINE
  8
CSLAYER3
  6
CONTINUOUS
 62
     3
 10
4190.342932
 20
2416.374474
 11
4307.312925
 21
2423.739637
  0
LINE
  8
CSLAYER3
  6
CONTINUOUS
 62
     3
 10
4307.312925
 20
2423.739637
 11
4290.342802
 21
2611.091149
  0
LINE
  8
CSLAYER3
  6
CONTINUOUS
 62
     3
 10
4154.779627
 20
3123.061274
 11
4154.779627
 21
2949.346988
  0
LINE
  8
CSLAYER3
  6
CONTINUOUS
 62
     3
 10
4150.436770
 20
3123.061274
 11
4150.436770
 21
2949.346988
  0
LINE
  8
CSLAYER3
  6
CONTINUOUS
 62
     3
 10
4154.779627
 20
3123.061274
 11
4150.436770
 21
3123.061274
  0
LINE
  8
CSLAYER3
  6
CONTINUOUS
 62
     3
 10
4154.779627
 20
2949.346988
 11
4150.436770
 21
2949.346988
  0
LINE
  8
CSLAYER3
  6
CONTINUOUS
 62
     3
 10
3521.602235
 20
2493.346988
 11
3634.155384
 21
2493.346988
  0
LINE
  8
CSLAYER3
  6
CONTINUOUS
 62
     3
 10
4297.923727
 20
3039.461274
 11
4297.923727
 21
3032.946988
  0
LINE
  8
CSLAYER3
  6
CONTINUOUS
 62
     3
 10
4155.370603
 20
3122.237820
 11
4151.027746
 21
3122.237820
  0
TEXT
  8
CSLAYER3
 62
     3
 10
3683.120129
 20
3214.919306
 40
48.928967
 41
0.642211
  1
18.5dm
 50
0.000000
 51
0.000000
  7
FX_FONT
 72
     5
 11
3861.182117
 21
3214.919306
  0
CIRCLE
  8
CSLAYER3
  6
CONTINUOUS
 62
     3
 10
4152.608198
 20
2493.346988
 40
2.000000
  0
LINE
  8
CSLAYER3
  6
CONTINUOUS
 62
     3
 10
3776.709507
 20
3060.089845
 11
3776.709507
 21
3012.318417
  0
LINE
  8
CSLAYER3
  6
CONTINUOUS
 62
     3
 10
3567.228708
 20
3056.857008
 11
3567.228708
 21
3015.551254
  0
LINE
  8
CSLAYER3
  6
CONTINUOUS
 62
     3
 10
3567.228708
 20
3015.551254
 11
3627.465779
 21
3012.058555
  0
LINE
  8
CSLAYER3
  6
CONTINUOUS
 62
     3
 10
3627.465779
 20
3060.349707
 11
3567.228708
 21
3056.857008
  0
TEXT
  8
CSLAYER3
 62
     3
 10
3956.694210
 20
2727.400635
 40
38.229980
 41
0.903127
  1
Akabara13
 50
0.000000
 51
0.000000
  7
FX_FONT
 72
     5
 11
4255.923954
 21
2727.400635
  0
INSERT
  8
CSLAYER1
  2
BLKF0001
 10
0.0
 20
0.0
 30
0.0
  0
ARC
  8
CSLAYER3
  6
CONTINUOUS
 62
     3
 10
4152.608198
 20
2505.346988
 40
3.500000
 50
0.000000
 51
180.000000
  0
LINE
  8
CSLAYER3
  6
CONTINUOUS
 62
     3
 10
4156.108198
 20
2505.346988
 11
4156.108198
 21
2493.346988
  0
LINE
  8
CSLAYER3
  6
CONTINUOUS
 62
     3
 10
4149.108198
 20
2505.346988
 11
4149.108198
 21
2493.346988
  0
ARC
  8
CSLAYER3
  6
CONTINUOUS
 62
     3
 10
4152.608198
 20
2493.346988
 40
3.500000
 50
180.000000
 51
360.000000
  0
LINE
  8
CSLAYER3
  6
DOT
 62
     3
 10
4152.608198
 20
2505.346988
 11
4032.608198
 21
2509.989845
  0
INSERT
  8
CSLAYER1
  2
BLKF0002
 10
0.0
 20
0.0
 30
0.0
  0
LINE
  8
CSLAYER3
  6
DOT
 62
     3
 10
4032.608198
 20
2480.549159
 11
4154.431453
 21
2467.701999
  0
LINE
  8
CSLAYER3
  6
CONTINUOUS
 62
     3
 10
4191.324144
 20
2470.815724
 11
4201.142887
 21
2470.815724
  0
LINE
  8
CSLAYER3
  6
CONTINUOUS
 62
     3
 10
4201.142887
 20
2470.815724
 11
4201.142887
 21
2455.060067
  0
LINE
  8
CSLAYER3
  6
CONTINUOUS
 62
     3
 10
4201.142887
 20
2455.060067
 11
4191.324144
 21
2455.060067
  0
LINE
  8
CSLAYER3
  6
CONTINUOUS
 62
     3
 10
4191.324144
 20
2455.060067
 11
4191.324144
 21
2470.815724
  0
LINE
  8
CSLAYER3
  6
CONTINUOUS
 62
     3
 10
4189.237142
 20
2460.009301
 11
4199.740755
 21
2458.901618
  0
LINE
  8
CSLAYER3
  6
CONTINUOUS
 62
     3
 10
4189.237142
 20
2460.009301
 11
4190.404722
 21
2463.908353
  0
CIRCLE
  8
CSLAYER3
  6
CONTINUOUS
 62
     3
 10
4154.431453
 20
2467.701999
 40
2.000000
  0
LINE
  8
CSLAYER3
  6
CONTINUOUS
 62
     3
 10
4154.431453
 20
2467.701999
 11
4190.404722
 21
2463.908353
  0
LINE
  8
CSLAYER3
  6
CONTINUOUS
 62
     3
 10
4190.404722
 20
3039.461274
 11
4190.404722
 21
3029.204131
  0
CIRCLE
  8
CSLAYER3
  6
CONTINUOUS
 62
     3
 10
4190.404722
 20
3025.204131
 40
1.000000
  0
ARC
  8
CSLAYER3
  6
CONTINUOUS
 62
     3
 10
4190.404722
 20
3025.204131
 40
4.000000
 50
90.000000
 51
320.352925
  0
LINE
  8
CSLAYER3
  6
CONTINUOUS
 62
     3
 10
4202.056259
 20
3032.995848
 11
4193.484680
 21
3022.651904
  0
LINE
  8
CSLAYER3
  6
CONTINUOUS
 62
     3
 10
3597.290192
 20
2399.135179
 11
3412.400346
 21
2230.862350
  0
LINE
  8
CSLAYER3
  6
CONTINUOUS
 62
     3
 10
3412.400346
 20
2230.862350
 11
3463.549147
 21
2300.278580
  0
LINE
  8
CSLAYER3
  6
CONTINUOUS
 62
     3
 10
3412.400346
 20
2230.862350
 11
3484.893150
 21
2277.548603
  0
LINE
  8
CSLAYER3
  6
CENTER
 62
     7
 10
3311.935174
 20
2360.669350
 11
3311.935174
 21
2072.043974
  0
LINE
  8
CSLAYER3
  6
CONTINUOUS
 62
     3
 10
3311.935174
 20
2184.388662
 11
3342.374603
 21
2236.093992
  0
LINE
  8
CSLAYER3
  6
CONTINUOUS
 62
     3
 10
3342.374603
 20
2236.093992
 11
3383.579125
 21
2107.535883
  0
LINE
  8
CSLAYER3
  6
CONTINUOUS
 62
     3
 10
3383.579125
 20
2107.535883
 11
3401.579125
 21
2107.535883
  0
LINE
  8
CSLAYER3
  6
CONTINUOUS
 62
     3
 10
3311.935174
 20
2184.388662
 11
3281.495746
 21
2236.093992
  0
LINE
  8
CSLAYER3
  6
CONTINUOUS
 62
     3
 10
3281.495746
 20
2236.093992
 11
3240.291224
 21
2107.535883
  0
LINE
  8
CSLAYER3
  6
CONTINUOUS
 62
     3
 10
3240.291224
 20
2107.535883
 11
3209.236595
 21
2107.535883
  0
DIMENSION
  8
CSLAYER3
 62
     7
  2
*D0000
 10
3329.574609
 20
2243.629472
 11
3312.630615
 21
2218.791504
 13
3311.935174
 23
2184.388662
 14
3342.374603
 24
2236.093992
 50
59.514266
 70
1
  0
DIMENSION
  8
CSLAYER3
 62
     7
  2
*D0001
 10
3408.558276
 20
2115.542022
 11
3389.097412
 21
2182.812012
 13
3342.374603
 23
2236.093992
 14
3383.579125
 24
2107.535883
 50
287.771321
 52
-270.000000
 70
1
  0
DIMENSION
  8
CSLAYER3
 62
     7
  2
*D0002
 10
3401.579125
 20
2088.290106
 11
3415.062256
 21
2090.290527
 13
3383.579125
 23
2107.535883
 14
3401.579125
 24
2107.535883
 52
270.000000
 70
1
  0
LINE
  8
CSLAYER3
  6
CONTINUOUS
 62
     7
 10
3365.644475
 20
2170.044669
 11
3390.623627
 21
2178.050808
  0
LINE
  8
CSLAYER3
  6
CONTINUOUS
 62
     3
 10
3363.544257
 20
2170.044669
 11
3260.326091
 21
2170.044669
  0
DIMENSION
  8
CSLAYER3
 62
     7
  2
*D0003
 10
3363.544257
 20
2128.673004
 11
3311.934326
 21
2130.672852
 13
3260.326091
 23
2170.044669
 14
3363.544257
 24
2170.044669
 52
270.000000
 70
1
  0
INSERT
  8
CSLAYER1
  2
FXDIM0000
 10
0.0
 20
0.0
 30
0.0
  0
LINE
  8
CSLAYER3
  6
CONTINUOUS
 62
     3
 10
3713.788078
 20
3060.089845
 11
3713.788078
 21
3012.318417
  0
CIRCLE
  8
CSLAYER3
  6
CONTINUOUS
 62
     3
 10
3713.788078
 20
3036.204131
 40
10.000000
  0
INSERT
  8
CSLAYER1
  2
BLKF0003
 10
0.0
 20
0.0
 30
0.0
  0
INSERT
  8
CSLAYER1
  2
BLKF0004
 10
0.0
 20
0.0
 30
0.0
  0
INSERT
  8
CSLAYER1
  2
BLKF0005
 10
0.0
 20
0.0
 30
0.0
  0
TEXT
  8
CSLAYER3
 62
     3
 10
4007.206646
 20
2688.512816
 40
27.993410
 41
0.534483
  1
2004/06/13
 50
0.000000
 51
0.000000
  7
FX_FONT
 72
     5
 11
4151.839252
 21
2688.512816
  0
INSERT
  8
CSLAYER1
  2
BLKF0006
 10
0.0
 20
0.0
 30
0.0
  0
TEXT
  8
CSLAYER3
 62
     3
 10
5383.813477
 20
3124.760254
 40
30.000000
 41
0.562500
  1
ラダー
 50
0.000000
 51
0.000000
  7
FX_FONT
 72
     5
 11
5428.813477
 21
3124.760254
  0
INSERT
  8
CSLAYER1
  2
BLKF0007
 10
0.0
 20
0.0
 30
0.0
  0
INSERT
  8
CSLAYER1
  2
BLKF0008
 10
0.0
 20
0.0
 30
0.0
  0
LINE
  8
CSLAYER3
  6
CONTINUOUS
 62
     3
 10
4750.826826
 20
3001.411229
 11
4667.531007
 21
3015.129691
  0
LINE
  8
CSLAYER3
  6
CONTINUOUS
 62
     3
 10
5336.271704
 20
3206.651919
 11
5336.271704
 21
3006.096630
  0
ARC
  8
CSLAYER3
  6
CONTINUOUS
 62
     3
 10
5336.271704
 20
3152.366205
 40
54.285714
 50
90.000000
 51
112.350642
  0
LINE
  8
CSLAYER3
  6
CONTINUOUS
 62
     3
 10
5315.628271
 20
3202.573649
 11
5243.394487
 21
3164.187812
  0
LINE
  8
CSLAYER3
  6
CONTINUOUS
 62
     3
 10
5336.271704
 20
3006.096630
 11
5195.249201
 21
3019.857558
  0
ARC
  8
CSLAYER3
  6
CONTINUOUS
 62
     3
 10
5187.082543
 20
3270.154623
 40
120.000000
 50
261.835829
 51
297.986674
  0
LINE
  8
CSLAYER3
  6
CONTINUOUS
 62
     3
 10
5195.249201
 20
3019.857558
 11
4825.319346
 21
3001.411229
  0
LINE
  8
CSLAYER3
  6
CONTINUOUS
 62
     3
 10
5170.041348
 20
3151.370795
 11
4880.625816
 21
3180.880139
  0
LINE
  8
CSLAYER3
  6
CENTER
 62
     3
 10
4667.531007
 20
3086.069144
 11
5336.271704
 21
3086.069144
  0
LINE
  8
CSLAYER3
  6
CONTINUOUS
 62
     3
 10
4788.932854
 20
3178.609106
 11
4880.625816
 21
3180.880139
  0
LINE
  8
CSLAYER3
  6
CONTINUOUS
 62
     3
 10
4751.084350
 20
3172.410505
 11
4788.932854
 21
3178.609106
  0
LINE
  8
CSLAYER3
  6
CONTINUOUS
 62
     3
 10
4751.084350
 20
3172.410505
 11
4667.531007
 21
3126.735186
  0
LINE
  8
CSLAYER3
  6
CONTINUOUS
 62
     3
 10
4708.960680
 20
3148.140824
 11
4736.649108
 21
3132.843459
  0
LINE
  8
CSLAYER3
  6
CONTINUOUS
 62
     3
 10
4736.649108
 20
3132.843459
 11
4873.797727
 21
3127.885395
  0
LINE
  8
CSLAYER3
  6
CONTINUOUS
 62
     3
 10
4873.797727
 20
3127.885395
 11
4944.013376
 21
3133.570872
  0
LINE
  8
CSLAYER3
  6
CONTINUOUS
 62
     3
 10
4667.531007
 20
3126.735186
 11
4667.531007
 21
3015.129691
  0
LINE
  8
CSLAYER3
  6
CONTINUOUS
 62
     3
 10
4750.826826
 20
3001.411229
 11
4825.319346
 21
3001.411229
  0
ARC
  8
CSLAYER3
  6
CONTINUOUS
 62
     3
 10
4812.207248
 20
3016.204413
 40
86.879767
 50
88.907661
 51
107.434077
  0
ARC
  8
CSLAYER3
  6
CONTINUOUS
 62
     3
 10
4793.840864
 20
3073.688759
 40
26.535094
 50
106.786530
 51
130.089721
  0
ARC
  8
CSLAYER3
  6
CONTINUOUS
 62
     3
 10
4786.474040
 20
3085.220720
 40
13.091606
 50
137.950679
 51
171.638595
  0
ARC
  8
CSLAYER3
  6
CONTINUOUS
 62
     3
 10
4793.840864
 20
3098.449529
 40
26.535094
 50
229.910279
 51
253.213470
  0
ARC
  8
CSLAYER3
  6
CONTINUOUS
 62
     3
 10
4786.474040
 20
3086.917568
 40
13.091606
 50
188.361405
 51
222.049321
  0
ARC
  8
CSLAYER3
  6
CONTINUOUS
 62
     3
 10
4812.207248
 20
3155.933875
 40
86.879767
 50
252.565923
 51
271.092339
  0
ARC
  8
CSLAYER3
  6
CONTINUOUS
 62
     3
 10
4792.274996
 20
3886.937801
 40
818.152781
 50
271.512033
 51
273.819036
  0
LINE
  8
CSLAYER3
  6
CONTINUOUS
 62
     3
 10
4846.768399
 20
3070.601815
 11
4889.454757
 21
3075.053540
  0
LINE
  8
CSLAYER3
  6
CONTINUOUS
 62
     3
 10
4889.454757
 20
3075.053540
 11
4902.040146
 21
3076.940848
  0
LINE
  8
CSLAYER3
  6
CONTINUOUS
 62
     3
 10
4902.040146
 20
3076.940848
 11
4939.807488
 21
3083.108363
  0
LINE
  8
CSLAYER3
  6
CONTINUOUS
 62
     3
 10
4939.807488
 20
3089.029925
 11
4902.040146
 21
3095.197441
  0
LINE
  8
CSLAYER3
  6
CONTINUOUS
 62
     3
 10
4889.454757
 20
3097.084749
 11
4846.768399
 21
3101.536473
  0
LINE
  8
CSLAYER3
  6
CONTINUOUS
 62
     3
 10
4902.040146
 20
3095.197441
 11
4889.454757
 21
3097.084749
  0
ARC
  8
CSLAYER3
  6
CONTINUOUS
 62
     3
 10
4792.274996
 20
2285.200487
 40
818.152781
 50
86.180964
 51
88.487967
  0
ARC
  8
CSLAYER3
  6
CONTINUOUS
 62
     3
 10
4939.323984
 20
3086.069144
 40
3.000000
 50
-80.725302
 51
80.725302
  0
LINE
  8
CSLAYER3
  6
CONTINUOUS
 62
     3
 10
4773.521591
 20
3087.124457
 11
4773.521591
 21
3085.013831
  0
CIRCLE
  8
CSLAYER3
  6
CONTINUOUS
 62
     3
 10
5298.475180
 20
3086.069144
 40
3.000000
  0
INSERT
  8
CSLAYER1
  2
BLKF0009
 10
0.0
 20
0.0
 30
0.0
  0
INSERT
  8
CSLAYER1
  2
BLKF0010
 10
0.0
 20
0.0
 30
0.0
  0
LINE
  8
CSLAYER3
  6
CONTINUOUS
 62
     3
 10
4190.911554
 20
3055.355531
 11
4190.890977
 21
3017.052147
  0
LINE
  8
CSLAYER3
  6
CONTINUOUS
 62
     3
 10
4223.657841
 20
2463.904744
 11
4108.465347
 21
2463.904744
  0
INSERT
  8
CSLAYER1
  2
BLKF0011
 10
0.0
 20
0.0
 30
0.0
  0
LINE
  8
CSLAYER3
  6
CONTINUOUS
 62
     3
 10
4944.013376
 20
3133.570872
 11
4916.763410
 21
3177.195483
  0
LINE
  8
CSLAYER3
  6
CONTINUOUS
 62
     3
 10
4906.046750
 20
3178.288173
 11
4917.837827
 21
3131.451395
  0
LINE
  8
CSLAYER3
  6
CONTINUOUS
 62
     3
 10
3604.898054
 20
2408.689073
 11
3533.698156
 21
2420.415389
  0
LINE
  8
CSLAYER3
  6
CONTINUOUS
 62
     3
 10
4190.342932
 20
2610.929763
 11
4190.342932
 21
2416.374474
  0
ARC
  8
CSLAYER3
  6
CONTINUOUS
 62
     3
 10
4190.342932
 20
2556.644049
 40
54.285714
 50
90.000000
 51
112.350642
  0
LINE
  8
CSLAYER3
  6
CONTINUOUS
 62
     3
 10
4169.699499
 20
2606.851493
 11
4097.465714
 21
2568.465656
  0
LINE
  8
CSLAYER3
  6
CONTINUOUS
 62
     3
 10
4190.342932
 20
2416.374474
 11
4049.320429
 21
2430.135402
  0
ARC
  8
CSLAYER3
  6
CONTINUOUS
 62
     3
 10
4041.153771
 20
2674.432467
 40
120.000000
 50
261.835829
 51
297.986674
  0
LINE
  8
CSLAYER3
  6
CONTINUOUS
 62
     3
 10
4049.320429
 20
2430.135402
 11
3679.390573
 21
2408.689073
  0
LINE
  8
CSLAYER3
  6
CONTINUOUS
 62
     3
 10
4024.112576
 20
2555.648639
 11
3734.697043
 21
2585.157983
  0
LINE
  8
CSLAYER3
  6
CENTER
 62
     3
 10
3521.602235
 20
2493.346988
 11
4190.342932
 21
2493.346988
  0
LINE
  8
CSLAYER3
  6
CONTINUOUS
 62
     3
 10
3643.004082
 20
2585.886950
 11
3734.697043
 21
2585.157983
  0
LINE
  8
CSLAYER3
  6
CONTINUOUS
 62
     3
 10
3605.155577
 20
2579.688349
 11
3643.004082
 21
2585.886950
  0
LINE
  8
CSLAYER3
  6
CONTINUOUS
 62
     3
 10
3605.155577
 20
2579.688349
 11
3521.602235
 21
2534.013030
  0
LINE
  8
CSLAYER3
  6
CONTINUOUS
 62
     3
 10
3563.031908
 20
2555.418668
 11
3590.720335
 21
2540.121303
  0
LINE
  8
CSLAYER3
  6
CONTINUOUS
 62
     3
 10
3590.720335
 20
2540.121303
 11
3727.868954
 21
2535.163239
  0
LINE
  8
CSLAYER3
  6
CONTINUOUS
 62
     3
 10
3727.868954
 20
2535.163239
 11
3798.084604
 21
2540.848716
  0
LINE
  8
CSLAYER3
  6
CONTINUOUS
 62
     3
 10
3521.602235
 20
2534.013030
 11
3521.602235
 21
2469.131416
  0
LINE
  8
CSLAYER3
  6
CONTINUOUS
 62
     3
 10
3604.898054
 20
2408.689073
 11
3679.390573
 21
2408.689073
  0
ARC
  8
CSLAYER3
  6
CONTINUOUS
 62
     3
 10
3666.278476
 20
2423.482257
 40
86.879767
 50
88.907661
 51
107.434077
  0
ARC
  8
CSLAYER3
  6
CONTINUOUS
 62
     3
 10
3647.912092
 20
2480.966603
 40
26.535094
 50
106.786530
 51
130.089721
  0
ARC
  8
CSLAYER3
  6
CONTINUOUS
 62
     3
 10
3640.545267
 20
2492.498564
 40
13.091606
 50
137.950679
 51
171.638595
  0
ARC
  8
CSLAYER3
  6
CONTINUOUS
 62
     3
 10
3647.912092
 20
2505.727374
 40
26.535094
 50
229.910279
 51
253.213470
  0
ARC
  8
CSLAYER3
  6
CONTINUOUS
 62
     3
 10
3640.545267
 20
2494.195412
 40
13.091606
 50
188.361405
 51
222.049321
  0
ARC
  8
CSLAYER3
  6
CONTINUOUS
 62
     3
 10
3666.278476
 20
2563.211719
 40
86.879767
 50
252.565923
 51
271.092339
  0
ARC
  8
CSLAYER3
  6
CONTINUOUS
 62
     3
 10
3646.346224
 20
3294.215645
 40
818.152781
 50
271.512033
 51
273.819036
  0
LINE
  8
CSLAYER3
  6
CONTINUOUS
 62
     3
 10
3700.839626
 20
2477.879659
 11
3743.525984
 21
2482.331384
  0
LINE
  8
CSLAYER3
  6
CONTINUOUS
 62
     3
 10
3743.525984
 20
2482.331384
 11
3756.111374
 21
2484.218692
  0
LINE
  8
CSLAYER3
  6
CONTINUOUS
 62
     3
 10
3756.111374
 20
2484.218692
 11
3793.878716
 21
2490.386207
  0
LINE
  8
CSLAYER3
  6
CONTINUOUS
 62
     3
 10
3793.878716
 20
2496.307769
 11
3756.111374
 21
2502.475285
  0
LINE
  8
CSLAYER3
  6
CONTINUOUS
 62
     3
 10
3743.525984
 20
2504.362593
 11
3700.839626
 21
2508.814317
  0
LINE
  8
CSLAYER3
  6
CONTINUOUS
 62
     3
 10
3756.111374
 20
2502.475285
 11
3743.525984
 21
2504.362593
  0
ARC
  8
CSLAYER3
  6
CONTINUOUS
 62
     3
 10
3646.346224
 20
1692.478331
 40
818.152781
 50
86.180964
 51
88.487967
  0
ARC
  8
CSLAYER3
  6
CONTINUOUS
 62
     3
 10
3793.395212
 20
2493.346988
 40
3.000000
 50
-80.725302
 51
80.725302
  0
LINE
  8
CSLAYER3
  6
CONTINUOUS
 62
     3
 10
3627.592818
 20
2494.402301
 11
3627.592818
 21
2492.291675
  0
CIRCLE
  8
CSLAYER3
  6
CONTINUOUS
 62
     3
 10
4152.546407
 20
2493.346988
 40
3.000000
  0
LINE
  8
CSLAYER3
  6
CONTINUOUS
 62
     3
 10
3798.084604
 20
2540.848716
 11
3770.834638
 21
2581.473327
  0
LINE
  8
CSLAYER3
  6
CONTINUOUS
 62
     3
 10
3760.117978
 20
2582.566017
 11
3771.909055
 21
2538.729239
  0
LINE
  8
CSLAYER3
  6
CONTINUOUS
 62
     3
 10
3521.602235
 20
2469.131416
 11
3533.698156
 21
2420.415389
  0
LINE
  8
CSLAYER3
  6
CONTINUOUS
 62
     3
 10
4502.528186
 20
3110.216022
 11
4502.528186
 21
3063.326339
  0
LINE
  8
CSLAYER3
  6
CONTINUOUS
 62
     3
 10
4620.858696
 20
3111.297188
 11
4502.528186
 21
3110.216022
  0
LINE
  8
CSLAYER3
  6
CONTINUOUS
 62
     3
 10
4620.858696
 20
3110.914038
 11
4620.858696
 21
3062.625604
  0
LINE
  8
CSLAYER3
  6
CONTINUOUS
 62
     3
 10
4620.858696
 20
3062.245172
 11
4502.528186
 21
3063.326339
  0
LINE
  8
CSLAYER3
  6
DOT
 62
     7
 10
4580.516784
 20
3062.245172
 11
4580.516784
 21
3111.297188
  0
INSERT
  8
CSLAYER1
  2
BLKF0012
 10
0.0
 20
0.0
 30
0.0
  0
LINE
  8
CSLAYER3
  6
CONTINUOUS
 62
     7
 10
4637.508422
 20
3121.288305
 11
4591.002268
 21
3121.288305
  0
LINE
  8
CSLAYER3
  6
CONTINUOUS
 62
     7
 10
4483.095832
 20
3121.288305
 11
4483.095832
 21
2994.840200
  0
LINE
  8
CSLAYER3
  6
CONTINUOUS
 62
     7
 10
4483.095832
 20
2994.840200
 11
4637.508422
 21
2994.840200
  0
LINE
  8
CSLAYER3
  6
CONTINUOUS
 62
     7
 10
4637.508422
 20
2994.840200
 11
4637.508422
 21
3121.288305
  0
LINE
  8
CSLAYER3
  6
CONTINUOUS
 62
     7
 10
4516.835591
 20
3121.288305
 11
4483.095832
 21
3121.288305
  0
INSERT
  8
CSLAYER1
  2
BLKF0013
 10
0.0
 20
0.0
 30
0.0
  0
TEXT
  8
CSLAYER3
 62
     3
 10
5346.008011
 20
2765.581593
 40
20.202049
 41
0.521739
  1
フライングテール
 50
0.000000
 51
0.000000
  7
FX_FONT
 72
     5
 11
5426.816208
 21
2765.581593
  0
TEXT
  8
CSLAYER3
 62
     3
 10
5356.109035
 20
2745.379543
 40
20.202049
 41
0.529412
  1
エレベーター
 50
0.000000
 51
0.000000
  7
FX_FONT
 72
     5
 11
5416.715183
 21
2745.379543
  0
TEXT
  8
CSLAYER3
 62
     3
 10
4812.237305
 20
2809.663574
 40
30.000000
 41
0.545455
  1
エルロン
 50
0.000000
 51
0.000000
  7
FX_FONT
 72
     5
 11
4872.237305
 21
2809.663574
  0
CIRCLE
  8
CSLAYER3
  6
CONTINUOUS
 62
     3
 10
5290.059108
 20
2671.554422
 40
0.750000
  0
CIRCLE
  8
CSLAYER3
  6
CONTINUOUS
 62
     3
 10
5303.494137
 20
2684.989451
 40
0.750000
  0
CIRCLE
  8
CSLAYER3
  6
CONTINUOUS
 62
     3
 10
5302.433477
 20
2672.615082
 40
0.750000
  0
CIRCLE
  8
CSLAYER3
  6
CONTINUOUS
 62
     3
 10
5291.119768
 20
2683.928791
 40
0.750000
  0
CIRCLE
  8
CSLAYER3
  6
CONTINUOUS
 62
     3
 10
5296.776623
 20
2678.271936
 40
2.000000
  0
LINE
  8
CSLAYER3
  6
CONTINUOUS
 62
     3
 10
5278.776623
 20
2691.271936
 11
5314.776623
 21
2691.271936
  0
LINE
  8
CSLAYER3
  6
CONTINUOUS
 62
     3
 10
5278.776623
 20
2665.271936
 11
5314.776623
 21
2665.271936
  0
LINE
  8
CSLAYER3
  6
CONTINUOUS
 62
     3
 10
5317.776623
 20
2688.271936
 11
5317.776623
 21
2668.271936
  0
LINE
  8
CSLAYER3
  6
CONTINUOUS
 62
     3
 10
5275.776623
 20
2688.271936
 11
5275.776623
 21
2668.271936
  0
TEXT
  8
CSLAYER3
 62
     3
 10
5223.927734
 20
2630.647949
 40
30.000000
 41
0.517241
  1
AXIモーターベット
 50
0.000000
 51
0.000000
  7
FX_FONT
 72
     5
 11
5373.927734
 21
2630.647949
  0
LINE
  8
CSLAYER3
  6
CONTINUOUS
 62
     3
 10
5317.776623
 20
2688.271936
 11
5314.776623
 21
2691.271936
  0
LINE
  8
CSLAYER3
  6
CONTINUOUS
 62
     3
 10
5275.776623
 20
2688.271936
 11
5278.776623
 21
2691.271936
  0
LINE
  8
CSLAYER3
  6
CONTINUOUS
 62
     3
 10
5275.776623
 20
2668.271936
 11
5278.776623
 21
2665.271936
  0
LINE
  8
CSLAYER3
  6
CONTINUOUS
 62
     3
 10
5314.776623
 20
2665.271936
 11
5317.776623
 21
2668.271936
  0
LINE
  8
CSLAYER3
  6
CENTER
 62
     3
 10
5290.059108
 20
2671.554422
 11
5303.494137
 21
2684.989451
  0
LINE
  8
CSLAYER3
  6
CENTER
 62
     3
 10
5291.119768
 20
2683.928791
 11
5302.433477
 21
2672.615082
  0
TEXT
  8
CSLAYER3
 62
     3
 10
4841.509766
 20
2792.461182
 40
16.000000
 41
0.510000
  1
×45 3mm ×2 or 4mm
 50
0.000000
 51
0.000000
  7
FX_FONT
 72
     5
 11
4977.509766
 21
2792.461182
  0
TEXT
  8
CSLAYER3
 62
     3
 10
5339.915527
 20
2794.454834
 40
16.000000
 41
0.515625
  1
×45 3mm × 2
 50
0.000000
 51
0.000000
  7
FX_FONT
 72
     5
 11
5427.915527
 21
2794.454834
  0
LINE
  8
CSLAYER3
  6
CONTINUOUS
 62
     4
 10
4696.427357
 20
2782.219840
 11
4698.430931
 21
2875.971112
  0
LINE
  8
CSLAYER3
  6
CONTINUOUS
 62
     3
 10
4698.437414
 20
2876.274466
 11
5041.566484
 21
2852.585020
  0
LINE
  8
CSLAYER3
  6
CONTINUOUS
 62
     3
 10
5046.855928
 20
2782.219840
 11
4699.427357
 21
2782.219840
  0
LINE
  8
CSLAYER3
  6
CONTINUOUS
 62
     4
 10
5046.855928
 20
2782.219840
 11
5041.566484
 21
2852.585020
  0
INSERT
  8
CSLAYER1
  2
BLKF0014
 10
0.0
 20
0.0
 30
0.0
  0
LINE
  8
CSLAYER3
  6
CONTINUOUS
 62
     3
 10
5287.660783
 20
2870.888137
 11
5283.957806
 21
2829.076702
  0
INSERT
  8
CSLAYER1
  2
BLKF0015
 10
0.0
 20
0.0
 30
0.0
  0
LINE
  8
CSLAYER3
  6
CONTINUOUS
 62
     3
 10
5181.622392
 20
2840.912410
 11
5180.660843
 21
2830.055267
  0
LINE
  8
CSLAYER3
  6
CONTINUOUS
 62
     3
 10
5180.461875
 20
2825.712410
 11
5179.964455
 21
2814.855267
  0
INSERT
  8
CSLAYER1
  2
BLKF0016
 10
0.0
 20
0.0
 30
0.0
  0
TEXT
  8
CSLAYER3
 62
     3
 10
4845.414063
 20
2673.728760
 40
30.000000
 41
0.545455
  1
胴体リブ
 50
0.000000
 51
0.000000
  7
FX_FONT
 72
     5
 11
4905.414063
 21
2673.728760
  0
INSERT
  8
CSLAYER1
  2
BLKF0017
 10
0.0
 20
0.0
 30
0.0
  0
TEXT
  8
CSLAYER3
 62
     3
 10
4974.600098
 20
3238.999023
 40
30.000000
 41
0.562500
  1
スパー
 50
0.000000
 51
0.000000
  7
FX_FONT
 72
     5
 11
5019.600098
 21
3238.999023
  0
LINE
  8
CSLAYER3
  6
CONTINUOUS
 62
     3
 10
5562.904763
 20
3449.343174
 11
4445.878855
 21
3449.343174
  0
LINE
  8
CSLAYER3
  6
CONTINUOUS
 62
     3
 10
4445.878855
 20
3449.343174
 11
4445.878855
 21
2497.039981
  0
LINE
  8
CSLAYER3
  6
CONTINUOUS
 62
     3
 10
4445.878855
 20
2497.039981
 11
5562.904763
 21
2497.039981
  0
LINE
  8
CSLAYER3
  6
CONTINUOUS
 62
     3
 10
5562.904763
 20
2497.039981
 11
5562.904763
 21
3449.343174
  0
ENDSEC
  0
EOF
